osu file format v14

[General]
AudioFilename: audio.mp3
AudioLeadIn: 0
PreviewTime: 214763
Countdown: 0
SampleSet: Soft
StackLeniency: 0.7
Mode: 0
LetterboxInBreaks: 0
WidescreenStoryboard: 0

[Editor]
DistanceSpacing: 1
BeatDivisor: 4
GridSize: 4
TimelineZoom: 1.3

[Metadata]
Title:Fuyu ni Saku Hana
TitleUnicode:冬に咲く華
Artist:Mitsuki Kotono
ArtistUnicode:美月琴音
Creator:Garden
Version:Normal
Source:彼女のセイイキ
Tags:fuyuyu- Mamayu Kanau Silky feng kanojo no seiiki opening eroge visual novel
BeatmapID:1633679
BeatmapSetID:777681

[Difficulty]
HPDrainRate:3.5
CircleSize:3
OverallDifficulty:4
ApproachRate:5
SliderMultiplier:1.1
SliderTickRate:1

[Events]
//Background and Video events
0,0,"nm.jpg",0,0
//Break Periods
2,189351,198033
2,214963,228916
//Storyboard Layer 0 (Background)
//Storyboard Layer 1 (Fail)
//Storyboard Layer 2 (Pass)
//Storyboard Layer 3 (Foreground)
//Storyboard Sound Samples

[TimingPoints]
175,352.941176470588,4,2,1,40,1,0
5469,-100,4,2,1,55,0,0
5822,-100,4,2,1,70,0,0
11469,-133.333333333333,4,2,1,30,0,0
28057,-100,4,2,1,55,0,0
28410,-100,4,2,1,60,0,0
48174,-100,4,2,1,75,0,1
70674,-100,4,2,1,75,0,0
70763,-100,4,2,1,75,0,1
90527,-100,4,2,1,75,0,0
90616,-100,4,2,1,40,0,0
91939,-100,4,2,1,50,0,0
93351,-100,4,2,1,60,0,0
97586,-100,4,2,1,70,0,0
101822,-133.333333333333,4,2,1,60,0,0
101910,-133.333333333333,4,2,1,50,0,0
103233,-133.333333333333,4,2,1,45,0,0
104645,-133.333333333333,4,2,1,40,0,0
106057,-133.333333333333,4,2,1,35,0,0
107469,-133.333333333333,4,2,1,30,0,0
123704,-100,4,2,1,55,0,0
124410,-100,4,2,1,60,0,0
144174,-100,4,2,1,75,0,1
166674,-100,4,2,1,75,0,0
166763,-100,4,2,1,75,0,1
187763,-100,4,2,1,75,0,0
187939,-100,4,2,1,40,0,0
198880,-100,4,2,1,50,0,0
199233,-100,4,2,1,60,0,0
206292,-100,4,2,1,70,0,0
214763,-100,4,2,1,40,0,0
230116,-100,4,2,1,55,0,0
231704,-100,4,2,1,60,0,0
238586,-100,4,2,1,75,0,1
262763,-100,4,2,1,75,0,0
262851,-100,4,2,1,40,0,0
264174,-100,4,2,1,50,0,0
265586,-100,4,2,1,60,0,0
269822,-100,4,2,1,70,0,0
277674,-100,4,2,1,40,0,0
278292,-100,4,2,1,35,0,0
278998,-100,4,2,1,30,0,0
279704,-100,4,2,1,25,0,0
280410,-100,4,2,1,20,0,0
281116,-100,4,2,1,15,0,0
281469,-100,4,2,1,10,0,0

[Colours]
Combo1 : 255,168,168
Combo2 : 123,255,255
Combo3 : 255,255,134
Combo4 : 168,168,255

[HitObjects]
120,186,5469,5,4,0:3:0:0:
67,284,5822,2,0,L|182:277,1,110,12|8,0:0|0:0,0:0:0:0:
265,342,6527,2,0,L|388:336,1,110,8|8,0:0|0:0,0:0:0:0:
467,276,7233,1,10,0:0:0:0:
370,222,7586,1,10,0:0:0:0:
464,165,7939,2,0,L|462:52,1,110,10|2,0:0|1:2,0:0:0:0:
448,31,8469,1,0,1:0:0:0:
448,31,8645,6,0,P|404:60|335:55,1,110,12|8,1:2|0:0,0:0:0:0:
240,35,9351,2,0,L|236:98,1,55,0|0,1:0|1:0,0:0:0:0:
256,116,9704,2,0,L|252:181,1,55,0|2,1:0|1:2,0:0:0:0:
230,195,10057,2,0,B|122:169|131:260|9:212,2,220,10|8|12,0:0|0:0|0:0,0:0:0:0:
415,0,12880,6,0,P|460:61|441:146,1,165.000006294251,2|2,0:0|0:0,0:0:0:0:
361,156,13939,1,0,0:0:0:0:
361,156,14292,2,0,P|356:231|352:321,2,165.000006294251,2|2|2,0:0|0:0|0:0,0:0:0:0:
221,244,16410,2,0,P|216:287|215:339,1,82.5000031471254,2|0,0:0|0:0,0:0:0:0:
140,361,17116,5,2,0:0:0:0:
22,244,17822,2,0,P|23:201|27:151,1,82.5000031471254,2|0,0:0|0:0,0:0:0:0:
23,79,18527,2,0,P|83:136|164:136,1,165.000006294251,2|2,0:0|0:0,0:0:0:0:
224,82,19586,1,0,0:0:0:0:
224,82,19939,6,0,P|320:86|403:91,1,165.000006294251,2|2,0:0|0:0,0:0:0:0:
456,42,20998,1,0,0:0:0:0:
507,106,21351,2,0,P|504:153|503:192,1,82.5000031471254,2|0,0:0|0:0,0:0:0:0:
433,232,22057,2,0,P|420:297|463:358,1,123.750004720688,2|0,0:0|0:0,0:0:0:0:
485,358,22763,6,0,B|410:318|399:388|310:343,1,165.000006294251,2|2,0:0|0:0,0:0:0:0:
256,303,23822,1,0,0:0:0:0:
186,259,24174,2,0,P|149:259|104:263,2,82.5000031471254,2|0|2,0:0|0:0|0:0,0:0:0:0:
256,303,25233,1,2,0:0:0:0:
325,349,25586,2,0,P|403:364|472:317,1,165.000006294251,2|2,0:0|0:0,0:0:0:0:
483,236,26645,1,2,0:0:0:0:
493,154,26998,5,2,0:0:0:0:
175,63,28057,1,12,0:3:0:0:
274,17,28410,6,0,L|266:138,1,110,12|8,0:0|0:0,0:0:0:0:
258,236,29116,1,8,0:0:0:0:
258,236,29469,1,10,0:0:0:0:
164,177,29822,2,0,L|54:165,1,110,10|8,0:0|0:0,0:0:0:0:
20,269,30527,1,8,0:0:0:0:
20,269,30880,1,10,0:0:0:0:
129,274,31233,6,0,L|116:383,1,110,10|8,0:0|0:0,0:0:0:0:
227,378,31939,1,8,0:0:0:0:
227,378,32292,1,10,0:0:0:0:
300,296,32645,2,0,P|357:272|417:284,2,110,10|0|0,0:0|1:0|1:0,0:0:0:0:
227,378,33704,2,0,L|173:373,1,55,2|0,1:2|1:0,0:0:0:0:
139,371,34057,6,0,L|154:252,1,110,6|2,1:0|1:0,0:0:0:0:
48,224,34763,2,0,L|39:288,2,55,8|8|2,0:0|0:0|1:0,0:0:0:0:
134,156,35469,2,0,P|178:155|238:195,1,110,8|2,0:0|1:0,0:0:0:0:
255,214,35998,2,0,L|364:208,1,110,8|8,0:0|0:0,0:0:0:0:
398,206,36527,1,2,1:0:0:0:
410,96,36880,6,0,L|291:101,1,110,8|2,0:0|1:0,0:0:0:0:
213,32,37586,2,0,L|158:33,2,55,8|8|2,0:0|0:0|1:0,0:0:0:0:
300,100,38292,1,8,0:0:0:0:
233,188,38645,2,0,P|217:241|230:297,2,110,4|0|0,0:0|1:0|1:0,0:0:0:0:
300,100,39704,5,12,0:0:0:0:
300,100,41822,2,0,L|410:96,1,110,4|0,1:2|1:0,0:0:0:0:
505,151,42527,5,2,1:2:0:0:
409,205,42880,1,8,0:0:0:0:
503,258,43233,2,0,P|521:310|508:363,1,110,8|8,0:0|0:0,0:0:0:0:
410,311,43939,1,10,0:0:0:0:
324,380,44292,1,8,0:0:0:0:
228,326,44645,2,0,L|99:335,1,110,2|2,1:3|1:0,0:0:0:0:
11,304,45351,6,0,P|-2:249|19:189,1,110,12|0,0:0|1:0,0:0:0:0:
36,175,45880,1,2,1:2:0:0:
36,175,46057,2,0,P|83:212|149:209,1,110,2|0,1:2|1:0,0:0:0:0:
166,206,46586,1,2,1:2:0:0:
166,206,46763,1,6,0:0:0:0:
165,205,48174,6,0,L|157:86,1,110,4|0,1:2|1:0,0:0:0:0:
48,80,48880,2,0,L|54:200,1,110,8|0,3:2|1:0,0:0:0:0:
70,219,49410,2,0,P|28:287|45:366,1,165,10|0,0:0|1:0,0:0:0:0:
136,304,50292,1,10,3:2:0:0:
215,380,50645,1,2,1:2:0:0:
305,317,50998,6,0,L|298:201,1,110,4|0,3:1|1:0,0:0:0:0:
299,178,51527,1,0,3:0:0:0:
299,178,51704,1,8,3:2:0:0:
253,78,52057,1,0,1:0:0:0:
253,78,52233,2,0,P|360:87|399:146,1,165,12|0,0:0|1:0,0:0:0:0:
444,224,53116,2,0,L|500:221,2,55,8|0|0,0:0|3:0|1:0,0:0:0:0:
350,283,53822,6,0,L|220:289,1,110,10|0,0:0|1:0,0:0:0:0:
156,359,54527,2,0,P|107:363|44:324,1,110,8|0,3:2|1:0,0:0:0:0:
20,334,55057,2,0,P|59:261|54:176,1,165,10|2,0:0|1:2,0:0:0:0:
0,85,55939,1,8,3:2:0:0:
90,22,56292,2,0,P|103:48|107:78,1,55,2|0,1:2|0:0,0:0:0:0:
132,95,56645,6,0,P|186:75|243:80,1,110,4|0,3:1|1:0,0:0:0:0:
268,102,57174,1,0,3:0:0:0:
268,102,57351,2,0,P|331:108|385:90,1,110,8|0,3:2|1:0,0:0:0:0:
403,75,57880,2,0,B|373:134|373:134|383:181|440:231,1,165,12|0,0:0|1:0,0:0:0:0:
352,300,58763,2,0,P|344:347|340:394,2,82.5,2|2|2,1:2|1:2|1:2,0:0:0:0:
334,273,59469,6,0,L|223:281,1,110,12|0,0:0|1:0,0:0:0:0:
173,183,60174,2,0,L|296:175,1,110,8|0,3:2|1:0,0:0:0:0:
317,175,60704,2,0,P|417:174|466:115,1,165,10|0,0:0|1:0,0:0:0:0:
364,75,61586,2,0,L|371:17,2,55,8|10|0,0:0|0:0|1:0,0:0:0:0:
261,33,62292,6,0,P|208:28|153:54,1,110,4|0,3:1|1:0,0:0:0:0:
133,73,62822,2,0,L|128:187,1,110,2|10,0:0|0:0,0:0:0:0:
161,203,63351,1,0,1:0:0:0:
161,203,63527,2,0,B|217:239|217:239|239:296|198:351,1,165,12|0,0:0|1:0,0:0:0:0:
104,299,64410,2,0,P|68:330|36:365,2,82.5,10|2|0,0:0|0:0|0:0,0:0:0:0:
82,272,65116,6,0,P|64:232|70:157,1,110,12|2,0:0|1:0,0:0:0:0:
121,71,65822,1,10,3:2:0:0:
216,132,66174,1,2,1:0:0:0:
216,132,66351,2,0,B|268:113|268:113|317:156|395:130,1,165,8|2,0:0|1:0,0:0:0:0:
465,81,67233,2,0,P|468:39|475:0,2,82.5,10|2|8,3:2|0:0|0:0,0:0:0:0:
475,113,67939,6,0,P|506:165|499:229,1,110,2|0,3:2|1:0,0:0:0:0:
481,235,68469,1,0,3:0:0:0:
481,235,68645,2,0,L|471:346,1,110,8|0,3:2|1:0,0:0:0:0:
439,353,69174,2,0,B|402:322|402:322|342:314|298:363,1,165,4|2,1:0|1:2,0:0:0:0:
256,260,70057,2,0,L|128:247,1,110,2|2,1:2|1:2,0:0:0:0:
128,227,70586,1,2,1:2:0:0:
128,227,70763,5,12,0:0:0:0:
27,271,71116,1,0,1:0:0:0:
103,350,71469,2,0,L|222:363,1,110,8|0,3:2|1:0,0:0:0:0:
239,343,71998,2,0,P|310:302|390:315,1,165,10|0,0:0|1:0,0:0:0:0:
481,377,72880,1,10,3:2:0:0:
510,271,73233,1,2,1:2:0:0:
420,207,73586,6,0,P|408:152|419:97,1,110,4|0,3:1|1:0,0:0:0:0:
437,74,74116,1,10,0:0:0:0:
437,74,74292,2,0,L|317:66,1,110,0|0,3:0|1:0,0:0:0:0:
303,44,74822,2,0,B|259:87|259:87|210:80|162:51,1,165,12|2,0:0|1:0,0:0:0:0:
59,91,75704,1,2,1:0:0:0:
66,200,76057,1,0,1:0:0:0:
172,228,76410,6,0,P|177:283|181:347,1,110,12|0,0:0|1:0,0:0:0:0:
70,343,77116,2,0,P|66:292|62:229,1,110,8|0,3:2|1:0,0:0:0:0:
66,200,77645,2,0,P|41:138|76:50,1,165,10|2,0:0|1:2,0:0:0:0:
182,24,78527,1,8,3:2:0:0:
154,131,78880,2,0,P|190:134|223:129,1,55,2|0,1:2|3:0,0:0:0:0:
239,117,79233,6,0,P|291:100|352:110,1,110,10|4,0:0|1:2,0:0:0:0:
380,125,79763,1,0,0:0:0:0:
380,125,79939,1,8,0:0:0:0:
465,193,80292,1,0,1:0:0:0:
465,193,80469,2,0,B|423:229|423:229|474:286|452:346,1,165,12|0,0:2|1:0,0:0:0:0:
347,313,81351,2,0,P|308:325|260:344,2,82.5,2|2|0,1:0|3:2|1:0,0:0:0:0:
337,282,82057,6,0,P|322:237|337:170,1,110,4|8,1:2|0:0,0:0:0:0:
352,149,82586,2,0,L|469:153,1,110,0|0,0:0|0:0,0:0:0:0:
471,42,83292,2,0,L|361:37,1,110,0|0,1:0|0:0,0:0:0:0:
328,34,83822,1,8,0:0:0:0:
228,80,84174,2,0,P|219:39|212:0,2,82.5,10|2|0,0:0|0:0|0:0,0:0:0:0:
243,109,84880,6,0,L|114:105,1,110,12|8,0:0|0:0,0:0:0:0:
103,91,85410,2,0,P|128:147|120:200,1,110,0|0,0:0|1:0,0:0:0:0:
15,221,86116,2,0,P|0:273|11:329,1,110,6|0,1:2|0:0,0:0:0:0:
28,353,86645,2,0,P|58:374|81:381,2,55,10|8|2,0:0|0:0|1:2,0:0:0:0:
106,275,87351,1,0,1:0:0:0:
186,350,87704,6,0,P|251:352|302:320,1,110,12|8,0:0|0:0,0:0:0:0:
312,307,88233,2,0,P|375:295|431:316,1,110,2|8,1:2|0:0,0:0:0:0:
446,326,88763,2,0,L|450:194,1,110,2|8,1:2|0:0,0:0:0:0:
464,186,89292,1,2,1:2:0:0:
384,116,89645,1,8,0:0:0:0:
384,116,89822,2,0,L|309:125,1,55,0|0,1:0|1:0,0:0:0:0:
317,153,90174,2,0,L|248:162,1,55,0|0,1:0|1:0,0:0:0:0:
256,192,90527,5,4,1:2:0:0:
256,192,90704,12,2,91939,0:0:0:0:
110,228,93351,6,0,P|175:181|273:204,1,165,12|0,0:0|1:0,0:0:0:0:
207,290,94233,1,8,0:0:0:0:
207,290,94410,1,8,0:3:0:0:
291,360,94763,2,0,L|406:350,1,110,12|2,0:0|0:0,0:0:0:0:
458,256,95469,2,0,L|448:146,1,110,12|2,0:0|0:0,0:0:0:0:
467,38,96174,6,0,P|399:44|341:117,1,165,12|2,0:0|0:0,0:0:0:0:
331,148,96880,2,0,P|273:155|220:130,1,110,14|0,0:0|0:0,0:0:0:0:
205,117,97410,1,0,1:0:0:0:
205,117,97586,1,12,0:0:0:0:
141,27,97939,1,0,1:0:0:0:
48,85,98292,2,0,L|56:211,1,110,8|0,0:0|1:0,0:0:0:0:
156,238,98998,6,0,L|210:233,2,55,12|0|0,0:0|0:0|1:0,0:0:0:0:
66,302,99704,2,0,L|11:308,2,55,8|8|0,0:0|0:0|1:0,0:0:0:0:
166,346,100410,1,10,0:0:0:0:
156,238,100763,1,4,1:2:0:0:
54,194,101116,1,0,1:0:0:0:
66,302,101469,1,0,1:0:0:0:
166,346,101822,6,0,P|255:346|212:164,1,330.000012588501,12|2,0:0|0:0,0:0:0:0:
156,238,104645,6,0,B|321:316|298:136|483:226,1,330.000012588501,2|2,0:0|0:0,0:0:0:0:
396,303,107469,6,0,P|362:229|380:150,1,165.000006294251,2|2,0:0|0:0,0:0:0:0:
428,83,108527,1,0,0:0:0:0:
428,83,108880,2,0,P|334:96|260:106,2,165.000006294251,2|2|2,0:0|0:0|0:0,0:0:0:0:
476,160,110645,1,0,0:0:0:0:
476,160,110998,2,0,P|436:166|383:174,1,82.5000031471254,2|2,0:0|0:0,0:0:0:0:
313,187,111704,6,0,P|370:246|362:351,1,165.000006294251,2|2,0:0|0:0,0:0:0:0:
306,373,112763,1,2,0:0:0:0:
234,332,113116,1,2,0:0:0:0:
73,369,113822,2,0,P|77:326|85:277,1,82.5000031471254,2|0,0:0|0:0,0:0:0:0:
15,240,114527,6,0,P|11:174|3:59,1,165.000006294251,2|2,0:0|0:0,0:0:0:0:
59,13,115586,1,0,0:0:0:0:
124,63,115939,2,0,B|216:86|199:16|304:40,1,165.000006294251,2|2,0:0|0:0,0:0:0:0:
341,93,116998,1,0,0:0:0:0:
263,121,117351,6,0,P|255:165|249:215,1,82.5000031471254,2|0,0:0|0:0,0:0:0:0:
172,228,118057,2,0,P|185:289|199:362,1,123.750004720688,2|0,0:0|0:0,0:0:0:0:
231,372,118763,6,0,P|300:335|397:354,1,165.000006294251,2|2,0:0|0:0,0:0:0:0:
459,377,119822,1,0,0:0:0:0:
501,306,120174,2,0,P|503:236|509:127,1,165.000006294251,2|2,0:0|0:0,0:0:0:0:
482,62,121233,1,2,0:0:0:0:
408,100,121586,5,2,0:0:0:0:
408,100,121939,2,0,B|332:132|341:62|237:97,1,165.000006294251,2|0,0:0|0:0,0:0:0:0:
174,129,122998,1,2,0:0:0:0:
301,308,123704,2,0,P|296:250|290:199,1,110,0|0,1:0|1:0,0:0:0:0:
188,241,124410,5,12,0:0:0:0:
188,241,124763,1,8,0:0:0:0:
174,129,125116,2,0,P|121:136|47:147,1,110,8|8,0:0|0:0,0:0:0:0:
13,46,125822,1,10,0:0:0:0:
13,46,126174,1,10,0:0:0:0:
65,144,126527,2,0,P|70:198|74:253,1,110,10|8,0:0|0:3,0:0:0:0:
13,344,127233,5,2,1:2:0:0:
13,344,127586,1,8,0:0:0:0:
122,353,127939,2,0,P|182:345|242:334,1,110,8|8,0:0|0:0,0:0:0:0:
334,372,128645,1,8,0:0:0:0:
431,320,128998,2,0,P|445:268|429:204,1,110,2|0,0:1|1:0,0:0:0:0:
341,153,129704,1,0,1:0:0:0:
332,263,130057,5,12,0:0:0:0:
179,199,130586,1,8,0:0:0:0:
179,199,130763,2,0,P|165:120|216:42,1,165,0|8,1:0|0:0,0:0:0:0:
242,43,131469,1,8,0:0:0:0:
242,43,131645,2,0,P|300:61|354:50,1,110,2|8,1:2|0:0,0:0:0:0:
376,35,132174,1,2,1:2:0:0:
436,126,132527,2,0,L|498:119,2,55,2|8|0,0:0|0:0|1:0,0:0:0:0:
332,263,133410,5,8,0:0:0:0:
332,263,133586,2,0,B|258:246|260:316|162:283,1,165,0|8,1:0|0:0,0:0:0:0:
146,269,134292,2,0,P|143:243|142:209,2,55,4|0|8,1:0|1:0|0:0,0:0:0:0:
47,318,134998,1,12,1:3:0:0:
36,208,135351,1,0,1:0:0:0:
28,98,135704,5,2,0:0:0:0:
28,98,137822,2,0,P|82:116|137:108,1,110,0|8,1:0|1:3,0:0:0:0:
186,12,138527,5,4,1:2:0:0:
246,103,138880,1,8,0:0:0:0:
299,6,139233,2,0,L|420:9,1,110,8|8,0:0|0:0,0:0:0:0:
500,70,139939,1,2,1:2:0:0:
401,119,140292,1,0,1:0:0:0:
493,175,140645,2,0,P|506:229|493:282,1,110,2|0,1:2|1:0,0:0:0:0:
475,311,141174,1,2,1:2:0:0:
475,311,141351,5,2,0:0:0:0:
258,352,142057,2,0,B|203:364|157:324|157:324|127:335|99:359,1,165,4|8,0:3|0:0,0:0:0:0:
83,374,142763,1,2,1:2:0:0:
243,222,143469,2,0,L|238:167,2,55,12|0|0,0:3|1:0|1:0,0:0:0:0:
338,276,144174,5,4,1:2:0:0:
422,205,144527,1,0,1:0:0:0:
329,144,144880,2,0,L|320:33,1,110,8|0,3:2|1:0,0:0:0:0:
334,4,145410,2,0,P|254:52|176:39,1,165,10|0,0:0|1:0,0:0:0:0:
83,4,146292,1,10,3:2:0:0:
10,86,146645,1,2,1:2:0:0:
113,122,146998,6,0,P|143:174|136:229,1,110,4|0,3:1|1:0,0:0:0:0:
114,243,147527,1,0,3:0:0:0:
114,243,147704,2,0,L|104:364,1,110,8|0,3:2|1:0,0:0:0:0:
94,384,148233,2,0,B|154:346|193:342|193:342|248:375,1,165,12|0,0:0|1:0,0:0:0:0:
334,311,149116,2,0,L|388:308,2,55,8|8|0,0:0|0:0|1:0,0:0:0:0:
238,255,149822,6,0,L|235:145,1,110,10|0,0:0|1:0,0:0:0:0:
162,62,150527,2,0,P|211:38|273:44,1,110,8|0,3:2|1:0,0:0:0:0:
297,34,151057,2,0,P|367:80|449:70,1,165,10|2,0:0|1:2,0:0:0:0:
511,160,151939,1,8,3:2:0:0:
402,176,152292,1,2,1:2:0:0:
472,260,152645,6,0,P|481:313|454:379,1,110,10|0,0:0|1:0,0:0:0:0:
438,384,153174,1,0,0:0:0:0:
438,384,153351,1,8,0:0:0:0:
338,337,153704,1,0,1:0:0:0:
338,337,153880,2,0,P|272:323|179:382,1,165,12|0,0:0|1:0,0:0:0:0:
106,294,154763,2,0,P|65:291|18:287,2,82.5,2|2|2,1:2|1:2|1:2,0:0:0:0:
123,266,155469,6,0,L|109:154,1,110,12|0,0:0|1:0,0:0:0:0:
87,132,155998,2,0,P|77:78|103:17,1,110,0|8,3:0|0:0,0:0:0:0:
205,31,156704,2,0,P|219:75|201:143,1,110,10|8,0:0|0:0,0:0:0:0:
228,243,157410,1,0,0:0:0:0:
228,243,157586,2,0,L|344:234,1,110,10|2,3:2|1:2,0:0:0:0:
408,319,158292,6,0,P|462:325|512:304,1,110,4|0,3:1|1:0,0:0:0:0:
511,272,158822,2,0,L|501:162,1,110,0|8,3:0|0:0,0:0:0:0:
492,52,159527,2,0,B|437:45|437:45|386:64,1,110,12|8,0:0|0:0,0:0:0:0:
354,76,160057,1,0,1:0:0:0:
314,178,160410,2,0,L|218:176,2,82.5,10|2|0,0:0|0:0|0:0,0:0:0:0:
344,192,161116,6,0,P|371:238|366:292,1,110,12|2,0:0|1:0,0:0:0:0:
281,363,161822,2,0,L|170:359,1,110,10|2,3:2|1:2,0:0:0:0:
139,364,162351,2,0,B|129:339|111:318|111:318|154:263|134:195,1,165,10|2,0:0|1:0,0:0:0:0:
43,158,163233,2,0,P|43:202|46:255,2,82.5,10|2|8,3:2|0:0|0:0,0:0:0:0:
28,128,163939,6,0,P|76:132|137:98,1,110,10|0,0:0|1:0,0:0:0:0:
154,82,164469,1,8,0:0:0:0:
154,82,164645,2,0,L|160:200,1,110,10|0,0:0|1:0,0:0:0:0:
176,221,165174,2,0,B|223:195|223:195|285:206|311:279,1,165,12|2,0:0|1:2,0:0:0:0:
403,312,166057,2,0,P|406:259|411:199,1,110,2|2,1:2|1:2,0:0:0:0:
427,176,166586,1,2,1:2:0:0:
427,176,166763,5,12,0:0:0:0:
462,72,167116,1,0,1:0:0:0:
363,23,167469,2,0,P|312:22|249:67,1,110,8|0,3:2|1:0,0:0:0:0:
230,42,167998,2,0,P|289:103|297:194,1,165,10|0,0:0|1:0,0:0:0:0:
275,286,168880,1,10,3:2:0:0:
192,213,169233,1,2,1:2:0:0:
169,319,169586,6,0,P|117:337|63:332,1,110,4|0,3:1|1:0,0:0:0:0:
40,317,170116,1,8,0:0:0:0:
40,317,170292,2,0,L|43:193,1,110,0|0,1:0|1:0,0:0:0:0:
26,177,170822,2,0,B|-2:132|19:70|19:70|52:83|80:79,1,165,12|2,0:0|1:0,0:0:0:0:
153,6,171704,1,2,1:0:0:0:
243,68,172057,1,0,1:0:0:0:
163,144,172410,6,0,L|171:267,1,110,12|0,0:0|1:0,0:0:0:0:
210,356,173116,2,0,P|264:329|315:330,1,110,8|0,0:0|1:0,0:0:0:0:
342,343,173645,2,0,P|426:356|496:316,1,165,10|2,0:0|1:2,0:0:0:0:
508,209,174527,1,8,3:2:0:0:
406,251,174880,1,2,1:2:0:0:
420,141,175233,6,0,P|414:91|373:37,1,110,10|4,0:0|1:2,0:0:0:0:
357,25,175763,1,0,3:0:0:0:
357,25,175939,1,8,3:2:0:0:
321,133,176292,1,0,1:0:0:0:
321,133,176469,2,0,B|275:152|275:152|202:150|177:83,1,165,12|0,0:0|1:0,0:0:0:0:
72,103,177351,2,0,P|64:62|54:22,2,82.5,2|10|10,1:2|0:0|0:0,0:0:0:0:
80,135,178057,6,0,P|61:192|76:250,1,110,12|8,0:0|0:0,0:0:0:0:
97,260,178586,2,0,L|216:255,1,110,0|0,0:0|0:0,0:0:0:0:
281,336,179292,2,0,L|403:330,1,110,0|0,1:0|0:0,0:0:0:0:
424,327,179822,1,8,0:0:0:0:
468,226,180174,2,0,P|474:191|485:145,2,82.5,10|2|0,0:0|0:0|0:0,0:0:0:0:
435,228,180880,6,0,L|320:233,1,110,12|8,0:0|0:0,0:0:0:0:
300,212,181410,2,0,P|252:200|193:216,1,110,0|2,0:0|1:2,0:0:0:0:
108,283,182116,2,0,P|84:233|100:164,1,110,6|8,1:2|0:0,0:0:0:0:
104,150,182645,2,0,L|97:95,2,55,10|0|2,0:0|1:0|1:2,0:0:0:0:
194,215,183351,1,0,1:0:0:0:
268,134,183704,6,0,L|254:18,1,110,12|8,0:0|0:0,0:0:0:0:
278,0,184233,2,0,P|339:30|394:23,1,110,2|2,0:0|0:0,0:0:0:0:
412,18,184763,1,8,0:0:0:0:
484,100,185116,2,0,P|468:146|476:210,1,110,8|10,0:0|0:0,0:0:0:0:
494,239,185645,1,4,0:3:0:0:
494,239,185822,2,0,B|416:212|416:212|390:254|330:256,1,165,10|0,0:0|0:0,0:0:0:0:
318,242,186527,6,0,P|266:224|199:241,1,110,12|8,0:3|0:0,0:0:0:0:
187,253,187057,1,8,0:0:0:0:
187,253,187233,2,0,L|180:307,1,55,0|0,1:0|1:0,0:0:0:0:
156,329,187586,2,0,L|148:395,1,55,0|2,1:0|1:2,0:0:0:0:
433,289,199233,6,0,P|378:285|327:305,1,110,2|8,1:2|0:0,0:0:0:0:
301,326,199763,2,0,P|219:345|145:298,1,165,8|2,0:3|1:2,0:0:0:0:
45,334,200645,6,0,P|49:247|53:151,1,165,12|8,0:0|0:0,0:0:0:0:
53,136,201351,1,0,1:0:0:0:
170,22,201880,1,4,0:3:0:0:
170,22,202057,2,0,P|165:63|164:84,1,55,10|0,0:0|1:0,0:0:0:0:
237,158,202586,1,8,0:0:0:0:
237,158,202763,2,0,P|298:163|356:128,1,110,2|2,1:2|0:0,0:0:0:0:
365,120,203292,1,8,0:0:0:0:
365,120,203469,6,0,L|361:239,1,110,4|0,1:2|0:0,0:0:0:0:
398,240,203998,1,8,0:0:0:0:
398,240,204174,2,0,L|395:364,1,110,2|8,1:2|0:3,0:0:0:0:
500,318,204880,2,0,L|501:188,2,110,14|8|0,0:0|0:0|1:0,0:0:0:0:
395,349,205939,2,0,L|334:348,1,55,0|2,1:0|1:2,0:0:0:0:
310,333,206292,6,0,P|255:327|198:359,1,110,6|0,1:2|1:0,0:0:0:0:
185,332,206822,1,0,0:0:0:0:
185,332,206998,2,0,P|203:280|194:222,1,110,8|0,0:0|1:0,0:0:0:0:
91,192,207704,1,10,0:0:0:0:
91,82,208057,1,2,1:2:0:0:
195,48,208410,1,10,0:0:0:0:
260,137,208763,1,2,1:2:0:0:
195,225,209116,6,0,P|178:279|188:333,1,110,10|0,0:0|1:0,0:0:0:0:
217,357,209645,1,0,3:0:0:0:
217,357,209822,2,0,L|337:345,1,110,8|0,0:0|1:0,0:0:0:0:
410,274,210527,2,0,P|464:274|511:301,2,110,10|0|8,0:0|1:0|0:0,0:0:0:0:
307,233,211586,2,0,L|252:240,1,55,2|2,1:2|0:0,0:0:0:0:
229,265,211939,6,0,P|174:270|124:249,1,110,6|0,1:2|1:0,0:0:0:0:
99,228,212469,1,10,0:0:0:0:
189,165,212822,1,0,1:0:0:0:
189,165,212998,2,0,L|197:110,2,55,2|10|6,1:2|0:0|1:2,0:0:0:0:
256,192,213527,12,2,214763,0:0:0:0:
84,114,230116,5,8,0:0:0:0:
84,114,230292,2,0,P|64:169|77:227,1,110,2|8,1:2|0:0,0:0:0:0:
162,283,230998,2,0,P|159:326|158:376,2,82.5,10|2|8,0:0|0:0|0:0,0:0:0:0:
188,262,231704,5,4,1:2:0:0:
278,325,232057,2,0,P|345:332|390:305,1,110,8|8,1:2|1:2,0:0:0:0:
487,285,232763,1,8,1:2:0:0:
487,285,232939,2,0,P|414:285|348:209,1,165,8|0,0:0|1:0,0:0:0:0:
409,128,233822,2,0,P|412:88|419:38,2,82.5,0|0|0,1:0|1:0|1:0,0:0:0:0:
377,120,234527,6,0,P|317:120|246:204,1,165,4|8,1:2|0:0,0:0:0:0:
253,225,235233,2,0,P|283:279|274:337,1,110,0|0,1:0|1:0,0:0:0:0:
260,353,235763,1,0,1:0:0:0:
260,353,235939,6,0,L|140:347,1,110,4|2,1:2|1:2,0:0:0:0:
45,381,236645,1,2,1:2:0:0:
19,273,236998,1,2,1:2:0:0:
19,273,237174,1,2,1:3:0:0:
126,249,237527,6,0,L|111:184,1,55,8|2,0:0|1:2,0:0:0:0:
89,87,238057,2,0,P|155:91|197:127,1,110,10|0,0:0|1:0,0:0:0:0:
211,140,238586,2,0,B|262:118|262:118|308:150|299:221,1,165,4|0,1:2|1:0,0:0:0:0:
259,317,239469,1,10,3:2:0:0:
350,377,239822,1,2,1:2:0:0:
399,278,240174,6,0,P|418:226|400:153,1,110,4|0,3:1|1:0,0:0:0:0:
380,167,240704,1,8,0:0:0:0:
380,167,240880,2,0,P|363:117|373:53,1,110,0|0,1:0|1:0,0:0:0:0:
387,33,241410,2,0,L|263:27,1,110,12|8,0:0|0:0,0:0:0:0:
244,26,241939,1,0,1:0:0:0:
161,98,242292,2,0,L|88:94,2,55,0|8|0,1:0|0:0|1:0,0:0:0:0:
263,137,242998,6,0,P|281:195|269:251,1,110,4|0,1:2|1:0,0:0:0:0:
250,264,243527,1,0,0:0:0:0:
250,264,243704,2,0,L|129:256,1,110,8|0,3:2|1:0,0:0:0:0:
109,266,244233,2,0,P|113:328|89:369,1,110,10|8,0:0|0:0,0:0:0:0:
61,384,244763,1,0,1:0:0:0:
0,294,245116,1,8,3:2:0:0:
36,190,245469,2,0,L|30:124,1,55,0|0,1:0|3:0,0:0:0:0:
27,102,245822,6,0,P|76:122|144:103,1,110,10|0,3:2|1:0,0:0:0:0:
159,93,246351,1,0,3:0:0:0:
159,93,246527,2,0,P|219:81|271:101,1,110,0|0,3:0|1:0,0:0:0:0:
289,118,247057,2,0,P|283:68|279:-1,1,110,12|8,0:0|0:0,0:0:0:0:
312,0,247586,1,0,1:0:0:0:
401,64,247939,2,0,P|447:56|482:52,2,82.5,2|2|0,1:0|3:2|1:0,0:0:0:0:
387,94,248645,6,0,P|390:148|396:203,1,110,4|8,1:2|0:0,0:0:0:0:
410,234,249174,1,0,0:0:0:0:
503,291,249527,1,0,0:0:0:0:
407,346,249880,2,0,P|346:340|290:336,1,110,0|0,1:0|0:0,0:0:0:0:
265,333,250410,1,8,0:0:0:0:
164,287,250763,2,0,P|123:291|68:299,2,82.5,10|2|4,0:0|0:0|0:3,0:0:0:0:
182,259,251469,6,0,P|177:212|177:137,1,110,12|8,0:0|0:0,0:0:0:0:
183,117,251998,1,0,0:0:0:0:
278,170,252351,1,0,1:0:0:0:
383,142,252704,2,0,P|381:79|375:26,1,110,4|8,1:2|0:0,0:0:0:0:
369,0,253233,1,0,1:0:0:0:
260,18,253586,2,0,L|145:21,1,110,0|0,1:0|1:0,0:0:0:0:
49,65,254292,6,0,P|69:113|62:177,1,110,12|12,0:0|0:3,0:0:0:0:
50,200,254822,2,0,P|106:181|168:190,1,110,2|12,1:2|0:3,0:0:0:0:
187,198,255351,1,6,1:2:0:0:
281,266,255704,1,8,0:0:0:0:
281,266,255880,2,0,P|339:275|395:258,1,110,6|8,1:2|0:0,0:0:0:0:
414,241,256410,1,0,1:0:0:0:
482,154,256763,1,0,1:0:0:0:
437,53,257116,6,0,P|389:44|324:69,1,110,6|12,1:2|0:3,0:0:0:0:
301,50,257645,2,0,L|306:166,1,110,2|12,1:2|0:3,0:0:0:0:
308,193,258174,1,6,1:2:0:0:
414,241,258527,1,8,0:0:0:0:
414,241,258704,2,0,L|419:363,1,110,6|8,1:2|0:0,0:0:0:0:
419,384,259233,1,0,1:0:0:0:
319,337,259586,1,0,1:0:0:0:
213,368,259939,6,0,P|161:373|96:343,1,110,6|12,1:2|0:3,0:0:0:0:
78,337,260469,2,0,P|102:288|103:233,1,110,2|12,1:2|0:3,0:0:0:0:
89,203,260998,1,6,1:2:0:0:
57,97,261351,1,8,0:0:0:0:
57,97,261527,2,0,P|112:91|164:120,1,110,6|8,1:2|0:0,0:0:0:0:
180,142,262057,2,0,P|191:172|199:209,1,55,0|0,1:0|3:0,0:0:0:0:
213,223,262410,2,0,L|284:216,1,55,2|0,1:2|1:0,0:0:0:0:
301,215,262763,5,2,1:2:0:0:
256,192,262939,12,2,264174,0:0:0:0:
450,246,265586,6,0,P|381:203|300:214,1,165,12|0,0:0|1:0,0:0:0:0:
366,309,266469,1,8,0:0:0:0:
366,309,266645,1,8,0:3:0:0:
266,356,266998,2,0,P|215:365|156:347,1,110,12|2,0:0|0:0,0:0:0:0:
67,289,267704,2,0,P|90:234|87:169,1,110,12|2,0:0|0:0,0:0:0:0:
18,100,268410,6,0,P|70:39|150:36,1,165,12|2,0:0|0:0,0:0:0:0:
178,54,269116,2,0,L|303:46,1,110,14|0,0:0|0:0,0:0:0:0:
325,48,269645,1,0,1:0:0:0:
325,48,269822,1,12,0:0:0:0:
301,155,270174,1,0,1:0:0:0:
407,181,270527,1,8,0:0:0:0:
433,74,270880,1,0,1:0:0:0:
325,48,271233,6,0,L|194:56,1,110,12|0,0:0|1:0,0:0:0:0:
191,40,271763,1,0,0:0:0:0:
191,40,271939,2,0,P|132:44|82:89,1,110,8|0,0:0|1:0,0:0:0:0:
37,169,272645,2,0,L|43:289,1,110,10|4,0:0|1:2,0:0:0:0:
68,309,273174,1,8,0:0:0:0:
68,309,273351,2,0,P|125:289|195:301,1,110,0|0,1:0|1:0,0:0:0:0:
253,369,274057,6,0,L|316:365,1,55,12|8,0:0|0:0,0:0:0:0:
329,339,274410,2,0,L|388:336,1,55,8|10,0:0|0:0,0:0:0:0:
414,353,274763,2,0,P|397:295|410:243,1,110,10|8,0:0|0:0,0:0:0:0:
507,200,275469,2,0,L|502:136,1,55,2|0,1:2|1:0,0:0:0:0:
472,132,275822,2,0,L|467:69,1,55,0|2,1:0|1:2,0:0:0:0:
484,48,276174,2,0,P|434:60|371:39,1,110,2|0,1:2|1:0,0:0:0:0:
350,28,276704,1,0,1:0:0:0:
256,192,277586,5,12,1:2:0:0:
256,192,277763,12,2,281469,0:0:0:0:
