osu file format v14

[General]
AudioFilename: audio.mp3
AudioLeadIn: 0
PreviewTime: 214763
Countdown: 0
SampleSet: Soft
StackLeniency: 0.7
Mode: 0
LetterboxInBreaks: 0
WidescreenStoryboard: 0

[Editor]
DistanceSpacing: 1.1
BeatDivisor: 2
GridSize: 4
TimelineZoom: 0.6999999

[Metadata]
Title:Fuyu ni Saku Hana
TitleUnicode:冬に咲く華
Artist:Mitsuki Kotono
ArtistUnicode:美月琴音
Creator:Garden
Version:Easy
Source:彼女のセイイキ
Tags:fuyuyu- Mamayu Kanau Silky feng kanojo no seiiki opening eroge visual novel
BeatmapID:1633676
BeatmapSetID:777681

[Difficulty]
HPDrainRate:2
CircleSize:2.8
OverallDifficulty:2
ApproachRate:3
SliderMultiplier:0.799999999999999
SliderTickRate:1

[Events]
//Background and Video events
0,0,"ez.jpg",0,0
//Break Periods
2,189351,197793
2,214963,228852
//Storyboard Layer 0 (Background)
//Storyboard Layer 1 (Fail)
//Storyboard Layer 2 (Pass)
//Storyboard Layer 3 (Foreground)
//Storyboard Sound Samples

[TimingPoints]
175,352.941176470588,4,2,1,40,1,0
5469,-100,4,2,1,55,0,0
5822,-100,4,2,1,70,0,0
11469,-133.333333333333,4,2,1,30,0,0
28057,-100,4,2,1,55,0,0
28410,-100,4,2,1,60,0,0
48174,-100,4,2,1,75,0,1
70674,-100,4,2,1,75,0,0
70763,-100,4,2,1,75,0,1
90527,-100,4,2,1,75,0,0
90616,-100,4,2,1,40,0,0
91939,-100,4,2,1,50,0,0
93351,-100,4,2,1,60,0,0
97586,-100,4,2,1,70,0,0
101822,-133.333333333333,4,2,1,60,0,0
101910,-133.333333333333,4,2,1,50,0,0
103233,-133.333333333333,4,2,1,45,0,0
104645,-133.333333333333,4,2,1,40,0,0
106057,-133.333333333333,4,2,1,35,0,0
107469,-133.333333333333,4,2,1,30,0,0
123704,-100,4,2,1,55,0,0
124410,-100,4,2,1,60,0,0
144174,-100,4,2,1,75,0,1
166674,-100,4,2,1,75,0,0
166763,-100,4,2,1,75,0,1
187763,-100,4,2,1,75,0,0
187939,-100,4,2,1,40,0,0
198880,-100,4,2,1,50,0,0
199233,-100,4,2,1,60,0,0
206292,-100,4,2,1,70,0,0
214763,-100,4,2,1,40,0,0
230116,-100,4,2,1,55,0,0
231704,-100,4,2,1,60,0,0
238586,-100,4,2,1,75,0,1
262763,-100,4,2,1,75,0,0
262851,-100,4,2,1,40,0,0
264174,-100,4,2,1,50,0,0
265586,-100,4,2,1,60,0,0
269822,-100,4,2,1,70,0,0
277674,-100,4,2,1,40,0,0
278292,-100,4,2,1,35,0,0
278998,-100,4,2,1,30,0,0
279704,-100,4,2,1,25,0,0
280410,-100,4,2,1,20,0,0
281116,-100,4,2,1,15,0,0
281469,-100,4,2,1,10,0,0

[Colours]
Combo1 : 255,168,168
Combo2 : 123,255,255
Combo3 : 255,255,134
Combo4 : 168,168,255

[HitObjects]
158,330,5822,6,0,P|80:319|18:366,2,160,12|8|10,0:0|0:0|0:0,0:0:0:0:
235,371,7586,1,10,0:0:0:0:
318,342,7939,2,0,L|320:262,1,79.9999999999999,10|2,0:0|1:2,0:0:0:0:
405,235,8645,6,0,P|447:169|437:91,1,160,12|0,1:2|1:0,0:0:0:0:
370,34,9704,1,0,1:0:0:0:
299,86,10057,2,0,L|124:80,1,160,10|8,0:0|0:0,0:0:0:0:
74,140,11116,1,8,0:0:0:0:
129,210,11469,6,0,L|254:215,1,120.000004577637,12|2,0:0|0:0,0:0:0:0:
371,166,12880,1,2,0:0:0:0:
268,83,13586,1,2,0:0:0:0:
391,35,14292,2,0,L|510:39,2,120.000004577637,2|2|2,0:0|0:0|0:0,0:0:0:0:
268,83,16410,1,2,0:0:0:0:
371,166,17116,6,0,P|401:225|392:288,1,120.000004577637,2|2,0:0|0:0,0:0:0:0:
302,370,18527,1,2,0:0:0:0:
268,242,19233,1,2,0:0:0:0:
173,335,19939,2,0,P|118:354|58:344,2,120.000004577637,2|2|2,0:0|0:0|0:0,0:0:0:0:
268,242,22057,1,2,0:0:0:0:
140,207,22763,6,0,L|144:76,1,120.000004577637,2|2,0:0|0:0,0:0:0:0:
19,43,24174,1,2,0:0:0:0:
42,172,24880,1,2,0:0:0:0:
143,87,25586,2,0,P|206:71|264:83,1,120.000004577637,2|2,0:0|0:0,0:0:0:0:
361,164,26998,1,2,0:0:0:0:
361,164,28410,6,0,L|350:332,1,160,12|8,0:0|0:0,0:0:0:0:
417,380,29469,1,10,0:0:0:0:
495,340,29822,2,0,L|507:180,1,160,10|8,0:0|0:0,0:0:0:0:
439,125,30880,1,10,0:0:0:0:
360,164,31233,6,0,B|281:186|288:118|194:148,1,160,10|8,0:0|0:0,0:0:0:0:
124,178,32292,1,10,0:0:0:0:
45,217,32645,2,0,L|48:296,1,79.9999999999999,10|0,0:0|1:0,0:0:0:0:
101,367,33351,2,0,P|142:368|183:349,1,79.9999999999999,0|2,1:0|1:2,0:0:0:0:
238,289,34057,6,0,P|208:233|217:121,1,160,6|8,1:0|0:0,0:0:0:0:
253,62,35116,1,2,1:0:0:0:
320,119,35469,2,0,P|354:190|348:269,1,160,8|8,0:0|0:0,0:0:0:0:
305,346,36527,1,2,1:0:0:0:
237,289,36880,6,0,P|158:291|78:297,2,160,8|8|8,0:0|0:0|0:0,0:0:0:0:
305,346,38645,1,4,0:0:0:0:
348,269,38998,2,0,P|351:232|337:182,1,79.9999999999999,0|0,1:0|1:0,0:0:0:0:
287,120,39704,5,12,0:0:0:0:
287,120,41822,2,0,L|369:112,1,79.9999999999999,4|0,1:2|1:0,0:0:0:0:
454,104,42527,6,0,B|450:65|450:65|471:22,2,79.9999999999999,2|8|8,1:2|0:0|0:0,0:0:0:0:
491,184,43586,1,8,0:0:0:0:
437,253,43939,2,0,L|356:245,1,79.9999999999999,10|8,0:0|0:0,0:0:0:0:
305,316,44645,2,0,L|207:306,1,79.9999999999999,2|2,1:3|1:0,0:0:0:0:
180,231,45351,6,0,P|136:294|160:368,2,160,12|2|6,0:0|1:2|0:0,0:0:0:0:
180,231,48174,6,0,L|169:142,1,79.9999999999999,4|0,1:2|1:0,0:0:0:0:
105,89,48880,2,0,P|46:91|0:126,2,120,8|10|0,3:2|0:0|1:0,0:0:0:0:
164,24,50292,2,0,L|247:18,1,79.9999999999999,10|2,3:2|1:2,0:0:0:0:
324,53,50998,6,0,P|313:92|322:145,1,79.9999999999999,4|0,3:1|1:0,0:0:0:0:
390,180,51704,2,0,L|512:172,2,120,8|12|0,3:2|0:0|1:0,0:0:0:0:
331,246,53116,2,0,P|289:253|246:240,1,79.9999999999999,8|0,0:0|1:0,0:0:0:0:
188,184,53822,5,10,0:0:0:0:
27,254,54527,2,0,L|22:381,2,120,8|10|2,3:2|0:0|1:2,0:0:0:0:
114,244,55939,2,0,L|111:335,1,79.9999999999999,8|2,3:2|1:2,0:0:0:0:
187,368,56645,6,0,P|228:368|274:342,1,79.9999999999999,4|0,3:1|1:0,0:0:0:0:
331,296,57351,2,0,P|400:295|459:334,2,120,8|12|0,3:2|0:0|1:0,0:0:0:0:
248,265,58763,2,0,P|238:234|245:169,1,79.9999999999999,2|0,1:2|1:0,0:0:0:0:
196,109,59469,6,0,P|249:133|308:126,1,120,12|2,0:0|0:0,0:0:0:0:
371,64,60351,1,8,0:0:0:0:
452,98,60704,2,0,P|468:157|450:220,1,120,10|0,0:0|1:0,0:0:0:0:
368,234,61586,2,0,L|365:332,1,79.9999999999999,8|0,0:0|1:0,0:0:0:0:
292,363,62292,6,0,P|236:340|177:347,1,120,4|2,3:1|0:0,0:0:0:0:
95,379,63174,1,10,0:0:0:0:
24,325,63527,2,0,L|27:204,1,120,12|0,0:0|1:0,0:0:0:0:
103,161,64410,2,0,P|114:121|107:66,1,79.9999999999999,8|2,0:0|1:2,0:0:0:0:
55,14,65116,5,12,0:0:0:0:
228,40,65822,2,0,L|373:28,2,120,10|8|2,3:2|0:0|1:0,0:0:0:0:
215,127,67233,2,0,L|303:120,1,79.9999999999999,10|2,3:2|1:0,0:0:0:0:
382,114,67939,6,0,P|401:153|400:203,1,79.9999999999999,2|0,3:2|1:0,0:0:0:0:
325,230,68645,2,0,P|299:283|303:343,2,120,8|4|2,3:2|1:0|1:2,0:0:0:0:
402,189,70057,1,2,1:2:0:0:
414,102,70410,1,2,1:2:0:0:
358,34,70763,6,0,L|278:27,1,79.9999999999999,12|0,0:0|1:0,0:0:0:0:
198,64,71469,2,0,P|143:86|76:73,2,120,8|10|0,3:2|0:0|1:0,0:0:0:0:
269,115,72880,2,0,L|262:194,1,79.9999999999999,10|2,3:2|1:2,0:0:0:0:
253,282,73586,6,0,P|212:288|160:272,1,79.9999999999999,4|0,3:1|1:0,0:0:0:0:
91,249,74292,2,0,L|102:129,2,120,0|12|2,3:0|0:0|1:0,0:0:0:0:
23,306,75704,2,0,P|9:344|11:383,1,79.9999999999999,2|0,1:0|1:0,0:0:0:0:
95,355,76410,5,12,0:0:0:0:
254,279,77116,2,0,L|375:284,2,120,8|10|2,3:2|0:0|1:2,0:0:0:0:
166,270,78527,2,0,P|152:238|152:192,1,79.9999999999999,8|2,3:2|1:2,0:0:0:0:
227,147,79233,6,0,L|219:53,1,79.9999999999999,10|4,0:0|1:2,0:0:0:0:
141,28,79939,2,0,P|86:32|32:81,2,120,8|12|0,0:0|0:2|1:0,0:0:0:0:
220,67,81351,2,0,L|303:61,1,79.9999999999999,2|0,1:0|1:0,0:0:0:0:
381,91,82057,6,0,P|373:129|382:168,1,79.9999999999999,4|8,1:2|0:0,0:0:0:0:
459,211,82763,2,0,P|487:269|481:334,2,120,8|0|8,0:0|1:0|0:0,0:0:0:0:
382,168,84174,2,0,L|279:175,1,79.9999999999999,8|8,0:0|0:0,0:0:0:0:
215,156,84880,6,0,P|202:116|207:76,1,79.9999999999999,12|8,0:0|0:0,0:0:0:0:
282,34,85586,2,0,L|409:27,2,120,8|6|10,0:0|1:2|0:0,0:0:0:0:
206,78,86998,2,0,L|108:84,1,79.9999999999999,2|0,1:2|1:0,0:0:0:0:
42,54,87704,6,0,B|31:93|31:93|46:131|46:131|35:168,1,120,12|2,0:0|1:2,0:0:0:0:
1,295,88763,2,0,L|120:284,1,120,2|2,1:2|1:2,0:0:0:0:
250,309,89822,2,0,B|254:269|254:269|240:231,1,79.9999999999999,0|0,1:0|1:0,0:0:0:0:
256,192,90527,12,2,91939,0:0:0:0:
232,223,93351,6,0,P|174:223|114:275,2,120,12|0|8,0:0|1:0|0:3,0:0:0:0:
311,261,94763,2,0,L|306:364,1,79.9999999999999,12|2,0:0|0:0,0:0:0:0:
395,346,95469,2,0,L|398:260,1,79.9999999999999,12|2,0:0|0:0,0:0:0:0:
466,210,96174,6,0,P|490:135|462:61,1,160,12|14,0:0|0:0,0:0:0:0:
293,13,97586,2,0,L|133:17,1,160,12|8,0:0|0:0,0:0:0:0:
78,86,98645,1,0,1:0:0:0:
136,151,98998,6,0,L|313:147,1,160,12|8,0:0|0:0,0:0:0:0:
352,79,100057,1,0,1:0:0:0:
437,100,100410,2,0,P|449:143|439:193,1,79.9999999999999,10|4,0:0|1:2,0:0:0:0:
363,211,101116,2,0,P|354:249|357:289,1,79.9999999999999,0|0,1:0|1:0,0:0:0:0:
435,334,101822,6,0,B|311:290|335:404|186:358,3,240.000009155273,12|2|2|2,0:0|0:0|0:0|0:0,0:0:0:0:
13,183,107469,6,0,L|21:313,1,120.000004577637,2|2,0:0|0:0,0:0:0:0:
125,382,108880,1,2,0:0:0:0:
218,288,109586,1,2,0:0:0:0:
113,207,110292,2,0,L|106:77,2,120.000004577637,2|2|2,0:0|0:0|0:0,0:0:0:0:
218,288,112410,1,2,0:0:0:0:
324,365,113116,6,0,P|388:365|446:323,1,120.000004577637,2|2,0:0|0:0,0:0:0:0:
479,212,114527,1,2,0:0:0:0:
349,235,115233,1,2,0:0:0:0:
394,110,115939,2,0,P|398:56|368:-1,2,120.000004577637,2|2|2,0:0|0:0|0:0,0:0:0:0:
349,235,118057,1,2,0:0:0:0:
257,140,118763,6,0,L|137:135,1,120.000004577637,2|2,0:0|0:0,0:0:0:0:
48,38,120174,1,2,0:0:0:0:
176,9,120880,1,2,0:0:0:0:
141,139,121586,1,2,0:0:0:0:
141,139,121939,2,0,B|102:231|193:227|147:326,1,180.000006866455,2|2,0:0|0:0,0:0:0:0:
322,359,123704,6,0,P|371:361|418:330,1,79.9999999999999,0|0,1:0|1:0,0:0:0:0:
466,293,124410,2,0,P|438:224|443:130,1,160,12|8,0:0|0:0,0:0:0:0:
461,53,125469,1,8,0:0:0:0:
378,22,125822,2,0,L|202:21,1,160,10|10,0:0|0:0,0:0:0:0:
152,79,126880,1,8,0:3:0:0:
221,132,127233,6,0,L|398:132,1,160,2|8,1:2|0:0,0:0:0:0:
451,185,128292,1,8,0:0:0:0:
370,221,128645,2,0,P|339:270|365:367,1,160,8|0,0:0|1:0,0:0:0:0:
448,381,129704,1,0,1:0:0:0:
425,296,130057,6,0,P|352:271|284:309,1,160,12|0,0:0|1:0,0:0:0:0:
121,376,131469,2,0,L|125:199,1,160,8|2,0:0|1:2,0:0:0:0:
69,147,132527,1,2,0:0:0:0:
129,82,132880,6,0,B|210:54|213:111|287:88,2,160,0|0|4,1:0|1:0|1:0,0:0:0:0:
69,147,134645,1,8,0:0:0:0:
124,216,134998,2,0,L|123:297,1,79.9999999999999,12|0,1:3|1:0,0:0:0:0:
186,358,135704,5,2,0:0:0:0:
265,361,137822,2,0,L|179:357,1,79.9999999999999,0|8,1:0|1:3,0:0:0:0:
111,308,138527,6,0,B|72:303|72:303|35:319,2,79.9999999999999,4|8|8,1:2|0:0|0:0,0:0:0:0:
190,269,139586,1,8,0:0:0:0:
119,216,139939,2,0,L|127:127,1,79.9999999999999,2|0,1:2|1:0,0:0:0:0:
43,105,140645,2,0,L|54:6,1,79.9999999999999,2|0,1:2|1:0,0:0:0:0:
137,4,141351,5,2,0:0:0:0:
261,128,142057,2,0,P|339:126|398:75,1,160,4|2,0:3|1:2,0:0:0:0:
505,216,143469,2,0,P|465:216|427:234,1,79.9999999999999,12|0,0:3|1:0,0:0:0:0:
387,310,144174,6,0,L|302:308,1,79.9999999999999,4|0,1:2|1:0,0:0:0:0:
226,271,144880,2,0,P|203:216|218:155,2,120,8|10|0,3:2|0:0|1:0,0:0:0:0:
199,355,146292,2,0,L|95:351,1,79.9999999999999,10|2,3:2|1:2,0:0:0:0:
33,329,146998,6,0,P|22:291|32:243,1,79.9999999999999,4|0,3:1|1:0,0:0:0:0:
107,212,147704,2,0,P|108:149|74:90,2,120,8|12|0,3:2|0:0|1:0,0:0:0:0:
178,263,149116,2,0,L|272:269,1,79.9999999999999,8|0,0:0|1:0,0:0:0:0:
334,311,149822,5,10,0:0:0:0:
432,165,150527,2,0,L|437:28,2,120,8|10|2,3:2|0:0|1:2,0:0:0:0:
502,217,151939,2,0,P|507:265|494:303,1,79.9999999999999,8|2,3:2|1:2,0:0:0:0:
413,318,152645,6,0,L|329:310,1,79.9999999999999,10|0,0:0|1:0,0:0:0:0:
260,261,153351,2,0,P|201:255|152:288,2,120,8|12|0,0:0|0:0|1:0,0:0:0:0:
339,223,154763,2,0,P|349:180|342:139,1,79.9999999999999,2|0,1:2|1:0,0:0:0:0:
403,80,155469,6,0,P|352:93|286:70,1,120,12|0,0:0|3:0,0:0:0:0:
219,19,156351,1,10,0:0:0:0:
135,47,156704,2,0,P|110:95|125:177,1,120,10|0,0:0|1:0,0:0:0:0:
192,202,157586,2,0,L|187:292,1,79.9999999999999,10|2,3:2|1:2,0:0:0:0:
237,353,158292,6,0,P|290:325|349:329,1,120,4|0,3:1|3:0,0:0:0:0:
432,359,159174,1,10,0:0:0:0:
501,305,159527,2,0,L|492:167,1,120,12|0,0:0|1:0,0:0:0:0:
412,150,160410,2,0,P|400:117|403:69,1,79.9999999999999,8|2,0:0|1:2,0:0:0:0:
468,15,161116,5,12,0:0:0:0:
293,41,161822,2,0,L|161:36,2,120,10|10|2,3:2|0:0|1:0,0:0:0:0:
302,128,163233,2,0,L|216:126,1,79.9999999999999,10|2,3:2|1:0,0:0:0:0:
133,120,163939,6,0,P|115:161|119:209,1,79.9999999999999,10|0,0:0|1:0,0:0:0:0:
194,234,164645,2,0,P|228:281|229:340,2,120,10|12|2,0:0|0:0|1:2,0:0:0:0:
115,195,166057,1,2,1:2:0:0:
100,108,166410,1,2,1:2:0:0:
161,45,166763,6,0,L|245:48,1,79.9999999999999,12|0,0:0|1:0,0:0:0:0:
323,78,167469,2,0,P|387:79|437:38,2,120,8|10|0,3:2|0:0|1:0,0:0:0:0:
255,134,168880,2,0,L|249:229,1,79.9999999999999,10|2,3:2|1:2,0:0:0:0:
172,256,169586,6,0,P|160:303|170:344,1,79.9999999999999,4|0,3:1|1:0,0:0:0:0:
246,367,170292,2,0,L|385:369,2,120,0|12|2,1:0|0:0|1:0,0:0:0:0:
165,333,171704,2,0,L|85:330,1,79.9999999999999,2|0,1:0|1:0,0:0:0:0:
1,358,172410,5,12,0:0:0:0:
74,198,173116,2,0,L|65:73,2,120,8|10|2,0:0|0:0|1:2,0:0:0:0:
155,230,174527,2,0,P|196:230|237:212,1,79.9999999999999,8|2,3:2|1:2,0:0:0:0:
286,146,175233,6,0,L|275:51,1,79.9999999999999,10|4,0:0|1:2,0:0:0:0:
361,41,175939,2,0,L|379:185,2,120,8|12|0,3:2|0:0|1:0,0:0:0:0:
276,66,177351,2,0,L|289:161,1,79.9999999999999,2|8,1:2|1:2,0:0:0:0:
320,225,178057,6,0,P|377:210|435:223,1,120,12|0,0:0|0:0,0:0:0:0:
493,289,178939,1,2,0:0:0:0:
439,359,179292,2,0,P|381:374|323:361,1,120,2|8,1:2|0:0,0:0:0:0:
262,298,180174,2,0,L|178:302,1,79.9999999999999,8|8,0:0|0:0,0:0:0:0:
109,352,180880,6,0,P|129:297|111:223,1,120,12|2,0:0|0:0,0:0:0:0:
48,185,181763,1,2,1:2:0:0:
92,109,182116,2,0,L|230:112,1,120,6|10,1:2|0:0,0:0:0:0:
296,86,182998,2,0,B|285:48|285:48|294:-3,1,79.9999999999999,2|0,1:2|1:0,0:0:0:0:
379,0,183704,6,0,L|388:178,1,160,12|8,0:0|0:0,0:0:0:0:
456,214,184763,2,0,P|470:257|466:293,1,79.9999999999999,8|8,0:0|0:0,0:0:0:0:
397,346,185469,1,10,0:0:0:0:
323,297,185822,2,0,L|243:301,1,79.9999999999999,10|10,0:0|0:0,0:0:0:0:
174,356,186527,6,0,P|96:360|40:306,1,160,12|0,0:3|1:0,0:0:0:0:
21,220,187586,2,0,L|27:176,1,40,0|2,1:0|1:2,0:0:0:0:
72,345,199233,6,0,P|117:339|155:316,1,79.9999999999999,2|8,1:2|0:0,0:0:0:0:
232,346,199939,2,0,P|257:313|269:273,1,79.9999999999999,0|2,0:0|1:2,0:0:0:0:
355,261,200645,2,0,P|356:182|331:107,1,160,12|0,0:0|1:0,0:0:0:0:
164,49,202057,2,0,L|71:62,1,79.9999999999999,10|2,0:0|0:3,0:0:0:0:
102,146,202763,2,0,L|181:135,1,79.9999999999999,2|2,1:2|0:0,0:0:0:0:
247,77,203469,5,4,1:2:0:0:
390,179,204174,1,2,1:2:0:0:
239,270,204880,2,0,P|164:282|89:221,1,160,14|0,0:0|1:0,0:0:0:0:
24,188,205939,1,0,1:0:0:0:
102,146,206292,6,0,P|111:106|104:50,1,79.9999999999999,6|0,1:2|1:0,0:0:0:0:
188,28,206998,2,0,P|235:53|270:54,1,79.9999999999999,8|0,0:0|1:0,0:0:0:0:
251,142,207704,2,0,P|212:157|179:187,2,79.9999999999999,10|2|10,0:0|1:2|0:0,0:0:0:0:
333,109,208763,1,2,1:2:0:0:
403,161,209116,6,0,P|440:230|430:308,1,160,10|8,0:0|0:0,0:0:0:0:
372,374,210174,1,0,1:0:0:0:
305,316,210527,2,0,L|135:324,1,160,10|8,0:0|0:0,0:0:0:0:
56,327,211586,1,2,1:2:0:0:
74,241,211939,6,0,B|81:198|81:198|67:165|67:165|73:124,2,120,6|10|2,1:2|0:0|1:2,0:0:0:0:
256,192,213351,12,2,214763,0:0:0:0:
426,351,230292,6,0,P|398:277|424:188,1,160,2|8,1:2|0:0,0:0:0:0:
467,128,231351,1,2,1:2:0:0:
402,67,231704,6,0,L|314:70,1,79.9999999999999,4|8,1:2|1:2,0:0:0:0:
250,18,232410,2,0,L|158:22,1,79.9999999999999,8|8,1:2|1:2,0:0:0:0:
103,78,233116,2,0,L|107:174,1,79.9999999999999,0|0,1:0|1:0,0:0:0:0:
176,211,233822,2,0,L|178:290,1,79.9999999999999,0|0,1:0|1:0,0:0:0:0:
232,360,234527,6,0,P|161:324|84:338,1,160,4|0,1:2|1:0,0:0:0:0:
5,299,235586,1,0,1:0:0:0:
40,218,235939,2,0,L|38:136,2,79.9999999999999,4|2|2,1:2|1:2|1:2,0:0:0:0:
128,221,236998,2,0,L|128:168,1,40,2|2,1:2|1:3,0:0:0:0:
446,30,238586,6,0,P|482:79|482:146,1,120,4|0,1:2|1:0,0:0:0:0:
426,203,239469,1,10,3:2:0:0:
487,265,239822,1,2,1:2:0:0:
429,331,240174,2,0,L|344:326,1,79.9999999999999,4|0,3:1|1:0,0:0:0:0:
266,357,240880,2,0,P|200:364|144:329,2,120,0|12|0,1:0|0:0|1:0,0:0:0:0:
349,326,242292,2,0,L|354:234,1,79.9999999999999,0|0,1:0|1:0,0:0:0:0:
279,197,242998,5,4,1:2:0:0:
400,69,243704,2,0,P|465:97|525:87,2,120,8|10|0,3:2|0:0|1:0,0:0:0:0:
323,25,245116,2,0,P|281:23|236:41,1,79.9999999999999,8|0,3:2|1:0,0:0:0:0:
184,99,245822,6,0,L|189:196,1,79.9999999999999,10|0,3:2|1:0,0:0:0:0:
124,240,246527,2,0,P|103:296|116:354,2,120,0|12|0,3:0|0:0|1:0,0:0:0:0:
188,178,247939,2,0,L|279:172,1,79.9999999999999,2|2,1:0|1:2,0:0:0:0:
341,221,248645,5,4,1:2:0:0:
406,162,248998,1,8,0:0:0:0:
476,214,249351,2,0,L|487:337,2,120,8|0|8,0:0|1:0|0:0,0:0:0:0:
406,162,250763,2,0,B|417:125|417:125|407:81,1,79.9999999999999,8|8,0:0|0:0,0:0:0:0:
336,32,251469,5,12,0:0:0:0:
268,88,251822,1,8,0:0:0:0:
201,30,252174,2,0,L|67:29,2,120,8|4|0,0:0|1:2|1:0,0:0:0:0:
268,88,253586,2,0,B|258:129|258:129|268:168,1,79.9999999999999,0|0,1:0|1:0,0:0:0:0:
335,221,254292,6,0,B|355:298|355:298|342:336,1,120,12|2,0:0|1:2,0:0:0:0:
212,363,255351,2,0,L|92:358,1,120,6|6,1:2|1:2,0:0:0:0:
46,233,256410,2,0,B|40:192|40:192|53:149,1,79.9999999999999,0|0,1:0|1:0,0:0:0:0:
137,138,257116,6,0,L|130:284,1,120,6|2,1:2|1:2,0:0:0:0:
212,363,258174,2,0,B|287:335|287:335|337:356,1,120,6|6,1:2|1:2,0:0:0:0:
454,331,259233,2,0,L|458:251,1,79.9999999999999,0|0,1:0|1:0,0:0:0:0:
470,163,259939,6,0,B|429:159|429:159|398:181|398:181|355:178,1,120,6|2,1:2|1:2,0:0:0:0:
226,158,260998,2,0,L|236:38,1,120,6|6,1:2|1:2,0:0:0:0:
364,5,262057,2,0,B|372:45|372:45|362:83,1,79.9999999999999,0|2,1:0|1:2,0:0:0:0:
256,192,262763,12,2,264174,0:0:0:0:
345,201,265586,6,0,P|353:144|363:81,2,120,12|0|8,0:0|1:0|0:3,0:0:0:0:
390,276,266998,2,0,P|431:264|478:268,1,79.9999999999999,12|2,0:0|0:0,0:0:0:0:
480,352,267704,2,0,P|441:363|402:362,1,79.9999999999999,12|2,0:0|0:0,0:0:0:0:
318,330,268410,6,0,P|241:319|175:361,1,160,12|14,0:0|0:0,0:0:0:0:
8,303,269822,2,0,L|12:210,1,79.9999999999999,12|0,0:0|1:0,0:0:0:0:
96,196,270527,2,0,L|100:116,1,79.9999999999999,8|0,0:0|1:0,0:0:0:0:
63,36,271233,6,0,P|135:81|226:59,1,160,12|8,0:0|0:0,0:0:0:0:
277,18,272292,1,0,1:0:0:0:
358,52,272645,2,0,B|336:129|336:129|368:222,1,160,10|0,0:0|1:0,0:0:0:0:
441,243,273704,1,0,1:0:0:0:
370,295,274057,6,0,L|285:290,1,79.9999999999999,12|8,0:0|0:0,0:0:0:0:
222,347,274763,2,0,L|142:341,1,79.9999999999999,10|8,0:0|0:0,0:0:0:0:
60,307,275469,2,0,L|67:219,1,79.9999999999999,2|0,1:2|1:0,0:0:0:0:
21,154,276174,1,2,1:2:0:0:
81,89,276527,2,0,L|85:49,1,40,0|0,1:0|1:0,0:0:0:0:
256,192,277586,5,12,1:2:0:0:
256,192,277939,12,2,281469,0:0:0:0:
