osu file format v14

[General]
AudioFilename: audio.mp3
AudioLeadIn: 0
PreviewTime:214774
Countdown: 0
SampleSet: Soft
StackLeniency: 0.7
Mode: 0
LetterboxInBreaks: 0
WidescreenStoryboard: 1

[Editor]
DistanceSpacing: 1
BeatDivisor: 4
GridSize: 4
TimelineZoom: 1.3

[Metadata]
Title:Fuyu ni Saku Hana
TitleUnicode:冬に咲く華
Artist:Mitsuki Kotono
ArtistUnicode:美月琴音
Creator:Delis
Version:Normal
Source:彼女のセイイキ
Tags:Rei24 collab feng kanojo no seiiki op opening theme eroge visual novel vn video game galge japanese jpop j-pop j female vocals vocalist full ver version
BeatmapID:4488519
BeatmapSetID:2133633

[Difficulty]
HPDrainRate:4
CircleSize:3
OverallDifficulty:4
ApproachRate:5
SliderMultiplier:1.1
SliderTickRate:1

[Events]
//Background and Video events
0,0,"BG.jpg",0,0
//Break Periods
2,107468,117562
2,189350,198032
2,214762,224856
//Storyboard Layer 0 (Background)
//Storyboard Layer 1 (Fail)
//Storyboard Layer 2 (Pass)
//Storyboard Layer 3 (Foreground)
//Storyboard Layer 4 (Overlay)
//Storyboard Sound Samples

[TimingPoints]
174,352.941176470588,4,2,1,60,1,0
11291,-100,4,2,1,30,0,0
11468,-111.111111111111,4,2,1,40,0,0
28409,-100,4,2,1,40,0,0
34056,-100,4,2,2,60,0,0
38997,-100,4,2,1,60,0,0
42879,-100,4,2,2,60,0,0
45526,-100,4,2,1,60,0,0
46056,-100,4,2,1,70,0,0
65468,-100,4,2,2,70,0,0
68291,-100,4,2,1,70,0,0
82409,-100,4,2,1,50,0,0
84879,-100,4,2,1,60,0,0
87703,-100,4,2,1,70,0,0
92291,-100,4,2,1,60,0,0
101996,-100,4,2,1,20,0,0
118055,-111.111111111111,4,2,1,40,0,0
123878,-100,4,2,2,60,0,0
138526,-100,4,2,2,60,0,0
141350,-100,4,2,1,60,0,0
143468,-100,4,2,2,70,0,0
143997,-100,4,2,1,70,0,0
154762,-100,4,2,2,70,0,0
155644,-100,4,2,1,70,0,0
161468,-100,4,2,2,70,0,0
164291,-100,4,2,1,70,0,0
166056,-100,4,2,2,70,0,0
167115,-100,4,2,1,70,0,0
178409,-100,4,2,1,50,0,0
180879,-100,4,2,1,60,0,0
183703,-100,4,2,1,70,0,0
205232,-100,4,2,2,60,0,0
206115,-100,4,2,1,60,0,0
226056,-111.111111111111,4,2,1,30,0,0
230115,-100,4,2,1,50,0,0
238056,-100,4,2,2,70,0,0
238585,-100,4,2,1,70,0,0
264183,-100,4,2,1,50,0,0
265585,-100,4,2,1,60,0,0
271585,-100,4,2,2,60,0,0
274056,-100,4,2,2,50,0,0
275468,-100,4,2,2,60,0,0
276173,-100,4,2,2,70,0,0

[Colours]
Combo1 : 255,120,200
Combo2 : 120,180,255
Combo3 : 120,255,210
Combo4 : 180,255,120
Combo5 : 255,210,120

[HitObjects]
64,320,5468,5,2,3:0:0:0:
176,316,5821,2,0,P|236:312|300:312,1,110,6|2,3:3|0:0,0:0:0:0:
396,324,6526,1,0,1:0:0:0:
468,240,6879,1,0,1:0:0:0:
384,168,7232,2,0,P|384:112|380:56,2,110,0|0|0,1:0|1:0|1:0,0:0:0:0:
288,220,8291,6,0,L|228:244,1,55,8|8,1:0|1:0,0:0:0:0:
220,232,8644,2,0,P|200:292|220:352,1,110,0|0,1:0|1:0,0:0:0:0:
320,332,9350,1,8,1:0:0:0:
428,360,9703,2,0,L|440:300,1,55,8|8,1:0|1:0,0:0:0:0:
424,288,10056,2,0,P|424:228|428:156,1,110,8|12,1:0|3:0,0:0:0:0:
328,124,10762,2,0,L|324:60,2,55,8|12|0,1:0|3:0|1:0,0:0:0:0:
224,152,11468,6,0,L|252:360,1,197.99999395752,6|2,1:2|0:0,0:0:0:0:
60,300,12879,2,0,L|32:92,1,197.99999395752,2|2,0:0|0:0,0:0:0:0:
128,68,13938,6,0,P|160:88|164:116,1,49.4999984893799
172,116,14291,2,0,P|212:100|236:44,1,98.9999969787599,2|0,0:0|0:0,0:0:0:0:
240,36,14821,2,0,L|264:152,1,98.9999969787599
264,152,15350,1,0,0:0:0:0:
300,244,15703,1,2,0:0:0:0:
116,320,16409,1,2,0:0:0:0:
8,152,17115,6,0,P|92:176|164:88,1,197.99999395752,2|2,0:0|0:0,0:0:0:0:
356,64,18526,2,0,P|440:40|512:128,1,197.99999395752,2|2,0:0|0:0,0:0:0:0:
440,184,19585,1,0,0:0:0:0:
344,168,19938,6,0,P|289:184|260:248,1,98.9999969787599,2|0,0:0|0:0,0:0:0:0:
172,176,20644,2,0,P|192:128|174:60,1,98.9999969787599,2|0,0:0|0:0,0:0:0:0:
92,112,21350,1,2,0:0:0:0:
280,176,22056,2,0,P|284:100|284:60,1,98.9999969787599,2|0,0:0|0:0,0:0:0:0:
186,82,22762,6,0,B|138:194|234:170|178:290,1,197.99999395752,2|2,0:0|0:0,0:0:0:0:
108,332,23821,1,0,0:0:0:0:
200,364,24173,2,0,L|308:352,1,98.9999969787599,2|0,0:0|0:0,0:0:0:0:
296,252,24879,1,2,0:0:0:0:
392,268,25232,6,0,B|452:280,1,49.4999984893799
460,276,25585,2,0,P|460:200|464:160,1,98.9999969787599,2|0,0:0|0:0,0:0:0:0:
476,80,26291,1,2,0:0:0:0:
376,88,26644,2,0,P|324:92|296:92,1,49.4999984893799,2|0,0:0|0:0,0:0:0:0:
308,80,26997,2,0,P|248:72|196:76,1,98.9999969787599,2|0,0:0|0:0,0:0:0:0:
232,328,28409,6,0,P|284:312|340:320,1,110,4|0,2:2|1:0,0:0:0:0:
444,348,29115,2,0,P|428:296|436:240,1,110,0|0,1:0|1:0,0:0:0:0:
444,228,29644,1,0,1:0:0:0:
456,216,29821,2,0,P|472:164|464:108,1,110,0|0,1:0|1:0,0:0:0:0:
380,40,30526,1,0,1:0:0:0:
292,108,30879,6,0,L|228:120,1,55,0|0,1:0|0:0,0:0:0:0:
224,108,31232,2,0,P|156:108|96:100,1,110,0|0,1:0|1:0,0:0:0:0:
16,160,31938,1,0,1:0:0:0:
88,244,32291,2,0,P|92:296|92:316,1,55,0|0,1:0|1:0,0:0:0:0:
88,316,32644,1,0,1:0:0:0:
188,360,32997,1,0,1:0:0:0:
204,356,33173,1,8,1:0:0:0:
220,352,33350,2,0,P|228:272|220:224,1,110,0|8,1:0|1:0,0:0:0:0:
196,132,34056,6,0,P|312:116|336:64,1,165,12|2,1:2|3:0,0:0:0:0:
332,68,34762,2,0,P|412:64|448:64,1,110,2|10,1:2|0:0,0:0:0:0:
456,56,35291,2,0,P|456:128|460:188,1,110,0|0,0:0|1:2,0:0:0:0:
464,180,35821,1,10,0:0:0:0:
356,184,36173,2,0,P|360:248|356:316,1,110,2|10,1:2|0:0,0:0:0:0:
348,308,36703,5,0,0:0:0:0:
336,320,36879,2,0,P|276:328|228:296,1,110,2|10,1:2|0:0,0:0:0:0:
260,200,37585,2,0,P|256:116|252:76,1,110,2|10,1:2|0:0,0:0:0:0:
240,80,38115,1,2,3:0:0:0:
228,72,38291,1,6,1:2:0:0:
128,120,38644,1,6,0:0:0:0:
24,84,38997,2,0,P|0:160|8:200,2,110,0|8|4,3:0|1:0|0:0,0:0:0:0:
128,48,40056,5,2,3:0:0:0:
236,40,40409,1,0,0:0:0:0:
336,84,40762,1,2,3:0:0:0:
404,168,41115,2,0,P|352:232|264:228,2,165,0|8|8,0:0|1:0|1:0,0:0:0:0:
424,60,42526,5,12,1:2:0:0:
316,84,42879,2,0,P|264:84|200:76,1,110,8|8,0:0|0:2,0:0:0:0:
100,44,43585,1,8,0:0:0:0:
16,112,43938,2,0,P|32:176|36:232,1,110,8|8,0:0|0:0,0:0:0:0:
40,236,44468,1,8,0:0:0:0:
44,252,44644,1,2,3:0:0:0:
124,300,44997,6,0,L|212:324,1,55,8|8,1:0|1:0,0:0:0:0:
192,304,45350,1,12,1:0:0:0:
296,272,45703,2,0,L|368:276,1,55,8|8,1:2|1:2,0:0:0:0:
364,284,46056,2,0,P|348:204|396:128,1,165,8|8,1:0|1:0,0:0:0:0:
404,128,46762,1,12,1:2:0:0:
120,68,48173,6,0,P|104:140|128:208,1,110,6|8,1:2|0:0,0:0:0:0:
120,188,48703,1,2,3:0:0:0:
128,204,48879,2,0,P|204:176|268:184,1,110,0|0,1:0|0:0,0:0:0:0:
248,184,49409,1,4,0:0:0:0:
348,224,49762,1,0,1:0:0:0:
348,224,49938,2,0,L|336:96,2,110,8|0|8,0:0|1:0|0:0,0:0:0:0:
276,308,50997,6,0,B|196:256|96:312,1,165,4|0,1:2|1:0,0:0:0:0:
108,312,51703,1,0,1:0:0:0:
20,256,52056,1,8,0:0:0:0:
20,256,52232,2,0,P|24:204|20:124,1,110,4|0,1:2|1:0,0:0:0:0:
16,132,52762,2,0,P|92:144|148:132,1,110,8|0,0:0|1:0,0:0:0:0:
224,96,53468,1,8,0:0:0:0:
300,172,53821,6,0,B|368:132|472:144,1,165,4|0,1:2|0:0,0:0:0:0:
472,132,54526,2,0,P|444:192|444:280,1,110,0|8,1:0|0:0,0:0:0:0:
444,252,55056,2,0,B|348:244|288:312,1,165,0|8,1:0|0:0,0:0:0:0:
208,236,55938,2,0,P|192:292|192:360,1,110,0|8,1:0|0:0,0:0:0:0:
176,356,56468,5,0,0:0:0:0:
164,364,56644,2,0,P|92:344|24:344,1,110,4|8,1:2|0:0,0:0:0:0:
8,240,57350,1,8,0:0:0:0:
92,168,57703,1,0,1:0:0:0:
92,168,57879,2,0,P|112:96|56:24,1,165,4|8,0:2|0:0,0:0:0:0:
176,32,58762,2,0,P|284:40|312:40,1,110,8|0,0:0|0:0,0:0:0:0:
392,32,59468,6,0,P|368:100|408:196,1,165,12|0,0:0|0:0,0:0:0:0:
468,252,60350,1,0,1:0:0:0:
392,328,60703,2,0,B|344:360|344:360|296:320|224:336,1,165,2|8,1:2|0:0,0:0:0:0:
228,324,61409,2,0,P|168:328|112:324,2,110,2|0|0,0:2|1:0|1:2,0:0:0:0:
240,312,62291,6,0,P|236:216|236:184,1,110,2|8,0:2|0:0,0:0:0:0:
236,180,62821,1,2,3:0:0:0:
296,84,63173,1,0,1:0:0:0:
200,32,63526,2,0,P|140:100|24:84,1,165,4|8,1:2|0:0,0:0:0:0:
24,208,64409,2,0,P|112:200|200:200,1,165,0|0,1:0|1:0,0:0:0:0:
204,204,65115,5,4,1:0:0:0:
308,164,65468,1,10,0:0:0:0:
268,60,65821,1,2,1:2:0:0:
164,100,66173,1,10,0:0:0:0:
204,204,66526,2,0,P|220:260|192:336,1,110,2|10,0:0|0:0,0:0:0:0:
312,348,67232,2,0,L|456:324,1,110,2|10,1:2|0:2,0:0:0:0:
440,316,67762,5,0,0:0:0:0:
456,300,67938,2,0,P|412:228|440:132,1,165,2|8,1:2|0:2,0:0:0:0:
436,140,68644,2,0,L|312:92,1,110,8|0,0:2|0:0,0:0:0:0:
324,88,69173,2,0,P|240:100|172:44,1,165,4|8,0:0|0:0,0:0:0:0:
164,164,70056,2,0,P|84:176|20:188,1,110,8|0,0:0|0:0,0:0:0:0:
124,268,70762,6,0,B|244:248,1,110,12|8,0:0|0:0,0:0:0:0:
324,308,71468,1,0,1:0:0:0:
424,360,71821,1,8,0:0:0:0:
424,360,71997,2,0,P|472:300|448:208,1,165,4|8,0:0|0:0,0:0:0:0:
348,196,72879,2,0,L|364:80,1,110,0|8,1:0|0:0,0:0:0:0:
352,72,73409,5,0,0:0:0:0:
340,60,73585,2,0,B|260:80|260:80|228:48|152:52,1,165,0|0,1:0|0:0,0:0:0:0:
172,64,74291,2,0,P|88:76|16:24,2,165,8|12|8,0:0|0:0|0:0,0:0:0:0:
224,160,75703,2,0,L|184:304,1,110,8|8,0:0|0:0,0:0:0:0:
180,276,76232,5,8,0:0:0:0:
168,284,76409,2,0,P|96:244|-4:268,1,165,4|2,1:2|3:0,0:0:0:0:
20,240,77115,2,0,P|40:192|28:116,1,110,0|8,1:0|0:0,0:0:0:0:
32,120,77644,1,0,1:0:0:0:
128,64,77997,1,0,1:0:0:0:
128,64,78173,1,8,0:0:0:0:
232,100,78526,1,0,1:0:0:0:
332,52,78879,6,0,L|408:68,1,55,8|0,0:0|1:0,0:0:0:0:
400,56,79232,2,0,P|400:112|408:180,1,110,0|8,1:0|0:0,0:0:0:0:
396,180,79762,1,2,3:0:0:0:
384,192,79938,2,0,P|308:196|228:204,1,110,0|8,1:0|0:0,0:0:0:0:
256,200,80468,1,4,1:2:0:0:
148,168,80821,2,0,L|140:248,1,55,0|8,1:0|0:0,0:0:0:0:
132,236,81173,1,0,1:0:0:0:
120,248,81350,2,0,P|48:264|8:184,1,165,4|8,1:2|0:0,0:0:0:0:
12,180,82056,5,12,0:0:0:0:
100,112,82409,1,8,1:0:0:0:
196,168,82762,1,8,1:0:0:0:
200,276,83115,1,8,1:0:0:0:
200,276,83291,2,0,P|260:272|376:244,1,165,8|0,1:0|1:0,0:0:0:0:
472,240,84173,2,0,P|468:180|436:116,1,110,0|0,1:0|0:0,0:0:0:0:
360,64,84879,5,4,1:2:0:0:
252,56,85232,1,8,1:0:0:0:
160,116,85585,1,8,1:0:0:0:
156,224,85938,1,8,1:0:0:0:
156,224,86115,2,0,P|240:208|336:212,1,165,4|8,1:2|1:0,0:0:0:0:
424,244,86997,2,0,P|424:176|412:120,1,110,0|0,1:0|1:0,0:0:0:0:
360,40,87703,5,4,1:2:0:0:
256,60,88056,1,8,0:0:0:0:
256,60,88232,1,4,1:2:0:0:
152,84,88585,1,8,0:0:0:0:
152,84,88762,2,0,L|128:296,2,165,4|4|0,1:2|1:2|1:0,0:0:0:0:
252,132,90173,2,0,P|256:196|264:244,1,110,0|0,1:0|1:0,0:0:0:0:
263,241,92468,2,0,P|320:216|360:172,2,110,12|2|2,3:0|0:0|0:0,0:0:0:0:
248,248,93350,6,0,P|192:228|44:212,1,165,6|8,0:0|0:0,0:0:0:0:
40,112,94232,2,0,P|92:84|104:60,1,55,0|12,1:0|3:0,0:0:0:0:
188,44,94762,2,0,P|216:96|208:164,1,110,4|2,0:0|0:0,0:0:0:0:
324,148,95468,2,0,P|307:204|253:246,1,110,2|2,1:2|0:0,0:0:0:0:
168,280,96173,6,0,P|116:264|124:116,1,220,4|4,1:2|3:2,0:0:0:0:
264,52,97409,1,8,1:0:0:0:
264,52,97585,2,0,L|280:136,1,55,8|0,1:0|0:0,0:0:0:0:
288,112,97938,2,0,L|276:180,1,55,8|8,1:0|1:0,0:0:0:0:
268,180,98291,2,0,L|296:324,1,110,8|8,1:0|0:0,0:0:0:0:
296,308,98821,5,8,0:0:0:0:
296,308,98997,2,0,P|232:280|176:292,1,110,12|8,1:2|0:0,0:0:0:0:
92,332,99703,2,0,P|72:304|80:272,1,55,0|0,1:0|1:0,0:0:0:0:
80,268,100056,1,8,0:0:0:0:
148,180,100409,2,0,P|167:129|160:52,1,110,0|12,1:0|0:0,0:0:0:0:
268,120,101115,2,0,P|328:92|392:80,1,110,8|8,0:0|0:0,0:0:0:0:
472,96,101821,1,4,1:2:0:0:
256,192,102173,12,0,106762,0:0:0:0:
96,344,118762,6,0,L|328:320,1,197.99999395752,2|0,0:0|0:0,0:0:0:0:
392,312,119821,1,0,0:0:0:0:
456,236,120173,2,0,L|448:108,1,98.9999969787599,2|0,0:0|0:0,0:0:0:0:
444,40,120879,1,0,0:0:0:0:
252,96,121585,6,0,P|208:116|136:104,1,98.9999969787599,2|0,0:0|0:0,0:0:0:0:
76,56,122291,2,0,P|64:108|40:156,1,98.9999969787599
132,200,122997,2,0,P|148:320|164:360,1,148.49999546814,0|12,0:0|3:0,0:0:0:0:
164,360,123703,1,0,0:0:0:0:
244,288,124056,1,8,0:0:0:0:
340,240,124409,6,0,P|352:172|376:112,2,110,4|0|0,0:0|1:0|1:0,0:0:0:0:
364,348,125468,2,0,P|336:328|300:328,1,55,0|0,1:0|1:0,0:0:0:0:
296,332,125821,2,0,P|212:304|188:264,1,110,2|2,1:2|1:2,0:0:0:0:
192,276,126350,1,12,3:0:0:0:
184,260,126526,1,2,0:2:0:0:
268,188,126879,6,0,L|284:136,1,55,8|8,0:0|0:0,0:0:0:0:
276,124,127232,2,0,P|204:156|148:156,2,110,12|0|2,0:0|1:0|1:2,0:0:0:0:
364,60,128291,1,8,0:0:0:0:
472,80,128644,2,0,P|492:140|484:208,1,110,0|4,1:0|0:0,0:0:0:0:
408,260,129350,1,8,0:0:0:0:
308,212,129703,6,0,P|272:224|260:240,1,55
248,252,130056,2,0,P|220:180|232:80,1,165,4|0,1:2|1:0,0:0:0:0:
232,80,130762,2,0,P|176:96|108:100,1,110,8|0,0:0|0:0,0:0:0:0:
72,200,131468,2,0,L|100:264,1,55,0|8,1:0|0:0,0:0:0:0:
152,352,131997,1,0,1:0:0:0:
152,352,132173,2,0,P|200:320|276:328,1,110,8|0,0:0|0:0,0:0:0:0:
272,324,132703,5,8,0:0:0:0:
288,336,132879,2,0,P|296:264|296:140,1,165,8|0,0:0|1:0,0:0:0:0:
284,164,133585,2,0,P|284:88|288:40,1,110,8|0,0:0|0:0,0:0:0:0:
272,64,134115,1,8,0:0:0:0:
260,72,134291,1,12,0:0:0:0:
152,64,134644,1,12,0:0:0:0:
184,168,134997,2,0,L|148:300,2,110,0|8|0,1:0|0:0|1:0,0:0:0:0:
256,84,136056,5,2,3:0:0:0:
256,304,136762,1,2,3:0:0:0:
444,188,137468,2,0,L|364:216,1,55,0|8,0:0|0:0,0:0:0:0:
288,176,137997,1,8,0:0:0:0:
288,176,138173,2,0,L|160:136,1,110,8|12,0:0|1:2,0:0:0:0:
84,192,138879,5,8,0:2:0:0:
112,300,139232,1,8,0:2:0:0:
196,228,139585,1,8,0:2:0:0:
232,332,139938,2,0,P|288:320|324:264,1,110,8|8,0:0|0:0,0:0:0:0:
316,268,140468,1,8,0:0:0:0:
312,256,140644,2,0,L|336:128,1,110,0|8,1:0|0:0,0:0:0:0:
352,40,141350,5,2,1:2:0:0:
352,40,142585,2,0,L|336:104,1,55,4|2,3:0|1:0,0:0:0:0:
288,308,143468,2,0,P|220:284|148:276,1,110,12|0,3:0|1:0,0:0:0:0:
160,276,143997,1,8,0:0:0:0:
160,276,144173,1,4,1:2:0:0:
52,292,144526,6,0,P|24:236|36:180,1,110,8|0,0:0|1:0,0:0:0:0:
72,88,145232,1,0,0:0:0:0:
72,88,145409,2,0,P|152:72|220:60,1,110,4|0,1:2|1:0,0:0:0:0:
200,60,145938,1,8,0:0:0:0:
292,124,146291,2,0,P|360:100|416:104,1,110,0|8,1:0|0:0,0:0:0:0:
376,208,146997,6,0,P|320:232|248:232,1,110,4|8,1:2|0:0,0:0:0:0:
256,236,147526,1,2,3:0:0:0:
240,236,147703,2,0,P|172:244|120:256,1,110,0|8,1:0|0:0,0:0:0:0:
116,256,148232,1,4,1:2:0:0:
44,172,148585,2,0,P|24:148|28:100,1,55,0|8,1:0|0:0,0:0:0:0:
128,112,149115,2,0,P|136:72|160:48,1,55,0|0,1:0|1:0,0:0:0:0:
160,48,149468,1,8,0:0:0:0:
248,116,149821,6,0,L|392:100,1,110,4|8,1:2|0:0,0:0:0:0:
368,92,150350,1,2,3:0:0:0:
376,80,150526,2,0,P|380:188|400:272,1,165,0|0,1:0|1:2,0:0:0:0:
328,332,151409,1,0,1:0:0:0:
328,332,151585,1,8,0:0:0:0:
224,284,151938,2,0,P|212:208|196:140,1,110,0|8,1:0|0:0,0:0:0:0:
180,72,152644,6,0,P|296:56|360:40,1,165,0|2,1:0|3:0,0:0:0:0:
360,40,153350,2,0,P|344:96|344:152,1,110,0|8,1:0|0:0,0:0:0:0:
352,160,153879,1,0,1:0:0:0:
272,232,154232,2,0,P|244:212|208:208,1,55,0|8,1:0|0:0,0:0:0:0:
120,244,154762,1,8,0:0:0:0:
120,244,154938,2,0,P|92:200|108:144,1,110,8|8,0:0|0:0,0:0:0:0:
120,136,155468,6,0,P|212:120|260:108,1,110,12|8,0:0|0:0,0:0:0:0:
244,100,155997,2,0,P|304:88|384:72,1,110,0|0,0:0|1:0,0:0:0:0:
368,68,156526,2,0,L|340:160,1,55,8|0,0:0|1:0,0:0:0:0:
340,232,157056,2,0,L|280:216,1,55,0|8,1:0|0:0,0:0:0:0:
180,196,157585,2,0,P|120:212|72:264,1,110,0|8,1:0|0:0,0:0:0:0:
172,312,158291,6,0,P|232:324|288:352,1,110,0|8,1:0|0:0,0:0:0:0:
272,320,158821,2,0,P|324:292|380:276,1,110,0|0,1:0|1:0,0:0:0:0:
388,276,159350,2,0,P|396:248|412:224,1,55,8|4,0:0|1:2,0:0:0:0:
328,152,159879,2,0,P|312:116|288:92,1,55,0|8,1:0|0:0,0:0:0:0:
208,48,160409,2,0,P|136:48|76:128,1,165,0|12,1:0|3:0,0:0:0:0:
76,136,161115,5,4,1:2:0:0:
100,244,161468,1,10,0:0:0:0:
208,216,161821,1,2,1:2:0:0:
240,320,162173,1,10,0:0:0:0:
348,296,162526,2,0,P|408:308|480:320,1,110,2|10,0:0|0:0,0:0:0:0:
464,296,163056,1,2,3:0:0:0:
464,296,163232,2,0,P|476:236|488:164,1,110,2|10,1:2|0:0,1:0:0:0:
436,88,163938,6,0,P|364:76|320:156,1,165,2|2,1:2|3:0,0:0:0:0:
312,168,164644,2,0,P|264:180|216:140,1,110,0|8,1:2|0:0,0:0:0:0:
212,124,165173,1,4,1:2:0:0:
152,216,165526,2,0,L|176:280,1,55,0|8,1:0|0:0,0:0:0:0:
64,268,166056,1,8,0:0:0:0:
64,268,166232,2,0,L|52:144,1,110,8|8,0:0|0:0,0:0:0:0:
52,136,166762,5,12,0:0:0:0:
148,80,167115,1,8,0:0:0:0:
236,144,167468,2,0,P|284:144|332:100,1,110,0|8,1:0|0:0,0:0:0:0:
336,88,167997,2,0,P|348:164|440:220,1,165,4|8,1:2|0:0,0:0:0:0:
316,264,168879,2,0,L|332:340,2,55,0|0|8,1:0|0:0|0:0,0:0:0:0:
240,184,169585,6,0,P|184:248|104:216,1,165,4|0,1:2|1:0,0:0:0:0:
104,216,170291,2,0,P|116:152|120:92,1,110,0|8,1:0|0:0,0:0:0:0:
128,88,170821,1,4,1:2:0:0:
236,100,171173,2,0,L|296:88,1,55,0|8,1:0|0:0,0:0:0:0:
400,68,171703,2,0,P|412:160|424:200,1,110,8|0,0:0|1:0,0:0:0:0:
436,284,172409,5,4,1:2:0:0:
332,252,172762,1,8,0:0:0:0:
224,272,173115,2,0,P|200:296|200:332,1,55,0|0,1:0|1:0,0:0:0:0:
196,344,173468,1,8,0:0:0:0:
196,344,173644,2,0,P|120:356|80:260,1,165,0|8,1:0|0:0,0:0:0:0:
124,192,174526,2,0,P|108:120|96:64,1,110,0|8,1:0|0:0,0:0:0:0:
204,124,175232,6,0,B|236:96|236:96|300:136|276:220,1,165,4|0,1:2|0:0,0:0:0:0:
272,224,175938,2,0,P|336:192|372:200,1,110,0|8,1:0|0:0,0:0:0:0:
384,208,176468,1,4,1:2:0:0:
464,132,176821,2,0,P|456:100|432:64,1,55,0|8,1:0|0:0,0:0:0:0:
432,60,177173,1,0,1:0:0:0:
432,60,177350,2,0,P|368:52|320:104,1,110,8|0,0:0|0:0,0:0:0:0:
236,128,178056,6,0,P|184:120|112:104,1,110,12|0,0:0|1:0,0:0:0:0:
128,216,178762,2,0,P|181:224|252:240,1,110,0|8,1:0|1:0,0:0:0:0:
260,240,179291,1,2,1:0:0:0:
260,240,179468,2,0,P|313:251|368:260,1,110,0|8,1:0|1:0,0:0:0:0:
380,152,180173,2,0,P|326:140|271:131,1,110,0|0,1:0|1:0,0:0:0:0:
196,52,180879,5,4,1:2:0:0:
176,160,181232,1,0,1:0:0:0:
224,260,181585,2,0,P|256:248|276:232,2,55,0|0|0,1:0|0:0|1:0,0:0:0:0:
204,256,182115,2,0,P|128:252|92:336,1,165,4|0,0:0|1:0,0:0:0:0:
36,228,182997,2,0,L|4:108,1,110,0|8,1:0|0:0,0:0:0:0:
100,64,183703,6,0,P|216:84|288:104,1,165,4|8,1:2|1:0,0:0:0:0:
356,152,184585,2,0,P|364:120|380:72,1,55,0|8,1:0|1:0,0:0:0:0:
460,160,185115,2,0,P|436:232|424:304,1,110,8|4,1:0|3:0,0:0:0:0:
332,316,185821,1,0,1:0:0:0:
236,260,186173,1,0,0:0:0:0:
284,160,186526,6,0,P|272:88|176:64,1,165,4|0,1:2|1:0,0:0:0:0:
180,76,187232,2,0,P|124:96|64:104,1,110,8|8,1:0|1:0,0:0:0:0:
60,112,187762,1,8,1:0:0:0:
184,308,199232,6,0,P|156:276|176:192,1,110,2|8,3:0|3:0,0:0:0:0:
268,232,199938,2,0,P|296:200|276:116,1,110,2|12,3:0|3:0,0:0:0:0:
216,56,200644,2,0,L|420:40,1,165,4|0,0:0|1:0,0:0:0:0:
396,40,201350,1,8,0:0:0:0:
412,148,201703,6,0,L|392:208,1,55,0|0,0:0|1:0,0:0:0:0:
392,224,202056,2,0,P|320:192|272:192,1,110,4|0,0:0|0:0,0:0:0:0:
228,280,202762,2,0,P|156:312|108:312,1,110,8|0,0:0|0:0,0:0:0:0:
112,308,203291,1,0,1:0:0:0:
100,304,203468,2,0,L|52:108,1,165,4|0,1:2|0:0,0:0:0:0:
80,152,204173,2,0,P|124:84|168:64,1,110,4|12,0:0|3:0,0:0:0:0:
256,52,204879,5,4,1:2:0:0:
364,80,205232,1,0,1:2:0:0:
472,104,205585,1,8,1:2:0:0:
400,184,205938,2,0,P|396:224|408:240,1,55,8|8,1:2|0:0,0:0:0:0:
412,252,206291,2,0,P|352:228|296:224,1,110,4|8,1:2|0:0,0:0:0:0:
212,280,206997,1,0,1:0:0:0:
212,280,207173,2,0,P|188:276|160:248,1,55,0|8,1:0|0:0,0:0:0:0:
224,164,207703,6,0,P|228:108|200:60,1,110,0|8,1:0|0:0,0:0:0:0:
112,128,208409,2,0,L|56:108,2,55,0|0|8,1:0|1:0|1:2,0:0:0:0:
88,236,209115,2,0,P|148:268|192:312,1,110,0|8,1:0|0:0,0:0:0:0:
196,316,209644,1,0,0:0:0:0:
196,316,209821,2,0,P|256:300|312:292,1,110,0|8,1:0|0:0,0:0:0:0:
412,288,210526,5,0,1:0:0:0:
412,288,210703,2,0,P|412:232|400:172,1,110
384,160,211232,2,0,P|436:128|448:76,1,110,0|8,1:0|0:0,0:0:0:0:
340,60,211938,2,0,P|256:36|172:32,2,165,12|0|8,0:0|1:0|0:0,0:0:0:0:
448,83,213350,1,4,1:2:0:0:
52,232,226056,6,0,P|136:224|260:200,1,197.99999395752
344,180,227115,1,0,0:0:0:0:
280,104,227468,2,0,P|208:108|148:84,1,98.9999969787599
96,52,228173,1,0,0:0:0:0:
48,140,228526,1,0,0:0:0:0:
52,240,228879,6,0,P|144:240|192:344,1,197.99999395752
288,296,229938,1,0,0:0:0:0:
232,200,230291,2,0,L|260:24,2,165,0|2|8,1:0|3:0|0:0,0:0:0:0:
212,308,231703,5,4,1:2:0:0:
108,340,232056,2,0,L|60:284,1,55,0|0,1:0|1:0,0:0:0:0:
80,276,232409,2,0,L|76:212,1,55,0|0,1:0|1:0,0:0:0:0:
84,200,232762,1,0,1:0:0:0:
188,164,233115,2,0,L|196:104,1,55,0|0,1:0|1:0,0:0:0:0:
196,96,233468,1,0,1:0:0:0:
292,40,233821,6,0,P|300:104|316:152,1,110,0|0,1:0|1:0,0:0:0:0:
324,176,234350,1,0,1:0:0:0:
324,176,234526,2,0,P|292:252|200:208,1,165,4|0,0:0|1:0,0:0:0:0:
208,228,235232,1,8,0:0:0:0:
152,136,235585,6,0,P|120:156|112:184,1,55,8|2,0:0|0:0,0:0:0:0:
108,188,235938,2,0,P|88:108|68:60,1,110,4|8,1:2|0:0,0:0:0:0:
184,48,236644,1,8,0:0:0:0:
280,104,236997,1,8,0:0:0:0:
280,104,237173,1,12,0:2:0:0:
384,64,237526,2,0,L|400:136,1,55,2|4,1:2|1:2,0:0:0:0:
444,216,238056,6,0,L|408:340,1,110,8|8,0:0|0:0,0:0:0:0:
400,344,238585,2,0,P|364:296|304:296,1,110,4|0,1:2|0:0,0:0:0:0:
304,300,239115,1,8,0:0:0:0:
204,344,239468,2,0,P|172:296|188:240,1,110,0|8,1:0|0:0,0:0:0:0:
200,232,239997,5,2,3:0:0:0:
200,232,240173,2,0,L|164:112,1,110,0|8,1:2|0:0,0:0:0:0:
248,60,240879,1,0,1:0:0:0:
280,172,241232,1,8,0:0:0:0:
280,172,241409,2,0,P|364:148|460:156,1,165,4|8,1:2|0:0,0:0:0:0:
504,244,242291,1,8,0:0:0:0:
404,292,242644,2,0,P|412:328|416:360,2,55,8|8|4,0:0|3:0|1:2,0:0:0:0:
296,320,243350,5,8,0:0:0:0:
188,292,243703,2,0,P|184:264|212:228,1,55,0|0,1:0|1:0,0:0:0:0:
208,220,244056,1,8,0:0:0:0:
208,220,244232,2,0,P|128:224|96:196,1,110,0|0,1:0|1:0,0:0:0:0:
96,200,244762,1,8,0:0:0:0:
140,100,245115,2,0,P|128:64|104:36,2,55,0|0|8,1:0|1:0|0:0,0:0:0:0:
168,116,245644,5,0,1:0:0:0:
168,116,245821,2,0,P|268:96|312:92,1,110,0|12,1:0|0:2,0:0:0:0:
388,88,246526,2,0,P|392:120|380:144,1,55,0|0,1:0|1:0,0:0:0:0:
364,160,246879,1,8,0:0:0:0:
364,160,247056,2,0,P|420:140|484:144,1,110,4|0,1:2|1:0,0:0:0:0:
496,148,247585,1,8,0:0:0:0:
432,236,247938,2,0,L|420:304,1,55,12|0,0:0|0:0,0:0:0:0:
392,304,248291,2,0,L|416:372,1,55,8|8,0:0|0:0,0:0:0:0:
376,352,248644,6,0,P|320:344|268:336,1,110,12|0,0:0|1:0,0:0:0:0:
188,260,249350,2,0,P|244:252|296:244,1,110,0|0,1:0|1:0,0:0:0:0:
304,236,249879,1,4,1:2:0:0:
312,228,250056,2,0,P|304:160|304:96,1,110,0|0,1:0|1:0,0:0:0:0:
208,64,250762,2,0,P|140:72|76:72,1,110,8|0,1:0|1:0,0:0:0:0:
112,184,251468,6,0,P|212:168|252:168,1,110,4|0,1:2|1:0,0:0:0:0:
240,164,251997,1,0,1:0:0:0:
352,164,252350,1,0,1:0:0:0:
456,128,252703,2,0,P|464:256|480:320,1,165,4|0,1:2|1:0,0:0:0:0:
464,304,253409,1,0,1:0:0:0:
456,316,253585,2,0,P|408:320|368:336,1,55,0|0,1:0|1:0,0:0:0:0:
380,328,253938,1,8,1:0:0:0:
288,268,254291,6,0,P|212:280|152:280,1,110,12|0,1:2|1:0,0:0:0:0:
164,280,254821,1,4,1:2:0:0:
52,280,255173,1,0,1:0:0:0:
52,280,255350,2,0,P|44:208|44:148,1,110,4|0,1:2|1:0,0:0:0:0:
44,152,255879,1,8,0:0:0:0:
136,92,256232,2,0,P|144:128|140:168,1,55,0|0,1:0|1:0,0:0:0:0:
152,256,256762,1,0,1:0:0:0:
248,200,257115,6,0,P|280:136|220:56,2,165,4|8|4,1:2|0:0|1:2,0:0:0:0:
292,300,258526,1,0,1:0:0:0:
292,300,258703,2,0,P|356:268|404:260,1,110,10|0,0:0|1:0,0:0:0:0:
412,260,259232,1,0,1:0:0:0:
396,152,259585,1,8,1:0:0:0:
296,196,259938,6,0,L|148:176,1,110,4|0,1:2|0:0,0:0:0:0:
172,192,260468,2,0,L|152:72,1,110,4|0,1:2|1:0,0:0:0:0:
152,64,260997,1,12,1:2:0:0:
264,76,261350,1,0,1:0:0:0:
264,76,261526,2,0,L|416:84,1,110,12|0,1:2|1:0,0:0:0:0:
392,68,262056,2,0,P|372:124|388:188,1,110,0|8,1:0|0:0,0:0:0:0:
392,196,262585,1,8,0:0:0:0:
392,196,262762,1,8,0:0:0:0:
436,248,264703,6,0,P|316:248|240:256,1,165,4|2,3:3|0:0,0:0:0:0:
256,252,265409,1,2,0:0:0:0:
236,252,265585,2,0,P|192:196|248:112,1,165,6|8,1:2|0:0,0:0:0:0:
304,36,266468,2,0,P|276:32|240:44,1,55,8|4,3:0|3:0,0:0:0:0:
228,36,266821,5,0,0:0:0:0:
228,36,266997,2,0,P|172:40|80:40,1,110,4|2,1:2|0:0,0:0:0:0:
140,148,267703,2,0,P|80:148|-8:152,1,110,4|2,1:2|0:0,0:0:0:0:
96,256,268409,2,0,P|184:256|224:260,1,110,4|0,1:2|0:0,0:0:0:0:
292,188,269115,2,0,P|376:184|420:184,1,110,4|0,3:2|0:0,0:0:0:0:
428,184,269644,1,0,1:0:0:0:
428,184,269821,1,4,1:2:0:0:
416,76,270173,2,0,P|352:80|288:80,1,110,8|0,1:0|1:0,0:0:0:0:
196,88,270879,1,0,1:0:0:0:
88,92,271232,6,0,P|76:160|116:216,1,110,4|8,1:2|0:0,0:0:0:0:
192,240,271938,2,0,P|196:280|180:300,1,55,0|0,1:0|1:0,0:0:0:0:
180,304,272291,1,8,0:0:0:0:
284,340,272644,2,0,P|332:288|388:288,1,110,0|8,1:0|0:0,0:0:0:0:
384,292,273173,1,0,0:0:0:0:
400,300,273350,2,0,P|420:192|292:152,1,220,0|4,1:0|1:2,0:0:0:0:
260,216,274409,5,0,1:0:0:0:
232,108,274762,1,8,0:0:0:0:
152,184,275115,1,8,0:0:0:0:
260,216,275468,2,0,L|328:204,1,55,0|8,1:0|0:0,0:0:0:0:
320,188,275821,2,0,L|388:176,1,55,8|8,0:0|0:0,0:0:0:0:
392,160,276173,2,0,L|380:92,1,55,8|8,0:0|0:0,0:0:0:0:
396,96,276526,2,0,L|384:28,1,55,8|8,0:0|0:0,0:0:0:0:
256,284,277585,5,4,0:0:0:0:
256,192,277762,12,0,281291,0:0:0:0:
