osu file format v14

[General]
AudioFilename: audio.mp3
AudioLeadIn: 0
PreviewTime: 214774
Countdown: 0
SampleSet: Soft
StackLeniency: 0.7
Mode: 0
LetterboxInBreaks: 0
WidescreenStoryboard: 0

[Editor]
DistanceSpacing: 0.5
BeatDivisor: 4
GridSize: 4
TimelineZoom: 2.3

[Metadata]
Title:Fuyu ni Saku Hana
TitleUnicode:冬に咲く華
Artist:Mitsuki Kotono
ArtistUnicode:美月琴音
Creator:Delis
Version:Insane
Source:彼女のセイイキ
Tags:Rei24 collab feng kanojo no seiiki op opening theme eroge visual novel vn video game galge japanese jpop j-pop j female vocals vocalist full ver version
BeatmapID:4488518
BeatmapSetID:2133633

[Difficulty]
HPDrainRate:7
CircleSize:4
OverallDifficulty:8
ApproachRate:9
SliderMultiplier:1.72
SliderTickRate:1

[Events]
//Background and Video events
0,0,"BG.jpg",0,0
//Break Periods
2,107468,117456
2,189350,198456
2,214962,229515
//Storyboard Layer 0 (Background)
//Storyboard Layer 1 (Fail)
//Storyboard Layer 2 (Pass)
//Storyboard Layer 3 (Foreground)
//Storyboard Layer 4 (Overlay)
//Storyboard Sound Samples

[TimingPoints]
174,352.941176470588,4,2,1,60,1,0
5468,-133.333333333333,4,2,1,60,0,0
5821,-100,4,2,1,60,0,0
11115,-125,4,2,1,60,0,0
11291,-125,4,2,1,30,0,0
11468,-200,4,2,1,40,0,0
27703,-153.846153846154,4,2,1,40,0,0
28409,-100,4,2,1,60,0,0
34056,-100,4,2,2,60,0,0
38997,-100,4,2,1,60,0,0
42879,-100,4,2,2,60,0,0
45526,-100,4,2,1,60,0,0
45879,-83.3333333333333,4,2,1,60,0,0
46056,-83.3333333333333,4,2,1,70,0,0
47997,-100,4,2,1,70,0,0
65467,-100,4,2,2,70,0,0
68291,-100,4,2,1,70,0,0
70762,-83.3333333333333,4,2,1,70,0,0
71115,-100,4,2,1,70,0,0
82409,-100,4,2,1,50,0,0
84879,-100,4,2,1,60,0,0
87703,-83.3333333333333,4,2,1,70,0,0
92291,-100,4,2,1,60,0,0
101997,-100,4,2,1,20,0,0
118055,-200,4,2,1,40,0,0
123879,-83.3333333333333,4,2,2,60,0,0
124409,-100,4,2,2,60,0,0
130056,-125,4,2,1,60,0,0
134115,-100,4,2,1,60,0,0
138526,-100,4,2,2,60,0,0
139938,-100,4,2,2,60,0,0
141350,-100,4,2,1,60,0,0
143468,-100,4,2,2,70,0,0
143997,-100,4,2,1,70,0,0
144173,-100,4,2,1,70,0,0
154762,-100,4,2,2,70,0,0
155644,-100,4,2,1,70,0,0
161468,-100,4,2,2,70,0,0
164291,-100,4,2,1,70,0,0
166056,-100,4,2,2,70,0,0
167115,-100,4,2,1,70,0,0
178409,-100,4,2,1,50,0,0
180879,-100,4,2,1,60,0,0
183690,-100,4,2,1,70,0,0
199232,-100,4,2,1,60,0,0
199584,-90.9090909090909,4,2,1,60,0,0
199937,-83.3333333333333,4,2,1,60,0,0
200290,-100,4,2,1,60,0,0
205232,-100,4,2,2,60,0,0
206114,-100,4,2,1,60,0,0
230115,-100,4,2,1,50,0,0
238056,-100,4,2,2,70,0,0
238585,-100,4,2,1,70,0,0
264173,-100,4,2,1,50,0,0
265585,-100,4,2,1,60,0,0
271232,-90.9090909090909,4,2,1,60,0,0
271585,-100,4,2,2,60,0,0
274056,-100,4,2,2,50,0,0
275468,-100,4,2,2,60,0,0
276173,-100,4,2,2,70,0,0

[Colours]
Combo1 : 255,120,200
Combo2 : 120,180,255
Combo3 : 120,255,210
Combo4 : 180,255,120
Combo5 : 255,210,120

[HitObjects]
96,176,5468,6,0,L|96:248,1,64.5000024604798,2|0,3:0|0:0,0:0:0:0:
96,272,5732,1,8,0:3:0:0:
96,272,5821,6,0,L|180:292,1,86,6|0,3:3|0:0,0:0:0:0:
280,308,6173,1,2,0:0:0:0:
348,256,6350,1,2,0:0:0:0:
436,256,6526,2,0,P|446:214|444:172,1,86,0|0,1:0|0:0,0:0:0:0:
304,64,6879,2,0,P|293:105|296:148,1,86,0|8,1:0|3:0,0:0:0:0:
308,176,7144,1,4,3:0:0:0:
308,176,7232,6,0,L|404:192,1,86,0|0,1:0|0:0,0:0:0:0:
328,320,7585,2,0,L|236:306,1,86,0|0,1:0|0:0,0:0:0:0:
116,316,7938,2,0,P|112:272|112:228,1,86,0|0,1:0|0:0,0:0:0:0:
248,124,8291,2,0,P|252:168|252:212,1,86,8|8,1:0|1:0,0:0:0:0:
248,236,8556,1,8,1:0:0:0:
248,236,8644,5,0,1:0:0:0:
332,296,8821,1,0,1:0:0:0:
416,236,8997,1,0,1:0:0:0:
380,136,9173,1,0,1:0:0:0:
280,136,9350,5,8,1:0:0:0:
248,236,9526,1,8,1:0:0:0:
152,272,9703,1,8,1:0:0:0:
52,252,9879,1,8,1:0:0:0:
180,152,10056,5,8,1:0:0:0:
280,136,10232,1,8,3:0:0:0:
348,320,10409,5,12,3:0:0:0:
252,336,10585,1,4,3:0:0:0:
336,224,10762,5,8,1:0:0:0:
436,248,10938,1,12,3:0:0:0:
280,136,11115,2,0,L|212:148,1,68.8,0|0,1:0|2:0,0:0:0:0:
140,248,11468,6,0,L|132:340,1,86,6|0,1:2|0:0,0:0:0:0:
280,316,12173,1,2,0:0:0:0:
280,316,12526,2,0,L|336:324,1,43
408,348,12879,6,0,P|416:304|416:252,1,86,2|0,0:0|0:0,0:0:0:0:
340,216,13409,1,0,0:0:0:0:
252,240,13585,2,0,P|251:204|253:176,1,43,2|0,0:0|0:0,0:0:0:0:
248,96,13938,5,0,0:0:0:0:
168,116,14115,1,0,0:0:0:0:
88,136,14291,2,0,P|64:192|72:248,1,86,2|0,0:0|0:0,0:0:0:0:
227,320,14821,2,0,P|251:264|243:208,1,86
196,176,15350,2,0,P|193:152|192:128,1,43
328,72,15703,6,0,P|334:117|336:164,1,86,2|0,0:0|0:0,0:0:0:0:
227,320,16232,1,0,0:0:0:0:
312,308,16409,2,0,L|360:300,1,43,2|0,0:0|0:0,0:0:0:0:
404,228,16762,1,0,0:0:0:0:
488,252,16938,1,0,0:0:0:0:
404,228,17115,6,0,P|408:184|412:136,1,86,2|0,0:0|0:0,0:0:0:0:
416,60,17644,1,0,0:0:0:0:
336,100,17821,2,0,L|288:96,1,43,2|0,0:0|0:0,0:0:0:0:
212,120,18173,2,0,L|208:164,1,43
204,248,18526,6,0,P|156:260|116:280,1,86,2|0,0:0|0:0,0:0:0:0:
184,356,19056,1,0,0:0:0:0:
184,356,19232,2,0,P|232:344|272:324,1,86,2|0,0:0|0:0,0:0:0:0:
348,356,19762,1,0,0:0:0:0:
416,308,19938,6,0,P|424:256|420:212,1,86,2|0,0:0|0:0,0:0:0:0:
272,136,20644,2,0,P|264:212|268:256,1,86,2|0,0:0|0:0,0:0:0:0:
208,280,21173,1,0,0:0:0:0:
128,264,21350,5,2,0:0:0:0:
272,136,22056,2,0,P|316:144|340:148,2,64.5,2|0|0,0:0|0:0|0:0,0:0:0:0:
172,40,22762,6,0,L|160:132,1,86,2|0,0:0|0:0,0:0:0:0:
96,180,23291,1,0,0:0:0:0:
176,212,23468,2,0,P|224:236|260:268,1,86,2|0,0:0|0:0,0:0:0:0:
208,328,23997,1,0,0:0:0:0:
320,360,24173,6,0,L|332:256,1,86,2|0,0:0|0:0,0:0:0:0:
404,220,24703,2,0,L|464:212,2,43,0|2|0,0:0|0:0|0:0,0:0:0:0:
324,188,25232,2,0,L|316:144,1,43
300,64,25585,2,0,L|212:52,1,86,2|0,0:0|0:0,0:0:0:0:
238,176,26115,2,0,L|326:188,1,86
340,268,26644,5,2,0:0:0:0:
260,304,26821,1,0,0:0:0:0:
208,372,26997,1,2,0:0:0:0:
348,323,27703,6,0,L|336:248,1,55.8999974411012
232,168,28056,2,0,L|224:224,1,55.8999974411012,4|2,3:0|3:0,0:0:0:0:
220,256,28321,1,2,3:0:0:0:
220,256,28409,6,0,L|116:284,1,86,4|0,2:2|0:0,0:0:0:0:
264,345,28762,2,0,L|347:322,1,86,0|0,1:0|1:0,0:0:0:0:
448,348,29115,2,0,P|456:304|456:248,1,86,0|0,1:0|1:0,0:0:0:0:
296,108,29468,2,0,P|288:152|288:208,1,86,0|0,1:0|1:0,0:0:0:0:
220,256,29821,5,0,1:0:0:0:
304,288,29997,1,0,0:0:0:0:
168,344,30173,1,0,1:0:0:0:
132,192,30350,1,0,0:0:0:0:
216,156,30526,2,0,L|228:68,1,86,0|0,1:0|0:0,0:0:0:0:
297,202,30879,2,0,L|305:302,1,86,0|0,1:0|0:0,0:0:0:0:
376,344,31232,6,0,L|464:360,1,86,0|0,1:0|3:0,0:0:0:0:
464,172,31585,2,0,L|376:188,1,86,0|0,1:0|3:0,0:0:0:0:
297,202,31938,1,0,1:0:0:0:
328,100,32115,1,0,1:0:0:0:
372,256,32291,1,0,1:0:0:0:
288,296,32468,1,0,1:0:0:0:
297,202,32644,5,0,1:0:0:0:
464,260,32821,1,0,1:0:0:0:
288,296,32997,5,0,1:0:0:0:
344,116,33173,1,8,1:0:0:0:
384,316,33350,5,0,1:0:0:0:
200,344,33526,1,8,1:0:0:0:
132,260,33703,5,8,1:0:0:0:
136,236,33791,1,8,1:0:0:0:
140,212,33879,1,8,1:0:0:0:
144,188,33968,1,8,1:0:0:0:
148,164,34056,2,0,P|153:127|162:69,1,86,12|0,1:2|0:0,0:0:0:0:
64,136,34409,1,10,0:0:0:0:
224,236,34585,5,2,3:0:0:0:
224,236,34673,1,2,3:0:0:0:
224,236,34762,2,0,L|312:228,1,86,2|0,1:2|1:0,0:0:0:0:
396,156,35115,1,10,0:0:0:0:
332,88,35291,1,0,0:0:0:0:
408,240,35468,5,2,1:2:0:0:
464,96,35644,1,0,1:2:0:0:
324,176,35821,1,10,0:0:0:0:
488,248,35997,1,2,3:0:0:0:
488,248,36085,1,2,3:0:0:0:
488,248,36173,2,0,P|491:317|492:348,1,86,2|0,1:2|1:0,0:0:0:0:
304,344,36526,2,0,P|307:275|308:244,1,86,10|0,0:0|0:0,0:0:0:0:
312,128,36879,5,2,1:2:0:0:
236,192,37056,1,0,1:0:0:0:
391,153,37232,2,0,P|355:133|303:129,1,86,10|0,0:0|0:0,0:0:0:0:
128,228,37585,1,2,1:2:0:0:
40,164,37762,1,0,1:0:0:0:
148,72,37938,1,10,0:0:0:0:
236,172,38115,5,2,3:0:0:0:
236,172,38203,1,2,3:0:0:0:
236,172,38291,2,0,P|233:221|232:264,1,86,6|0,1:2|0:0,0:0:0:0:
476,288,38644,2,0,P|420:258|352:264,1,129,6|0,0:0|0:0,0:0:0:0:
312,200,38997,2,0,P|316:160|332:116,2,57.3333333333333,0|8|8,3:0|1:0|1:0,0:0:0:0:
400,148,39350,2,0,P|440:152|472:168,2,57.3333333333333,8|8|0,1:0|1:0|3:0,0:0:0:0:
412,232,39703,5,4,0:0:0:0:
152,308,40056,1,2,3:0:0:0:
100,56,40409,2,0,P|148:44|208:40,1,86
384,63,40762,2,0,P|396:111|400:171,1,86,2|0,3:0|0:0,0:0:0:0:
296,296,41115,5,0,0:0:0:0:
244,184,41291,1,0,0:0:0:0:
176,280,41468,1,2,3:0:0:0:
336,204,41644,1,8,1:0:0:0:
336,204,41732,1,8,1:0:0:0:
336,204,41821,1,8,1:0:0:0:
184,120,41997,1,8,1:0:0:0:
236,344,42173,5,8,1:0:0:0:
272,368,42262,1,8,1:0:0:0:
316,364,42350,1,8,1:0:0:0:
352,344,42438,1,8,1:0:0:0:
368,304,42526,1,12,1:2:0:0:
368,304,42879,2,0,P|379:253|392:214,1,86,8|8,0:0|0:0,0:0:0:0:
312,184,43232,2,0,P|320:130|324:77,1,86,8|8,0:2|0:0,0:0:0:0:
232,124,43585,2,0,P|213:83|183:32,1,86,8|8,0:0|0:0,0:0:0:0:
32,192,43938,5,8,0:0:0:0:
144,176,44115,1,8,0:0:0:0:
52,276,44291,5,8,0:0:0:0:
72,108,44468,1,8,0:0:0:0:
208,328,44644,5,2,3:0:0:0:
300,296,44821,1,0,1:0:0:0:
284,256,44909,1,0,1:0:0:0:
276,212,44997,1,8,1:0:0:0:
284,168,45085,1,8,1:0:0:0:
304,132,45173,1,8,1:0:0:0:
316,92,45262,1,8,1:0:0:0:
312,48,45350,1,12,1:2:0:0:
72,116,45526,5,8,1:2:0:0:
108,136,45615,1,8,1:2:0:0:
152,140,45703,1,8,1:2:0:0:
192,128,45791,1,8,1:2:0:0:
220,96,45879,2,0,L|184:44,1,51.599998425293,8|0,1:2|0:0,0:0:0:0:
168,224,46056,6,0,L|172:288,1,51.599998425293,8|0,1:0|1:0,0:0:0:0:
276,188,46232,2,0,L|272:254,1,51.599998425293,8|0,1:0|1:0,0:0:0:0:
380,144,46409,2,0,L|376:210,1,51.599998425293,8|0,1:0|1:0,0:0:0:0:
372,276,46585,2,0,L|380:336,1,51.599998425293,8|0,1:0|0:0,0:0:0:0:
368,344,46762,1,12,1:2:0:0:
256,52,47997,5,2,0:0:0:0:
256,52,48085,1,2,0:0:0:0:
256,52,48173,2,0,B|312:132|255:224,1,172,6|8,1:2|0:0,0:0:0:0:
40,128,48703,1,2,3:0:0:0:
40,128,48791,1,2,3:0:0:0:
40,128,48879,2,0,P|95:139|127:146,1,86,0|0,1:0|1:0,0:0:0:0:
104,48,49232,1,0,0:0:0:0:
68,228,49409,6,0,P|155:234|215:180,1,172,4|0,1:2|1:0,0:0:0:0:
328,308,49938,2,0,P|284:312|236:308,1,86,8|0,0:0|0:0,0:0:0:0:
132,104,50291,2,0,P|187:101|237:107,1,86,0|0,1:0|1:0,0:0:0:0:
300,160,50644,5,8,0:0:0:0:
232,224,50821,1,0,0:0:0:0:
284,64,50997,2,0,P|325:75|362:99,1,86,4|0,1:2|0:0,0:0:0:0:
148,280,51350,2,0,P|141:236|150:178,1,86,8|0,0:0|1:0,0:0:0:0:
152,176,51615,1,0,1:0:0:0:
160,156,51703,1,0,1:0:0:0:
188,360,51879,1,0,1:0:0:0:
68,304,52056,1,8,0:0:0:0:
232,224,52232,6,0,P|321:229|403:273,1,172,4|0,1:2|1:0,0:0:0:0:
476,160,52762,2,0,P|432:143|388:112,1,86,8|0,0:0|0:0,0:0:0:0:
368,92,53026,1,8,3:0:0:0:
332,76,53115,1,0,1:0:0:0:
288,72,53203,1,0,1:0:0:0:
248,88,53291,2,0,P|242:147|238:188,1,86,2|8,3:0|0:0,0:0:0:0:
224,340,53644,1,0,1:0:0:0:
152,152,53821,5,4,1:2:0:0:
272,280,53997,1,0,0:0:0:0:
328,176,54173,1,8,0:0:0:0:
180,252,54350,2,0,P|134:254|83:237,1,86,0|0,0:0|1:0,0:0:0:0:
239,173,54703,1,0,1:0:0:0:
336,336,54879,5,8,0:0:0:0:
420,284,55056,2,0,P|444:200|392:124,1,172,0|0,1:0|0:0,0:0:0:0:
256,256,55585,2,0,P|213:274|168:301,1,86,8|0,0:0|0:0,0:0:0:0:
72,100,55938,2,0,P|119:106|162:109,1,86,0|0,1:0|1:0,0:0:0:0:
328,188,56291,1,8,0:0:0:0:
320,48,56468,1,0,0:0:0:0:
236,148,56644,6,0,P|216:248|256:316,1,172,4|8,1:2|0:0,0:0:0:0:
348,356,57173,1,2,3:0:0:0:
348,356,57262,1,2,3:0:0:0:
348,356,57350,2,0,P|356:315|350:258,1,86,8|2,0:0|3:0,0:0:0:0:
316,180,57703,1,0,1:0:0:0:
100,312,57879,2,0,P|175:321|259:258,1,172,4|0,0:2|0:0,0:0:0:0:
256,168,58409,2,0,P|252:120|251:59,1,86,8|0,0:0|0:0,0:0:0:0:
168,48,58762,5,8,0:0:0:0:
336,100,58938,1,8,0:0:0:0:
336,100,59026,1,8,0:0:0:0:
168,184,59203,1,8,0:0:0:0:
168,184,59291,1,8,0:0:0:0:
168,184,59379,1,8,0:0:0:0:
168,184,59468,2,0,P|157:250|158:288,1,86,12|0,0:0|0:0,0:0:0:0:
264,148,59821,1,8,0:0:0:0:
192,60,59997,2,0,P|138:69|96:80,1,86,0|0,0:0|1:0,0:0:0:0:
340,236,60350,2,0,P|394:227|436:216,1,86,0|8,1:0|0:0,0:0:0:0:
400,44,60703,6,0,P|394:88|390:136,1,86,2|0,1:2|0:0,0:0:0:0:
296,64,61056,1,0,1:0:0:0:
224,128,61232,1,8,0:0:0:0:
224,128,61409,2,0,P|229:175|237:232,1,86,2|0,0:2|1:0,0:0:0:0:
80,76,61762,2,0,P|84:124|92:176,1,86,0|8,1:0|0:0,0:0:0:0:
104,240,62115,1,0,1:2:0:0:
256,304,62291,6,0,B|356:296|428:292,1,172,2|8,0:2|0:0,0:0:0:0:
208,104,62821,1,2,3:0:0:0:
208,104,62909,1,2,3:0:0:0:
208,104,62997,2,0,P|201:169|204:212,1,86,0|0,1:2|1:0,0:0:0:0:
292,224,63350,1,8,0:0:0:0:
116,280,63526,2,0,P|104:196|120:108,1,172,4|0,1:2|1:0,0:0:0:0:
380,180,64056,2,0,P|384:228|380:280,1,86,8|0,0:0|0:0,0:0:0:0:
260,340,64409,6,0,P|204:302|191:237,2,129,0|0|0,1:0|1:0|1:0,0:0:0:0:
300,256,65115,1,4,1:0:0:0:
236,176,65291,1,0,0:0:0:0:
300,256,65468,1,10,0:0:0:0:
332,120,65644,1,0,0:0:0:0:
300,256,65821,5,2,1:2:0:0:
428,192,65997,1,0,1:0:0:0:
332,336,66173,1,10,0:0:0:0:
460,272,66350,1,0,1:0:0:0:
344,176,66526,2,0,P|360:223|377:268,1,86,2|0,0:0|1:0,0:0:0:0:
168,208,66879,2,0,P|152:161|135:116,1,86,10|0,0:0|0:0,0:0:0:0:
332,56,67232,5,2,1:2:0:0:
220,124,67409,1,2,3:0:0:0:
220,124,67497,1,2,3:0:0:0:
220,124,67585,1,10,0:2:0:0:
384,188,67762,1,0,0:0:0:0:
232,332,67938,2,0,P|228:284|226:223,1,86,2|0,1:2|0:0,0:0:0:0:
384,188,68291,5,8,0:0:0:0:
424,176,68379,1,0,0:0:0:0:
464,188,68468,1,8,0:2:0:0:
496,220,68556,1,8,0:2:0:0:
504,260,68644,1,8,0:2:0:0:
364,360,68821,1,8,0:0:0:0:
364,360,68909,1,0,0:0:0:0:
364,360,68997,1,0,0:0:0:0:
180,280,69173,6,0,B|124:244|136:160|196:136,1,172,4|0,0:0|1:0,0:0:0:0:
332,176,69703,1,8,0:0:0:0:
252,240,69879,1,0,1:0:0:0:
420,136,70056,5,8,0:0:0:0:
284,92,70232,1,8,0:0:0:0:
284,92,70321,1,8,0:0:0:0:
148,136,70497,5,8,0:0:0:0:
148,136,70585,1,8,0:0:0:0:
148,136,70673,1,8,0:0:0:0:
148,136,70762,2,0,P|128:184|128:240,1,103.199996850586,12|0,0:0|0:0,0:0:0:0:
268,348,71115,2,0,P|281:307|284:264,1,86,8|2,0:0|3:0,0:0:0:0:
284,240,71379,1,2,3:0:0:0:
284,240,71468,1,0,1:0:0:0:
172,316,71644,1,0,1:0:0:0:
208,184,71821,1,8,0:0:0:0:
336,308,71997,6,0,P|404:312|468:232,1,172,4|0,1:2|1:0,0:0:0:0:
392,156,72526,2,0,P|394:108|400:64,1,86,8|2,0:0|3:0,0:0:0:0:
404,44,72791,1,2,3:0:0:0:
404,44,72879,1,0,1:0:0:0:
480,176,73056,1,0,1:0:0:0:
328,208,73232,2,0,L|280:200|232:192,1,86,8|0,0:0|0:0,0:0:0:0:
319,29,73585,6,0,P|363:37|415:45,1,86,0|0,1:0|0:0,0:0:0:0:
476,244,73938,1,8,0:0:0:0:
424,120,74115,1,0,0:0:0:0:
328,208,74291,5,8,0:0:0:0:
300,228,74379,1,8,0:0:0:0:
268,236,74468,1,8,0:0:0:0:
232,228,74556,1,8,0:0:0:0:
204,208,74644,1,8,0:0:0:0:
188,176,74732,1,8,0:0:0:0:
188,140,74821,6,0,P|191:95|194:43,1,86,12|0,0:0|0:0,0:0:0:0:
288,96,75173,1,0,1:0:0:0:
104,120,75350,2,0,L|16:136,1,86,8|0,0:0|0:0,0:0:0:0:
68,336,75703,2,0,L|112:328|156:320,1,86,8|8,0:0|0:0,0:0:0:0:
184,312,75968,5,8,0:0:0:0:
196,284,76056,1,8,0:0:0:0:
208,256,76144,1,8,0:0:0:0:
220,228,76232,1,8,0:0:0:0:
232,200,76321,1,8,0:0:0:0:
244,172,76409,2,0,L|160:153,1,86,4|0,1:2|0:0,0:0:0:0:
200,36,76762,6,0,P|238:45|283:54,1,86,8|2,0:0|3:0,0:0:0:0:
308,60,77026,1,2,3:0:0:0:
308,60,77115,1,0,1:0:0:0:
308,256,77291,1,0,1:0:0:0:
376,160,77468,5,8,0:0:0:0:
484,192,77644,2,0,P|489:150|494:96,1,86,0|0,1:0|0:0,0:0:0:0:
376,160,77997,1,0,1:0:0:0:
424,304,78173,2,0,P|464:300|516:260,1,86,8|0,0:0|0:0,0:0:0:0:
288,132,78526,2,0,P|281:178|275:225,1,86,0|0,1:0|1:0,0:0:0:0:
256,344,78879,1,8,0:0:0:0:
68,256,79056,5,0,1:0:0:0:
64,232,79144,1,0,1:0:0:0:
60,208,79232,2,0,P|124:160|216:176,1,172,0|8,1:0|0:0,0:0:0:0:
368,128,79762,1,2,3:0:0:0:
368,128,79850,1,2,3:0:0:0:
368,128,79938,1,0,1:0:0:0:
388,256,80115,1,0,1:0:0:0:
480,184,80291,1,8,0:0:0:0:
368,128,80468,2,0,P|280:140|216:88,1,172,4|0,1:2|1:0,0:0:0:0:
88,120,80997,6,0,P|97:74|104:32,1,86,8|0,0:0|1:0,0:0:0:0:
218,91,81350,2,0,L|233:175,1,86,4|0,1:2|0:0,0:0:0:0:
88,328,81703,2,0,L|72:243,1,86,8|8,0:0|0:0,0:0:0:0:
68,216,81968,1,8,0:0:0:0:
68,216,82056,1,12,0:0:0:0:
218,91,82232,1,0,0:0:0:0:
359,324,82409,5,8,1:0:0:0:
271,304,82585,1,8,1:0:0:0:
148,232,82762,5,8,1:0:0:0:
240,208,82938,1,8,1:0:0:0:
271,304,83115,5,8,1:0:0:0:
209,112,83291,2,0,L|112:108,1,86,8|0,1:0|1:0,0:0:0:0:
148,232,83644,5,0,1:0:0:0:
332,184,83821,1,0,1:0:0:0:
271,304,83997,1,0,1:0:0:0:
209,112,84173,5,0,1:0:0:0:
209,112,84350,1,8,3:0:0:0:
240,208,84526,2,0,L|288:224|324:236,1,86,0|12,0:0|3:0,0:0:0:0:
180,320,84879,2,0,P|100:312|56:232,1,172,4|8,1:2|1:0,0:0:0:0:
124,72,85409,2,0,L|36:92,1,86,8|8,1:0|1:0,0:0:0:0:
228,188,85762,2,0,L|324:168,1,86,8|8,1:0|1:0,0:0:0:0:
444,200,86115,6,0,P|488:132|452:44,1,172,4|0,1:2|1:0,0:0:0:0:
344,164,86644,2,0,L|332:272,1,86,8|0,1:0|0:0,0:0:0:0:
316,352,86997,1,0,1:0:0:0:
128,256,87173,1,0,1:0:0:0:
243,139,87350,1,0,1:0:0:0:
243,139,87438,1,0,1:0:0:0:
243,139,87526,1,0,1:0:0:0:
243,139,87615,1,0,1:0:0:0:
243,139,87703,6,0,L|343:163,1,103.199996850586,4|0,1:2|0:0,0:0:0:0:
452,192,88056,1,8,0:0:0:0:
296,44,88232,6,0,L|192:64,1,103.199996850586,4|0,1:2|0:0,0:0:0:0:
56,96,88585,1,8,0:0:0:0:
243,139,88762,5,4,1:2:0:0:
91,191,88938,1,0,1:0:0:0:
139,79,89115,1,0,1:0:0:0:
195,251,89291,5,4,1:2:0:0:
39,299,89468,1,0,1:0:0:0:
91,191,89644,1,0,1:0:0:0:
167,339,89821,5,0,1:0:0:0:
199,343,89909,1,0,1:0:0:0:
231,335,89997,1,0,1:0:0:0:
259,315,90085,1,0,1:0:0:0:
279,287,90173,1,0,1:0:0:0:
303,263,90262,1,0,1:0:0:0:
335,247,90350,1,0,1:0:0:0:
371,243,90438,1,0,1:0:0:0:
403,251,90526,1,0,1:0:0:0:
256,52,91938,5,2,0:0:0:0:
256,52,92291,2,0,L|256:144,1,86,2|12,0:0|3:0,0:0:0:0:
256,336,92821,5,2,0:0:0:0:
336,280,92997,1,8,3:0:0:0:
432,280,93173,1,2,0:0:0:0:
432,280,93262,1,2,0:0:0:0:
432,280,93350,2,0,P|468:208|420:128,1,172,6|0,0:0|0:0,0:0:0:0:
256,52,93879,5,8,0:0:0:0:
156,328,94232,1,0,1:0:0:0:
256,256,94409,2,0,L|256:168,1,86,12|0,3:0|0:0,0:0:0:0:
256,52,94762,5,4,0:0:0:0:
368,136,95115,1,2,0:0:0:0:
368,272,95468,1,2,1:2:0:0:
256,352,95821,1,2,0:0:0:0:
104,192,96173,6,0,P|188:192|256:248,1,172,4|0,1:2|0:0,0:0:0:0:
336,340,96703,1,2,3:0:0:0:
336,340,96791,1,2,3:0:0:0:
336,340,96879,2,0,P|416:340|484:276,1,172,4|0,3:2|0:0,0:0:0:0:
336,68,97409,5,8,1:0:0:0:
336,68,97497,1,8,1:0:0:0:
336,68,97585,2,0,P|332:118|328:164,1,86,8|0,1:0|0:0,0:0:0:0:
256,228,97938,2,0,P|196:236|156:240,1,86,8|8,1:0|1:0,0:0:0:0:
336,340,98291,2,0,P|378:335|421:329,1,86,8|8,1:0|0:0,0:0:0:0:
436,304,98556,5,8,0:0:0:0:
448,276,98644,1,8,0:0:0:0:
460,248,98732,1,8,0:0:0:0:
472,220,98821,1,8,0:0:0:0:
484,192,98909,1,8,0:0:0:0:
496,160,98997,2,0,P|460:100|364:92,1,172,12|8,1:2|0:0,0:0:0:0:
288,177,99526,5,2,3:0:0:0:
283,147,99615,1,2,3:0:0:0:
276,116,99703,1,0,1:0:0:0:
408,168,99879,1,0,1:0:0:0:
304,260,100056,6,0,L|208:248,1,86,8|0,0:0|1:0,0:0:0:0:
192,244,100321,1,0,1:0:0:0:
192,244,100409,2,0,P|180:296|172:336,1,86,0|0,1:0|1:0,0:0:0:0:
92,232,100762,6,0,L|88:144,1,86,12|8,0:0|0:0,0:0:0:0:
88,120,101026,1,8,0:0:0:0:
88,120,101115,2,0,L|28:112,2,57.3333333333333,8|8|8,0:0|0:0|0:0,0:0:0:0:
176,172,101468,2,0,L|237:180,2,57.3333333333333,8|8|8,0:0|0:0|0:0,0:0:0:0:
92,232,101821,5,4,1:2:0:0:
256,192,101997,12,0,106762,0:0:0:0:
244,320,118056,6,0,P|240:292|248:240,2,64.5,2|0|0,0:0|0:0|0:0,0:0:0:0:
332,336,118762,2,0,P|398:342|491:260,1,172,2|0,0:0|0:0,0:0:0:0:
240,116,119821,1,2,0:0:0:0:
240,116,120173,2,0,P|190:120|136:118,1,86,2|0,0:0|0:0,0:0:0:0:
272,268,120879,2,0,P|322:264|376:266,1,86
180,208,121585,2,0,P|184:258|182:312,1,86,2|2,0:0|0:0,0:0:0:0:
260,212,122115,1,0,0:0:0:0:
332,176,122291,2,0,P|328:126|330:72,1,86
416,128,122821,2,0,P|423:189|421:266,1,129
256,344,123703,5,12,3:0:0:0:
256,344,123879,2,0,L|188:332,1,51.599998425293,8|0,0:0|0:0,0:0:0:0:
296,268,124056,2,0,L|352:264,1,51.599998425293,8|0,0:0|0:0,0:0:0:0:
248,188,124232,2,0,L|184:176,1,51.599998425293,8|0,0:0|0:0,0:0:0:0:
288,104,124409,6,0,P|336:100|385:96,1,86,4|0,0:0|0:0,0:0:0:0:
144,112,124762,2,0,P|128:71|112:24,1,86,0|0,1:0|0:0,0:0:0:0:
340,188,125115,2,0,P|363:244|376:280,1,86,0|0,1:0|0:0,0:0:0:0:
184,320,125468,1,0,1:0:0:0:
276,266,125644,1,0,1:0:0:0:
284,376,125821,5,2,1:2:0:0:
372,268,125997,1,0,0:0:0:0:
197,178,126173,1,2,1:2:0:0:
276,266,126350,1,12,3:0:0:0:
288,104,126526,5,2,0:2:0:0:
144,244,126703,1,12,3:0:0:0:
340,184,126879,1,8,0:0:0:0:
188,84,127056,5,8,0:0:0:0:
188,84,127144,1,8,0:0:0:0:
188,84,127232,2,0,P|140:84|88:92,1,86,12|0,0:0|0:0,0:0:0:0:
304,280,127585,2,0,P|352:280|394:272,1,86,0|0,1:0|0:0,0:0:0:0:
364,128,127938,1,2,1:2:0:0:
160,264,128115,1,0,1:0:0:0:
268,104,128291,1,8,0:0:0:0:
268,212,128468,1,0,0:0:0:0:
176,224,128644,6,0,P|176:132|180:32,1,172,0|4,1:0|0:0,0:0:0:0:
96,112,129173,1,8,0:0:0:0:
96,112,129262,1,8,0:0:0:0:
96,112,129350,2,0,P|48:112|28:116,1,57.3333333333333,8|0,0:0|0:0,0:0:0:0:
256,136,129585,2,0,P|260:96|260:72,1,57.3333333333333,8|8,0:0|0:0,0:0:0:0:
148,200,129821,2,0,P|148:248|152:276,1,57.3333333333333,8|4,0:0|3:0,0:0:0:0:
264,300,130056,6,0,P|356:284|384:220,1,137.6,4|0,1:2|0:0,0:0:0:0:
316,180,130585,1,0,1:0:0:0:
324,96,130762,2,0,P|370:102|412:112,1,68.8,8|0,0:0|0:0,0:0:0:0:
377,252,131115,2,0,P|335:262|288:268,1,68.8,0|0,0:0|1:0,0:0:0:0:
232,208,131468,1,0,1:0:0:0:
32,240,131644,2,0,P|88:278|164:266,1,137.6,8|0,0:0|1:0,0:0:0:0:
300,136,132173,2,0,P|348:132|388:132,1,68.8,8|0,0:0|0:0,0:0:0:0:
232,208,132526,1,0,0:0:0:0:
184,60,132703,5,8,0:0:0:0:
184,60,132791,1,8,0:0:0:0:
184,60,132879,2,0,P|252:44|328:56,1,137.6,8|0,0:0|0:0,0:0:0:0:
320,264,133409,1,0,1:0:0:0:
320,264,133585,2,0,P|248:288|168:272,1,137.6,8|0,0:0|0:0,0:0:0:0:
80,72,134115,1,8,0:0:0:0:
80,72,134203,1,8,0:0:0:0:
80,72,134291,2,0,L|176:76,1,86,12|0,0:0|0:0,0:0:0:0:
52,220,134644,2,0,L|144:216,1,86,12|8,0:0|0:0,0:0:0:0:
132,356,134997,5,0,1:0:0:0:
156,352,135085,1,0,1:0:0:0:
180,348,135173,1,0,1:0:0:0:
204,344,135262,1,0,1:0:0:0:
228,340,135350,1,8,0:0:0:0:
252,336,135438,1,8,0:0:0:0:
276,332,135526,1,8,0:0:0:0:
300,328,135615,1,8,0:0:0:0:
324,324,135703,1,0,1:0:0:0:
304,56,136056,5,2,3:0:0:0:
472,304,136409,1,2,0:0:0:0:
356,256,136585,1,0,0:0:0:0:
240,216,136762,1,2,3:0:0:0:
472,304,137115,6,0,P|428:292|388:284,1,86
276,232,137468,1,0,0:0:0:0:
168,188,137644,1,8,0:0:0:0:
168,188,137732,1,8,0:0:0:0:
168,188,137821,1,8,0:0:0:0:
472,304,137997,5,8,0:0:0:0:
320,336,138173,1,8,0:0:0:0:
320,336,138262,1,8,0:0:0:0:
320,336,138350,1,8,0:0:0:0:
216,344,138526,6,0,B|171:350|126:349,1,86,12|8,1:2|0:0,0:0:0:0:
224,256,138879,2,0,B|179:262|132:264,1,86,8|8,0:2|0:0,0:0:0:0:
208,172,139232,2,0,B|253:178|298:177,1,86,8|8,0:2|0:0,0:0:0:0:
200,84,139585,2,0,B|245:90|292:92,1,86,8|8,0:2|0:0,0:0:0:0:
60,56,139938,5,8,0:0:0:0:
60,56,140115,1,8,0:0:0:0:
80,180,140291,1,8,0:0:0:0:
80,180,140468,1,8,0:0:0:0:
124,344,140644,5,0,1:0:0:0:
104,316,140732,1,0,1:0:0:0:
104,280,140821,1,0,1:0:0:0:
120,248,140909,1,0,1:0:0:0:
144,224,140997,1,8,0:0:0:0:
156,192,141085,1,8,0:0:0:0:
152,156,141173,1,8,0:0:0:0:
144,124,141262,1,8,0:0:0:0:
120,100,141350,1,2,1:2:0:0:
120,100,142585,5,4,3:0:0:0:
165,212,142762,1,2,1:0:0:0:
165,212,143468,5,12,3:0:0:0:
163,224,143556,1,0,0:0:0:0:
161,236,143644,1,8,0:0:0:0:
161,248,143732,1,8,0:0:0:0:
161,260,143821,1,0,1:0:0:0:
163,272,143909,1,0,1:0:0:0:
167,284,143997,1,8,0:0:0:0:
172,295,144085,1,8,0:0:0:0:
181,303,144173,2,0,P|260:323|343:270,1,172,4|8,1:2|0:0,0:0:0:0:
368,152,144703,5,2,3:0:0:0:
368,152,144791,1,2,3:0:0:0:
368,152,144879,2,0,P|422:160|464:165,2,86,0|0|0,1:0|1:0|0:0,0:0:0:0:
244,224,145409,2,0,P|164:212|131:128,1,172,4|0,1:2|1:0,0:0:0:0:
204,36,145938,2,0,P|253:37|303:35,1,86,8|0,0:0|0:0,0:0:0:0:
215,134,146291,2,0,P|166:133|114:136,1,86,0|0,1:0|1:0,0:0:0:0:
84,356,146644,5,8,0:0:0:0:
144,256,146821,1,0,0:0:0:0:
220,344,146997,2,0,P|296:328|340:248,1,172,4|8,1:2|0:0,0:0:0:0:
224,144,147526,1,2,3:0:0:0:
224,144,147615,1,2,3:0:0:0:
224,144,147703,1,0,1:0:0:0:
216,44,147879,5,0,1:0:0:0:
232,244,148056,1,8,0:0:0:0:
324,132,148232,2,0,P|374:127|424:120,2,86,4|0|0,1:2|0:0|1:0,0:0:0:0:
216,44,148762,6,0,P|161:51|120:56,1,86,8|2,0:0|3:0,0:0:0:0:
104,64,149026,1,2,3:0:0:0:
105,64,149115,2,0,L|92:168,1,86,0|0,1:0|1:0,0:0:0:0:
317,217,149468,2,0,L|325:119,1,86,8|0,0:0|0:0,0:0:0:0:
332,40,149821,5,4,1:2:0:0:
408,164,149997,1,0,0:0:0:0:
332,40,150173,1,8,0:0:0:0:
240,144,150350,1,2,3:0:0:0:
240,144,150438,1,2,3:0:0:0:
240,144,150526,2,0,L|224:264,1,86,0|0,1:0|1:0,0:0:0:0:
308,324,150879,1,8,0:0:0:0:
144,368,151056,6,0,P|88:320|112:216,1,172,0|0,1:2|1:0,0:0:0:0:
240,144,151585,2,0,P|292:147|356:144,1,86,8|0,0:0|0:0,0:0:0:0:
260,284,151938,2,0,P|208:281|144:284,1,86,0|0,1:0|1:0,0:0:0:0:
174,281,152203,1,2,3:0:0:0:
174,281,152291,1,8,0:0:0:0:
240,144,152468,5,4,3:0:0:0:
336,340,152644,2,0,P|392:316|420:212,1,172,0|8,1:0|0:0,0:0:0:0:
316,120,153173,1,2,3:0:0:0:
316,120,153262,1,2,3:0:0:0:
316,120,153350,1,0,1:0:0:0:
284,240,153526,1,0,1:0:0:0:
400,208,153703,1,8,0:0:0:0:
316,120,153879,6,0,L|264:120|216:120,1,86,0|0,1:0|0:0,0:0:0:0:
208,324,154232,2,0,L|260:324|312:324,2,86,0|8|0,1:0|0:0|1:0,0:0:0:0:
92,320,154762,5,8,0:0:0:0:
216,228,154938,1,8,0:0:0:0:
216,228,155026,1,8,0:0:0:0:
84,176,155203,1,8,0:0:0:0:
84,176,155291,1,8,0:0:0:0:
84,176,155379,1,8,0:0:0:0:
84,176,155468,2,0,P|90:122|92:64,1,86,12|0,0:0|0:0,0:0:0:0:
4,240,155821,5,8,0:0:0:0:
184,144,155997,2,0,P|180:204|180:252,1,86,0|0,0:0|1:0,0:0:0:0:
268,316,156350,1,0,1:0:0:0:
336,248,156526,1,8,0:0:0:0:
432,260,156703,2,0,P|472:184|432:96,1,172,0|0,1:0|1:0,0:0:0:0:
324,144,157232,6,0,P|268:132|224:120,1,86,8|2,0:0|3:0,0:0:0:0:
240,124,157497,1,2,3:0:0:0:
240,124,157585,1,0,1:0:0:0:
260,220,157762,1,0,1:0:0:0:
304,56,157938,2,0,L|354:67|396:76,1,86,8|0,0:0|0:0,0:0:0:0:
260,220,158291,2,0,P|180:200|152:192,1,86,0|0,1:0|0:0,0:0:0:0:
68,232,158644,5,8,0:0:0:0:
12,152,158821,2,0,P|9:98|12:56,1,86,0|0,1:0|1:0,0:0:0:0:
152,112,159173,1,0,1:0:0:0:
68,232,159350,1,8,0:0:0:0:
200,288,159526,2,0,P|284:300|360:248,1,172,4|0,1:2|1:0,0:0:0:0:
464,280,160056,2,0,P|456:204|452:168,1,86,8|0,0:0|0:0,0:0:0:0:
312,48,160409,6,0,P|244:40|176:88,2,129,0|0|12,1:0|1:0|3:0,0:0:0:0:
372,144,161115,5,4,1:2:0:0:
284,188,161291,1,0,0:0:0:0:
400,308,161468,5,10,0:0:0:0:
440,220,161644,1,0,0:0:0:0:
284,188,161821,5,2,1:2:0:0:
296,288,161997,1,0,1:0:0:0:
284,188,162173,5,10,0:0:0:0:
176,220,162350,1,0,1:0:0:0:
76,164,162526,6,0,L|92:52,1,86,2|0,0:0|1:0,0:0:0:0:
284,188,162879,2,0,L|268:304,1,86,10|2,0:0|3:0,0:0:0:0:
264,312,163144,1,2,3:0:0:0:
264,312,163232,2,0,L|156:336,1,86,2|0,1:2|0:0,1:0:0:0:
76,164,163585,2,0,L|176:144,1,86,10|0,0:0|0:0,0:0:0:0:
356,224,163938,6,0,P|436:196|456:104,1,172,2|8,1:2|0:0,0:0:0:0:
328,44,164468,1,2,3:0:0:0:
328,44,164556,1,2,3:0:0:0:
328,44,164644,2,0,P|316:108|308:148,1,86,0|0,1:2|0:0,0:0:0:0:
264,320,164997,5,8,0:0:0:0:
96,344,165173,2,0,P|36:324|20:204,1,172,4|0,1:2|1:0,0:0:0:0:
132,68,165703,2,0,P|185:83|240:96,1,86,8|0,0:0|0:0,0:0:0:0:
336,124,166056,5,8,0:0:0:0:
176,192,166232,1,8,0:0:0:0:
176,192,166321,1,8,0:0:0:0:
356,232,166497,1,8,0:0:0:0:
356,232,166585,1,8,0:0:0:0:
356,232,166673,1,8,0:0:0:0:
356,232,166762,2,0,P|452:224|488:144,1,172,12|8,0:0|0:0,0:0:0:0:
268,64,167291,5,2,3:0:0:0:
268,64,167379,1,2,3:0:0:0:
268,64,167468,2,0,P|261:130|256:176,2,86,0|0|8,1:0|1:0|0:0,0:0:0:0:
112,108,167997,2,0,P|86:213|120:292,1,172,4|0,1:2|1:0,0:0:0:0:
220,336,168526,2,0,P|280:324|332:320,1,86,8|0,0:0|0:0,0:0:0:0:
464,200,168879,2,0,P|394:209|328:176,1,129,0|0,1:0|0:0,0:0:0:0:
332,176,169232,2,0,P|284:164|232:160,1,86,8|0,0:0|0:0,0:0:0:0:
48,204,169585,6,0,P|44:260|48:304,1,86,4|0,1:2|0:0,0:0:0:0:
280,360,169938,2,0,P|284:304|280:256,1,86,8|0,0:0|1:0,0:0:0:0:
156,288,170291,1,0,1:0:0:0:
144,88,170468,1,8,0:0:0:0:
144,88,170556,1,8,0:0:0:0:
144,88,170644,1,8,0:0:0:0:
304,172,170821,6,0,B|416:160|488:156,1,172,4|0,1:2|1:0,0:0:0:0:
392,72,171350,1,8,0:0:0:0:
356,276,171526,1,0,1:0:0:0:
188,128,171703,1,8,0:0:0:0:
168,232,171879,5,8,0:0:0:0:
204,248,171968,1,8,0:0:0:0:
244,244,172056,1,0,1:0:0:0:
280,224,172144,1,0,1:0:0:0:
300,188,172232,1,0,1:0:0:0:
304,148,172321,1,0,1:0:0:0:
292,108,172409,1,4,1:2:0:0:
392,148,172585,1,0,0:0:0:0:
376,48,172762,1,8,0:0:0:0:
204,108,172938,5,2,3:0:0:0:
204,108,173026,1,2,3:0:0:0:
204,108,173115,2,0,P|197:169|196:208,1,86,0|0,1:0|1:0,0:0:0:0:
440,308,173468,1,8,0:0:0:0:
440,308,173644,2,0,P|453:214|448:116,1,172,0|0,1:0|1:0,0:0:0:0:
344,256,174173,6,0,P|288:264|248:268,1,86,8|0,0:0|0:0,0:0:0:0:
336,104,174526,2,0,B|364:148|396:188,1,86,0|0,1:0|0:0,0:0:0:0:
192,184,174879,2,0,P|216:140|236:92,1,86,8|2,0:0|3:0,0:0:0:0:
225,87,175144,1,2,3:0:0:0:
225,87,175232,2,0,P|182:104|120:100,1,86,4|0,1:2|0:0,0:0:0:0:
264,284,175585,2,0,P|320:280|368:248,1,86,8|0,0:0|0:0,0:0:0:0:
316,128,175938,5,0,1:0:0:0:
316,128,176026,1,2,3:0:0:0:
316,128,176115,1,0,1:0:0:0:
192,232,176291,1,8,0:0:0:0:
72,40,176468,2,0,P|168:40|252:36,1,172,4|0,1:2|1:0,0:0:0:0:
384,232,176997,5,8,0:0:0:0:
264,168,177173,1,0,1:0:0:0:
272,296,177350,1,8,0:0:0:0:
452,344,177526,1,8,0:0:0:0:
452,344,177615,1,8,0:0:0:0:
500,164,177791,1,8,0:0:0:0:
500,164,177879,1,8,0:0:0:0:
500,164,177968,1,8,0:0:0:0:
500,164,178056,2,0,P|448:168|396:172,1,86,12|0,0:0|0:0,0:0:0:0:
193,132,178409,5,0,1:0:0:0:
308,184,178585,1,0,1:0:0:0:
196,252,178762,1,0,1:0:0:0:
88,128,178938,1,0,1:0:0:0:
193,132,179115,1,8,1:0:0:0:
140,328,179291,1,2,1:0:0:0:
44,340,179468,2,0,P|41:304|44:244,1,86,0|0,1:0|1:0,0:0:0:0:
124,248,179821,5,8,1:0:0:0:
204,240,179997,1,4,3:0:0:0:
284,232,180173,2,0,P|280:304|280:368,1,129,0|0,1:0|0:0,0:0:0:0:
264,368,180526,1,0,1:0:0:0:
184,332,180703,1,0,1:0:0:0:
360,132,180879,6,0,P|392:212|348:296,1,172,4|0,1:2|1:0,0:0:0:0:
476,256,181409,2,0,P|480:208|488:152,1,86,0|0,0:0|1:0,0:0:0:0:
272,152,181762,2,0,P|268:200|260:268,1,86,0|0,0:0|1:0,0:0:0:0:
80,312,182115,2,0,P|34:294|12:180,1,172,4|0,0:0|0:0,0:0:0:0:
88,108,182644,5,0,1:0:0:0:
192,228,182821,1,0,1:0:0:0:
88,216,182997,1,0,1:0:0:0:
176,36,183173,1,0,1:0:0:0:
304,124,183350,1,8,0:0:0:0:
180,144,183526,1,8,0:0:0:0:
208,320,183703,6,0,L|308:336,1,86,4|0,1:2|0:0,0:0:0:0:
448,208,184056,1,0,1:0:0:0:
448,208,184232,2,0,L|340:228,1,86,8|0,1:0|0:0,0:0:0:0:
108,120,184585,1,0,1:0:0:0:
108,120,184762,2,0,L|208:140,1,86,8|0,1:0|0:0,0:0:0:0:
380,44,185115,5,8,1:0:0:0:
312,144,185291,1,8,3:0:0:0:
432,152,185468,1,4,3:0:0:0:
400,304,185644,1,8,1:0:0:0:
328,248,185821,2,0,P|248:248|196:280,2,129,0|0|0,1:0|1:0|1:0,0:0:0:0:
312,144,186526,6,0,L|284:48,1,86,4|0,1:2|1:0,0:0:0:0:
88,248,186879,2,0,L|120:348,1,86,0|0,1:0|1:0,0:0:0:0:
328,248,187232,5,8,1:0:0:0:
128,164,187409,1,8,1:0:0:0:
287,61,187585,1,8,1:0:0:0:
188,336,187762,1,8,1:0:0:0:
156,168,199056,5,2,3:0:0:0:
156,168,199144,1,2,3:0:0:0:
156,168,199232,2,0,P|104:180|64:188,1,86,2|0,3:0|0:0,0:0:0:0:
160,300,199585,2,0,P|205:288|260:276,1,94.600002886963,8|4,3:0|3:0,0:0:0:0:
292,60,199938,2,0,P|242:73|181:87,1,103.199996850586,2|8,3:0|3:0,0:0:0:0:
16,124,200291,5,12,3:0:0:0:
104,44,200468,1,0,0:0:0:0:
124,164,200644,2,0,B|128:213|132:256,1,86,4|0,0:0|0:0,0:0:0:0:
216,200,200997,2,0,B|212:163|208:114,1,86,0|0,0:0|1:0,0:0:0:0:
308,232,201350,2,0,P|380:216|412:128,1,172,8|0,0:0|0:0,0:0:0:0:
344,40,201879,1,0,1:0:0:0:
344,40,202056,6,0,P|288:44|244:44,1,86,4|8,0:0|0:0,0:0:0:0:
160,156,202409,2,0,P|216:152|260:152,1,86,0|0,0:0|1:0,0:0:0:0:
184,312,202762,2,0,P|124:312|72:220,1,172,8|0,0:0|0:0,0:0:0:0:
96,64,203291,1,0,1:0:0:0:
220,124,203468,5,4,1:2:0:0:
168,288,203821,1,0,0:0:0:0:
332,340,204173,1,4,0:0:0:0:
384,176,204526,1,12,3:0:0:0:
168,288,204879,2,0,P|84:288|32:216,1,172,4|0,1:2|1:2,0:0:0:0:
132,184,205409,5,8,1:2:0:0:
184,112,205585,1,8,1:2:0:0:
204,28,205762,1,8,1:2:0:0:
264,176,205938,2,0,P|276:218|289:266,1,86,8|8,1:2|0:0,0:0:0:0:
292,288,206203,1,2,3:0:0:0:
292,288,206291,6,0,L|380:304,1,86,4|0,1:2|0:0,0:0:0:0:
192,280,206644,2,0,P|148:300|116:324,1,86,8|0,0:0|0:0,0:0:0:0:
100,344,206909,1,8,0:0:0:0:
100,344,206997,2,0,L|12:328,1,86,0|0,1:0|1:0,0:0:0:0:
128,184,207350,6,0,L|220:200,1,86,8|0,0:0|0:0,0:0:0:0:
308,264,207703,2,0,L|324:360,1,86,0|0,1:0|1:0,0:0:0:0:
420,304,208056,2,0,L|406:220,1,86,8|0,0:0|0:0,0:0:0:0:
400,192,208321,1,8,0:0:0:0:
400,192,208409,1,0,1:0:0:0:
300,148,208585,1,0,1:0:0:0:
212,296,208762,5,8,1:2:0:0:
236,288,208850,1,0,1:0:0:0:
260,280,208938,1,0,1:0:0:0:
284,272,209026,1,0,1:0:0:0:
308,264,209115,1,0,1:0:0:0:
420,304,209291,1,0,0:0:0:0:
400,192,209468,6,0,L|316:156,1,86,8|0,0:0|0:0,0:0:0:0:
300,148,209732,1,8,0:0:0:0:
300,148,209821,2,0,P|291:101|284:56,1,86,0|0,1:0|0:0,0:0:0:0:
226,211,210173,2,0,P|217:258|210:303,1,86,8|0,0:0|0:0,0:0:0:0:
112,344,210526,6,0,L|20:356,1,86,0|0,1:0|0:0,0:0:0:0:
140,221,210879,2,0,L|226:210,1,86,8|0,0:0|0:0,0:0:0:0:
320,284,211232,6,0,L|360:252,1,43,0|0,1:0|0:0,0:0:0:0:
452,220,211409,2,0,L|456:168,1,43,0|0,1:0|0:0,0:0:0:0:
460,72,211585,1,8,0:0:0:0:
460,72,211673,1,8,0:0:0:0:
460,72,211762,1,8,0:0:0:0:
460,72,211850,1,8,0:0:0:0:
460,72,211938,5,12,0:0:0:0:
372,132,212115,1,8,0:0:0:0:
368,156,212203,1,0,1:0:0:0:
364,180,212291,1,0,1:0:0:0:
272,224,212468,5,0,1:0:0:0:
204,148,212644,1,0,1:0:0:0:
200,124,212732,1,8,0:0:0:0:
196,100,212821,1,8,0:0:0:0:
120,36,212997,5,8,0:0:0:0:
52,108,213173,1,0,1:0:0:0:
52,108,213262,1,0,1:0:0:0:
52,108,213350,1,4,1:2:0:0:
256,192,213438,12,2,214762,0:0:0:0:
272,112,230115,5,0,1:0:0:0:
272,112,230203,1,0,1:0:0:0:
272,112,230291,1,0,1:0:0:0:
252,212,230468,1,8,3:0:0:0:
168,144,230644,1,4,3:0:0:0:
312,288,230821,5,2,3:0:0:0:
336,176,230997,1,4,3:0:0:0:
408,264,231173,1,4,3:0:0:0:
160,280,231350,5,8,0:0:0:0:
224,356,231526,1,4,3:0:0:0:
252,212,231703,1,4,1:2:0:0:
252,212,232056,2,0,L|163:189,1,86,0|0,1:0|1:0,0:0:0:0:
356,140,232409,2,0,P|403:151|460:166,1,86,0|0,1:0|1:0,0:0:0:0:
260,60,232762,2,0,P|201:44|165:35,1,86,0|0,1:0|1:0,0:0:0:0:
360,288,233115,6,0,P|416:300|460:312,1,86,0|0,1:0|1:0,0:0:0:0:
184,368,233468,2,0,P|144:356|120:308,1,86,0|0,1:0|1:0,0:0:0:0:
32,128,233821,1,0,1:0:0:0:
148,176,233997,1,0,1:0:0:0:
60,216,234173,5,0,1:0:0:0:
240,192,234350,1,0,1:0:0:0:
396,168,234526,1,4,0:0:0:0:
316,56,234703,5,0,1:0:0:0:
312,92,234791,1,0,1:0:0:0:
312,128,234879,1,8,0:0:0:0:
376,316,235056,5,0,1:0:0:0:
344,284,235144,1,0,1:0:0:0:
308,264,235232,1,8,0:0:0:0:
120,264,235409,5,0,1:0:0:0:
168,288,235497,1,0,1:0:0:0:
220,296,235585,1,8,0:0:0:0:
196,80,235762,5,2,0:0:0:0:
196,80,235850,1,2,0:0:0:0:
196,80,235938,1,4,1:2:0:0:
160,164,236115,1,8,0:0:0:0:
196,80,236291,5,8,0:0:0:0:
260,192,236468,1,8,0:0:0:0:
196,80,236644,5,8,0:0:0:0:
192,256,236821,1,8,0:0:0:0:
196,80,236997,5,8,0:0:0:0:
272,308,237173,1,12,0:2:0:0:
272,308,237526,5,2,1:2:0:0:
272,308,237615,1,2,1:2:0:0:
272,308,237703,1,4,1:2:0:0:
196,80,237879,1,0,0:0:0:0:
108,192,238056,5,8,0:0:0:0:
152,192,238144,1,8,0:0:0:0:
196,192,238232,1,8,0:0:0:0:
240,192,238321,1,8,0:0:0:0:
284,192,238409,1,8,0:0:0:0:
328,192,238497,1,8,0:0:0:0:
380,192,238585,2,0,P|432:120|384:28,1,172,4|0,1:2|0:0,0:0:0:0:
340,108,239115,2,0,P|279:109|236:112,1,86,8|0,0:0|0:0,0:0:0:0:
44,128,239468,5,0,1:0:0:0:
160,208,239644,1,0,1:0:0:0:
172,64,239821,1,8,0:0:0:0:
24,164,239997,1,2,3:0:0:0:
24,164,240085,1,2,3:0:0:0:
24,164,240173,2,0,L|40:312,1,129,0|0,1:2|0:0,0:0:0:0:
48,336,240526,1,8,0:0:0:0:
248,240,240703,1,0,1:0:0:0:
200,336,240879,5,0,1:0:0:0:
112,208,241056,1,8,0:0:0:0:
140,168,241144,1,8,0:0:0:0:
184,152,241232,1,8,0:0:0:0:
296,320,241409,2,0,P|392:312|440:232,1,172,4|0,1:2|1:0,0:0:0:0:
364,96,241938,2,0,P|355:181|356:208,1,86,8|0,0:0|1:0,0:0:0:0:
144,144,242291,5,8,0:0:0:0:
248,40,242468,1,0,1:0:0:0:
256,60,242556,1,0,1:0:0:0:
264,80,242644,1,8,0:0:0:0:
252,100,242732,1,0,0:0:0:0:
256,120,242821,1,8,3:0:0:0:
260,140,242909,1,4,3:0:0:0:
252,160,242997,2,0,B|244:220|244:264,1,86,4|0,1:2|0:0,0:0:0:0:
276,364,243350,1,8,0:0:0:0:
372,276,243526,5,0,0:0:0:0:
372,276,243615,1,0,0:0:0:0:
372,276,243703,1,0,1:0:0:0:
176,192,243879,1,0,1:0:0:0:
192,296,244056,1,8,0:0:0:0:
360,168,244232,2,0,P|340:76|256:48,1,172,0|0,1:0|1:0,0:0:0:0:
96,120,244762,6,0,P|92:180|96:216,1,86,8|0,0:0|0:0,0:0:0:0:
288,240,245115,1,0,1:0:0:0:
216,320,245291,1,0,1:0:0:0:
228,136,245468,1,8,0:0:0:0:
140,88,245644,5,0,1:0:0:0:
140,88,245732,1,0,1:0:0:0:
140,88,245821,2,0,P|136:184|140:260,2,172,0|12|0,1:0|0:2|1:0,0:0:0:0:
160,80,246615,1,0,0:0:0:0:
180,72,246703,1,0,1:0:0:0:
48,172,246879,1,8,0:0:0:0:
220,252,247056,2,0,P|312:240|352:164,1,172,4|0,1:2|1:0,0:0:0:0:
259,56,247585,2,0,P|244:102|247:160,1,86,8|0,0:0|1:0,0:0:0:0:
384,340,247938,6,0,P|320:333|276:332,1,86,12|0,0:0|0:0,0:0:0:0:
188,340,248291,1,8,0:0:0:0:
148,308,248379,1,8,0:0:0:0:
132,260,248468,1,8,0:0:0:0:
136,208,248556,1,8,0:0:0:0:
160,160,248644,2,0,P|214:148|256:136,1,86,12|0,0:0|0:0,0:0:0:0:
412,96,248997,5,0,1:0:0:0:
328,52,249173,1,0,1:0:0:0:
308,208,249350,5,0,1:0:0:0:
400,192,249526,1,0,1:0:0:0:
264,124,249703,5,0,1:0:0:0:
224,280,249879,1,4,1:2:0:0:
104,208,250056,6,0,L|112:154|120:104,1,86,0|0,1:0|0:0,0:0:0:0:
192,32,250409,5,0,1:0:0:0:
192,32,250585,1,0,1:0:0:0:
288,192,250762,5,8,1:0:0:0:
200,124,250938,1,8,3:0:0:0:
160,232,251115,2,0,P|164:289|168:336,1,86,0|0,1:0|0:0,0:0:0:0:
288,192,251468,2,0,P|283:120|280:68,1,86,4|0,1:2|0:0,0:0:0:0:
200,124,251821,5,0,1:0:0:0:
368,56,251997,2,0,P|416:84|456:104,1,86,0|0,1:0|1:0,0:0:0:0:
432,296,252350,1,0,1:0:0:0:
364,192,252526,1,0,1:0:0:0:
284,328,252703,6,0,P|184:328|136:252,1,172,4|0,1:2|0:0,0:0:0:0:
80,160,253232,5,0,1:0:0:0:
224,48,253409,1,0,1:0:0:0:
240,224,253585,1,0,1:0:0:0:
166,122,253762,1,0,1:0:0:0:
131,271,253938,5,8,1:0:0:0:
129,281,254026,1,8,1:0:0:0:
127,291,254115,1,8,1:0:0:0:
125,301,254203,1,8,1:0:0:0:
123,311,254291,5,12,1:2:0:0:
8,248,254468,1,0,1:0:0:0:
172,200,254644,1,0,1:0:0:0:
56,88,254821,5,4,1:2:0:0:
84,200,254997,1,0,1:0:0:0:
200,88,255173,1,0,1:0:0:0:
248,240,255350,6,0,P|324:232|364:168,1,129,4|0,1:2|0:0,0:0:0:0:
356,194,255703,1,0,1:0:0:0:
344,311,255879,1,8,0:0:0:0:
480,335,256056,1,0,0:0:0:0:
500,199,256232,1,0,1:0:0:0:
396,252,256409,5,0,1:0:0:0:
356,268,256497,1,0,1:0:0:0:
316,268,256585,1,0,1:0:0:0:
276,252,256673,1,0,1:0:0:0:
240,228,256762,1,0,1:0:0:0:
200,220,256850,1,0,1:0:0:0:
160,228,256938,1,0,1:0:0:0:
124,248,257026,1,0,1:0:0:0:
104,276,257115,6,0,P|98:331|92:376,1,86,4|0,1:2|0:0,0:0:0:0:
8,224,257468,1,0,1:0:0:0:
84,168,257644,2,0,L|90:114|96:64,1,86,8|0,0:0|0:0,0:0:0:0:
212,164,257997,1,0,1:0:0:0:
308,284,258173,6,0,P|388:280|432:216,1,129,4|0,1:2|0:0,0:0:0:0:
428,220,258526,1,0,1:0:0:0:
328,48,258703,2,0,P|274:65|228:76,1,86,10|0,0:0|0:0,0:0:0:0:
120,96,259056,1,0,1:0:0:0:
233,189,259232,1,0,1:0:0:0:
248,216,259321,1,0,1:0:0:0:
252,248,259409,1,0,1:0:0:0:
248,280,259497,1,0,1:0:0:0:
236,308,259585,6,0,L|184:332,1,43,8|0,1:0|0:0,0:0:0:0:
120,268,259762,2,0,L|172:248,1,43,8|0,1:0|0:0,0:0:0:0:
68,336,259938,6,0,P|20:272|64:176,1,172,4|0,1:2|0:0,0:0:0:0:
180,92,260468,2,0,P|248:76|288:64,1,86,4|0,1:2|0:0,0:0:0:0:
380,200,260821,1,0,1:0:0:0:
256,224,260997,5,12,1:2:0:0:
376,120,261173,1,0,1:0:0:0:
420,276,261350,1,0,1:0:0:0:
184,288,261526,5,12,1:2:0:0:
304,184,261703,1,0,1:0:0:0:
348,340,261879,1,0,1:0:0:0:
212,200,262056,5,0,1:0:0:0:
211,196,262144,1,0,0:0:0:0:
210,191,262232,1,8,0:0:0:0:
209,186,262321,1,8,0:0:0:0:
208,181,262409,1,8,0:0:0:0:
207,176,262497,1,8,0:0:0:0:
206,171,262585,1,8,0:0:0:0:
205,166,262673,1,8,0:0:0:0:
204,161,262762,1,8,0:0:0:0:
204,161,264173,5,2,0:0:0:0:
204,161,264526,2,0,L|300:160,1,86,2|4,0:0|3:3,0:0:0:0:
344,344,265056,5,2,0:0:0:0:
256,300,265232,1,2,0:0:0:0:
164,344,265409,1,2,0:0:0:0:
164,344,265497,1,2,0:0:0:0:
164,344,265585,2,0,P|112:272|136:200,1,172,6|0,1:2|0:0,0:0:0:0:
252,88,266115,5,8,0:0:0:0:
256,300,266468,1,8,3:0:0:0:
328,256,266644,2,0,L|336:160,1,86,4|0,3:0|0:0,0:0:0:0:
344,80,266997,5,4,1:2:0:0:
204,192,267350,1,2,0:0:0:0:
320,332,267703,1,4,1:2:0:0:
460,220,268056,1,2,0:0:0:0:
320,332,268409,6,0,P|232:336|176:268,1,172,4|0,1:2|0:0,0:0:0:0:
88,120,268938,1,2,3:0:0:0:
88,120,269026,1,2,3:0:0:0:
88,120,269115,2,0,P|164:72|248:96,1,172,4|0,3:2|0:0,0:0:0:0:
278,242,269644,5,0,1:0:0:0:
278,242,269732,1,0,1:0:0:0:
278,242,269821,2,0,P|280:295|278:346,1,86,4|0,1:2|0:0,0:0:0:0:
376,268,270173,2,0,P|374:216|376:164,1,86,8|0,1:0|0:0,0:0:0:0:
376,152,270438,5,0,1:0:0:0:
376,152,270526,2,0,L|420:136,3,43,0|0|0|0,1:0|0:0|1:0|1:0,0:0:0:0:
315,87,270879,6,0,L|267:59,1,43,0|0,1:0|0:0,0:0:0:0:
231,191,271056,2,0,L|283:167,1,43,0|0,1:0|0:0,0:0:0:0:
188,100,271232,6,0,P|124:68|56:92,1,141.900004330444,4|0,1:2|0:0,0:0:0:0:
40,112,271585,2,0,P|32:155|23:196,1,86,8|0,0:0|0:0,0:0:0:0:
16,228,271850,1,8,0:0:0:0:
16,228,271938,2,0,P|35:275|48:308,1,86,0|0,1:0|1:0,0:0:0:0:
292,344,272291,6,0,P|253:324|209:320,1,86,8|0,0:0|0:0,0:0:0:0:
176,328,272556,1,0,0:0:0:0:
176,328,272644,2,0,P|183:283|192:236,1,86,0|0,1:0|1:0,0:0:0:0:
104,72,272997,6,0,P|164:48|228:60,1,129,8|8,0:0|0:0,0:0:0:0:
276,120,273350,2,0,L|288:184,2,57.3333333333333,0|8|8,1:0|0:0|0:0,0:0:0:0:
168,200,273703,2,0,L|156:264,2,57.3333333333333,8|4|4,3:0|3:0|3:0,0:0:0:0:
296,260,274056,5,4,1:2:0:0:
296,260,274232,1,0,0:0:0:0:
276,120,274409,1,0,1:0:0:0:
168,200,274585,1,8,0:0:0:0:
200,292,274762,5,8,0:0:0:0:
176,104,274938,1,8,0:0:0:0:
360,72,275115,1,8,0:0:0:0:
388,260,275291,1,8,0:0:0:0:
264,224,275468,5,0,1:0:0:0:
420,172,275644,1,8,0:0:0:0:
384,340,275821,1,8,0:0:0:0:
200,148,275997,5,8,0:0:0:0:
356,96,276173,1,8,0:0:0:0:
320,264,276350,1,8,0:0:0:0:
260,72,276526,5,8,0:0:0:0:
388,192,276703,1,8,0:0:0:0:
228,240,277585,5,4,0:0:0:0:
256,192,277673,12,0,281291,0:0:0:0:
