osu file format v14

[General]
AudioFilename: audio.mp3
AudioLeadIn: 0
PreviewTime: 94675
Countdown: 0
SampleSet: Drum
StackLeniency: 0.7
Mode: 2
LetterboxInBreaks: 0
WidescreenStoryboard: 1

[Editor]
Bookmarks: 14675,36008,57342,76008,94675
DistanceSpacing: 1.8
BeatDivisor: 4
GridSize: 16
TimelineZoom: 1.6

[Metadata]
Title:Eeliaas
TitleUnicode:Eeliaas
Artist:Mitsuki
ArtistUnicode:ミツキ
Creator:Deif
Version:Sinnoh's Overdose
Source:Muse Dash
Tags:Sinnoh RINYA Elias Mitsuboshi Records ミツボシレコーズ 3rd EP Defeated Memorial Video Game Electronic Instrumental
BeatmapID:3528112
BeatmapSetID:1724385

[Difficulty]
HPDrainRate:6
CircleSize:4
OverallDifficulty:9.4
ApproachRate:9.4
SliderMultiplier:2.2
SliderTickRate:4

[Events]
//Background and Video events
0,0,"BG.jpg",0,0
//Break Periods
2,76206,86134
//Storyboard Layer 0 (Background)
//Storyboard Layer 1 (Fail)
//Storyboard Layer 2 (Pass)
//Storyboard Layer 3 (Foreground)
//Storyboard Layer 4 (Overlay)
//Storyboard Sound Samples

[TimingPoints]
1342,333.333333333333,4,2,0,50,1,0
6675,-100,4,2,1,60,0,0
12008,-100,4,3,0,50,0,0
12175,-100,4,2,0,50,0,0
13341,-100,4,3,0,50,0,0
13508,-100,4,2,0,50,0,0
14008,-100,4,3,0,50,0,0
14675,-100,4,3,1,50,0,1
14924,-25,4,3,1,50,0,1
15008,-25,4,3,11,50,0,1
15091,-100,4,3,1,50,0,1
15175,-100,4,3,10,50,0,1
15258,-100,4,3,1,50,0,1
15341,-100,4,3,1,50,0,1
15508,-25,4,3,1,50,0,1
15675,-25,4,3,11,50,0,1
15758,-100,4,3,1,50,0,1
16008,-100,4,3,1,50,0,1
16369,-100,4,1,0,30,0,1
16453,-100,4,3,1,50,0,1
16480,-100,4,1,0,30,0,1
16564,-100,4,3,1,50,0,1
16591,-100,4,1,0,30,0,1
16675,-25,4,3,1,50,0,1
17341,-100,4,3,1,50,0,1
18175,-43.1034482758621,4,3,1,50,0,1
18508,-100,4,3,1,50,0,1
18675,-25,4,3,1,50,0,1
19341,-43.1034482758621,4,3,1,50,0,1
19508,-100,4,3,1,50,0,1
19696,-100,4,1,0,30,0,1
19841,-100,4,3,1,50,0,1
19862,-100,4,1,0,30,0,1
20007,-100,4,3,1,50,0,1
20341,-33.3333333333333,4,3,1,50,0,1
20696,-100,4,1,0,30,0,1
20841,-100,4,3,1,50,0,1
21175,-28.5714285714286,4,3,1,50,0,1
21196,-100,4,1,10,30,0,1
21341,-100,4,3,12,50,0,1
21362,-100,4,1,10,30,0,1
21507,-100,4,3,1,50,0,1
21696,-100,4,1,10,30,0,1
21841,-100,4,3,1,50,0,1
21862,-100,4,1,10,30,0,1
22007,-25,4,3,1,50,0,1
22196,-25,4,1,10,30,0,1
22341,-25,4,3,1,50,0,1
22529,-100,4,1,10,30,0,1
22674,-25,4,3,1,50,0,1
23008,-25,4,3,11,50,0,1
23091,-100,4,3,1,50,0,1
23341,-100,4,3,1,50,0,1
23508,-100,4,3,12,50,0,1
23591,-100,4,3,1,50,0,1
23675,-100,4,3,11,50,0,1
23758,-100,4,3,1,50,0,1
23841,-100,4,3,10,50,0,1
23925,-100,4,3,1,50,0,1
24008,-100,4,3,1,50,0,1
25175,-100,4,3,1,50,0,0
25341,-100,4,3,1,50,0,1
25591,-25,4,3,1,50,0,1
25675,-25,4,3,11,50,0,1
25758,-100,4,3,1,50,0,1
25842,-100,4,3,10,50,0,1
25925,-100,4,3,1,50,0,1
26008,-100,4,3,1,50,0,1
26175,-25,4,3,1,50,0,1
26341,-25,4,3,11,50,0,1
26425,-25,4,3,1,50,0,1
26675,-71.4285714285714,4,3,1,50,0,1
27008,-25,4,3,1,50,0,1
27508,-25,4,3,12,50,0,1
27591,-25,4,3,1,50,0,1
27675,-25,4,3,1,50,0,1
27842,-62.5,4,3,1,50,0,1
28091,-25,4,3,1,50,0,1
28175,-25,4,3,10,50,0,1
28258,-25,4,3,1,50,0,1
28341,-100,4,3,11,50,0,1
28425,-100,4,3,1,50,0,1
28508,-100,4,3,10,50,0,1
28591,-100,4,3,1,50,0,1
28841,-43.1034482758621,4,3,1,50,0,1
29175,-100,4,3,1,50,0,1
29341,-25,4,3,1,50,0,1
30008,-40,4,3,1,50,0,1
30029,-100,4,1,0,30,0,1
30174,-100,4,3,12,50,0,1
30196,-100,4,1,0,30,0,1
30341,-50,4,3,1,50,0,1
30362,-100,4,1,10,30,0,1
30507,-100,4,3,12,50,0,1
30529,-100,4,1,10,30,0,1
30674,-100,4,3,1,50,0,1
31029,-100,4,1,10,30,0,1
31174,-100,4,3,1,50,0,1
31341,-33.3333333333333,4,3,1,50,0,1
31675,-43.1034482758621,4,3,11,50,0,1
31758,-43.1034482758621,4,3,1,50,0,1
31842,-100,4,3,1,50,0,1
33341,-76.9230769230769,4,3,1,50,0,1
33362,-100,4,1,10,30,0,1
33507,-76.9230769230769,4,3,1,50,0,1
33862,-76.9230769230769,4,1,10,30,0,1
34007,-76.9230769230769,4,3,1,50,0,1
34362,-100,4,1,10,30,0,1
34507,-100,4,3,1,50,0,1
36008,-100,4,3,0,55,0,0
36341,-100,4,3,1,45,0,0
37341,-100,4,3,0,55,0,0
37675,-100,4,3,1,45,0,0
38675,-100,4,3,0,55,0,0
39009,-100,4,3,1,45,0,0
40008,-100,4,3,0,55,0,0
40342,-100,4,3,1,45,0,0
41341,-100,4,3,0,55,0,0
41675,-100,4,3,1,45,0,0
42675,-100,4,3,0,55,0,0
43009,-100,4,3,1,45,0,0
44008,-100,4,3,0,55,0,0
44342,-100,4,3,1,45,0,0
45341,-100,4,3,0,55,0,0
45675,-100,4,3,1,45,0,0
46675,-100,4,3,0,55,0,0
47009,-100,4,3,1,45,0,0
48008,-100,4,3,0,55,0,0
48342,-100,4,3,1,45,0,0
49341,-100,4,3,0,55,0,0
49675,-100,4,3,1,45,0,0
50675,-100,4,3,0,55,0,0
51009,-100,4,3,1,45,0,0
52008,-100,4,3,0,55,0,0
52342,-100,4,3,1,45,0,0
53341,-100,4,3,0,55,0,0
53675,-100,4,3,1,45,0,0
54675,-100,4,3,0,55,0,0
55009,-100,4,3,1,45,0,0
56008,-100,4,3,0,55,0,0
56342,-100,4,3,1,45,0,0
57341,333.333333333333,7,1,0,50,1,0
60174,-100,7,1,1,50,0,0
62007,-100,7,1,0,50,0,0
64840,-100,7,1,1,50,0,0
66507,-100,7,3,0,50,0,0
66674,-100,7,1,0,50,0,0
67007,-100,7,1,1,50,0,0
67174,-100,7,1,0,50,0,0
67507,-100,7,1,1,50,0,0
67674,-100,7,1,0,50,0,0
68007,-100,7,1,1,50,0,0
68174,-100,7,1,0,50,0,0
68507,-100,7,1,1,50,0,0
68674,-100,7,1,0,50,0,0
69507,-100,7,1,1,50,0,0
71340,-100,7,1,0,50,0,0
71674,-100,7,1,1,50,0,0
71841,-100,7,1,0,50,0,0
72174,-100,7,1,1,50,0,0
72341,-100,7,1,0,50,0,0
72674,-100,7,1,1,50,0,0
72841,-100,7,1,0,50,0,0
73174,-100,7,1,1,50,0,0
73341,-100,7,1,0,50,0,0
74174,-100,7,1,1,50,0,0
76008,333.333333333333,4,1,1,50,1,0
76341,-100,4,2,0,20,0,0
76674,-100,4,2,0,45,0,0
77008,-100,4,2,0,20,0,0
77341,-100,4,2,0,45,0,0
77674,-100,4,2,0,20,0,0
78007,-100,4,2,0,45,0,0
78341,-100,4,2,0,20,0,0
78674,-100,4,2,0,45,0,0
79341,-100,4,2,0,20,0,0
79674,-100,4,2,0,45,0,0
79841,-100,4,2,0,20,0,0
80008,-100,4,2,0,45,0,0
80341,-100,4,2,0,20,0,0
80674,-100,4,2,0,45,0,0
81008,-100,4,2,0,20,0,0
81341,-100,4,2,0,45,0,0
81674,-100,4,2,0,20,0,0
82007,-100,4,2,0,45,0,0
82341,-100,4,2,0,20,0,0
82674,-100,4,2,0,45,0,0
83008,-100,4,2,0,20,0,0
83341,-100,4,2,0,45,0,0
83674,-100,4,2,0,20,0,0
84007,-100,4,2,0,45,0,0
84341,-100,4,2,0,20,0,0
84674,-100,4,2,0,45,0,0
84841,-100,4,2,0,20,0,0
84924,-100,4,2,0,45,0,0
85091,-100,4,2,0,20,0,0
85174,-100,4,2,0,45,0,0
85257,-100,4,2,0,20,0,0
85341,-100,4,2,0,45,0,0
85674,-100,4,2,0,20,0,0
86007,-100,4,2,0,45,0,0
86341,-100,4,2,0,20,0,0
86674,-100,4,2,2,50,0,0
94674,-100,4,2,1,50,0,0
97007,-100,4,2,1,70,0,0
97341,-100,4,1,1,60,0,1
98716,-100,4,3,0,60,0,1
98841,-100,4,1,1,60,0,1
98882,-100,4,3,0,60,0,1
99007,-100,4,1,1,60,0,1
99132,-100,4,3,0,60,0,1
99257,-100,4,1,1,60,0,1
108007,-66.6666666666667,4,1,1,60,0,1
109174,-100,4,1,1,60,0,1
110674,-66.6666666666667,4,1,1,60,0,1
111841,-100,4,1,1,60,0,1
113341,-43.1034482758621,4,1,1,60,0,1
113507,-100,4,1,1,60,0,1
118591,-100,4,1,1,60,0,0

[Colours]
Combo1 : 255,255,0
Combo2 : 243,89,34
Combo3 : 112,196,193
Combo4 : 128,255,0

[HitObjects]
307,300,1008,5,2,0:0:0:0:
327,249,1091,1,0,0:0:0:0:
319,196,1174,1,0,0:0:0:0:
283,155,1257,1,0,0:0:0:0:
231,139,1341,1,2,0:0:0:0:
71,135,1508,1,0,0:0:0:0:
200,78,1675,1,2,0:0:0:0:
48,78,1841,1,2,0:0:0:0:
349,253,2508,1,2,0:0:0:0:
351,198,2591,1,0,0:0:0:0:
354,143,2674,1,2,0:0:0:0:
197,144,2841,1,0,0:0:0:0:
183,65,3008,1,2,0:0:0:0:
352,37,3175,1,2,0:0:0:0:
133,293,3675,5,2,0:0:0:0:
115,241,3758,1,0,0:0:0:0:
127,188,3841,1,0,0:0:0:0:
165,150,3924,1,0,0:0:0:0:
218,138,4008,1,2,0:0:0:0:
365,149,4175,1,0,0:0:0:0:
224,65,4341,1,2,0:0:0:0:
384,68,4508,1,2,0:0:0:0:
105,304,4841,1,2,0:0:0:0:
99,249,4924,1,0,0:0:0:0:
94,194,5007,1,2,0:0:0:0:
364,131,5175,5,2,0:0:0:0:
120,42,5508,1,2,0:0:0:0:
411,185,5841,1,2,0:0:0:0:
156,310,6341,1,0,0:0:0:0:
128,263,6424,1,0,0:0:0:0:
141,211,6507,1,0,0:0:0:0:
186,183,6590,1,0,0:0:0:0:
337,249,6675,5,14,0:0:0:0:
328,139,6841,1,0,0:0:0:0:
195,107,7008,1,2,0:0:0:0:
323,213,7175,2,0,L|315:142,1,55,10|0,0:0|0:0,0:0:0:0:
244,135,7341,1,0,0:0:0:0:
375,69,7508,1,2,0:0:0:0:
256,215,7675,2,0,L|172:199,1,55,10|0,0:0|0:0,0:0:0:0:
256,215,7842,2,0,L|340:199,1,55,0|0,0:0|0:0,0:0:0:0:
160,255,8008,5,10,0:0:0:0:
168,145,8174,1,0,0:0:0:0:
302,113,8341,1,2,0:0:0:0:
178,218,8508,2,0,L|186:147,1,55,10|0,0:0|0:0,0:0:0:0:
257,140,8675,2,0,L|265:51,1,55,0|0,0:0|0:0,0:0:0:0:
119,64,8841,2,0,L|57:43,1,55,10|0,0:0|0:0,0:0:0:0:
238,297,9008,1,2,0:0:0:0:
261,249,9091,1,0,0:0:0:0:
244,198,9174,1,8,0:0:0:0:
196,175,9258,1,0,0:0:0:0:
38,88,9341,5,10,0:0:0:0:
150,145,9508,2,0,L|144:70,1,55,0|0,0:0|0:0,0:0:0:0:
76,63,9675,1,2,0:0:0:0:
203,149,9842,1,10,0:0:0:0:
22,76,10175,1,2,0:0:0:0:
149,68,10341,2,0,L|223:54,1,55,10|0,0:0|0:0,0:0:0:0:
141,228,10508,5,10,0:0:0:0:
137,173,10591,1,0,0:0:0:0:
134,118,10674,1,0,0:0:0:0:
274,108,10841,1,2,0:0:0:0:
117,73,11008,1,10,0:0:0:0:
243,252,11175,2,0,L|234:184,1,55,0|0,0:0|0:0,0:0:0:0:
164,187,11341,1,10,0:0:0:0:
161,132,11424,1,0,0:0:0:0:
159,77,11507,1,0,0:0:0:0:
304,75,11675,1,10,0:0:0:0:
431,47,11841,1,8,0:0:0:0:
90,278,12008,5,8,0:0:0:0:
256,192,12175,12,0,13175,0:0:0:0:
272,116,13341,5,8,0:0:0:0:
256,192,13508,12,0,13841,0:0:0:0:
391,229,14008,6,0,P|438:167|352:120,1,165,8|0,0:0|0:0,0:0:0:0:
203,116,14341,2,0,L|114:104,1,55,8|0,0:0|0:0,0:0:0:0:
313,43,14508,2,0,L|390:22,1,55,8|0,0:0|0:0,0:0:0:0:
176,266,14675,6,0,L|185:178,1,55,6|0,0:0|0:0,0:0:0:0:
325,183,14841,1,0,0:0:0:0:
372,164,14925,2,0,B|171:174|171:174|171:139|171:139|66:132|66:132|162:120|162:120|160:137|160:137|328:91|328:91|329:158|329:158|393:114|393:114|352:62|352:62|346:12|346:12|107:24,1,1100,0|0,0:0|0:0,0:0:0:0:
82,10,15424,1,0,0:0:0:0:
282,279,15508,6,0,B|291:52|291:52|292:83|292:83|224:189|223:189|223:194|223:194|223:256|223:256|292:261|292:261|294:83|294:83|333:117|333:117|333:274|333:274|317:103|317:103|317:124|317:124|171:213|171:213|172:276,1,1320,2|2,0:0|0:0,0:0:0:0:
117,212,16091,1,0,0:0:0:0:
288,104,16175,2,0,L|294:43,1,55,0|0,0:0|0:0,0:0:0:0:
117,73,16341,1,8,0:0:0:0:
23,52,16452,1,0,0:0:0:0:
117,73,16564,1,0,0:0:0:0:
339,160,16675,2,0,B|399:152|399:152|354:34|354:34|402:78|402:78|194:94,1,440,0|2,0:0|0:0,0:0:0:0:
339,229,17008,2,0,B|323:183|323:183|278:65|278:65|326:109|326:109|233:168|233:168|138:104,1,440,8|0,0:0|0:0,0:0:0:0:
455,226,17341,6,0,L|449:157,1,55,2|0,0:0|0:0,0:0:0:0:
276,183,17508,1,0,0:0:0:0:
221,184,17591,1,0,0:0:0:0:
167,185,17674,1,8,0:0:0:0:
422,298,17841,6,0,L|416:229,1,55,0|0,0:0|0:0,0:0:0:0:
248,246,18008,1,0,0:0:0:0:
193,247,18091,1,0,0:0:0:0:
395,200,18175,2,0,L|424:134,2,63.8000019470215,2|0|0,0:0|0:0|0:0,0:0:0:0:
187,273,18341,2,0,L|164:122,1,127.600003894043,8|0,0:0|0:0,0:0:0:0:
329,162,18508,2,0,L|400:150,1,55,0|0,0:0|0:0,0:0:0:0:
176,320,18675,6,0,B|352:284|352:284|293:250|293:250|371:47|371:47|341:256|341:256|299:40,1,880,2|8,0:0|0:0,0:0:0:0:
192,38,19174,1,2,0:0:0:0:
449,254,19341,1,0,0:0:0:0:
298,228,19508,1,2,0:0:0:0:
42,209,19675,2,0,L|31:162,6,27.5,8|0|0|0|0|0|0,0:0|0:0|0:0|0:0|0:0|0:0|0:0,0:0:0:0:
265,193,20008,6,0,P|248:92|149:72,1,206.25,2|0,0:0|0:0,0:0:0:0:
159,69,20341,2,0,L|335:337,1,288.750011014939,8|0,0:0|0:0,0:0:0:0:
315,308,20508,2,0,L|133:35,1,288.750011014939,0|0,0:0|0:0,0:0:0:0:
159,69,20675,2,0,L|472:205,1,330.000012588501,0|2,0:0|0:0,0:0:0:0:
428,200,20883,2,0,L|384:196,1,27.5,0|0,0:0|0:0,0:0:0:0:
212,233,21009,1,8,0:0:0:0:
91,263,21175,6,0,B|272:298|272:298|272:332|272:332|334:272|334:272|335:362|335:362|357:209|357:209|357:265|357:265|330:140|330:140|331:207|331:207|262:117|262:117|264:179|264:179|86:239,2,1155.00001101494,0|8|2,0:0|0:0|0:0,0:0:0:0:
91,263,22196,2,0,B|275:356|275:356|290:152,1,385,0|8,0:0|0:0,0:0:0:0:
179,137,22508,2,0,B|363:230|363:230|449:50,1,385,0|0,0:0|0:0,0:0:0:0:
449,48,22675,6,0,B|482:98|482:98|482:257|482:257|464:145|464:145|463:283|463:283|415:170|415:170|415:236|415:236|212:136|212:136|214:164|214:164|69:125|69:125|69:155|69:155|282:196|282:196|283:244|283:244|428:220|428:220|429:257|429:257|209:240|209:240|159:188|159:188|158:251|158:251|187:110|187:110|186:222|186:222|191:171|191:171|238:74|238:74|239:208|239:208|394:132|394:132|393:93|393:93|408:210|408:210|404:108|404:108|207:59|207:59|195:300|195:300|408:288,1,3520,2|2,0:0|0:0,0:0:0:0:
410,322,24091,1,0,0:0:0:0:
138,230,24175,5,0,0:0:0:0:
372,126,24341,1,8,0:0:0:0:
230,109,24508,1,2,0:0:0:0:
476,231,24675,1,0,0:0:0:0:
380,184,24841,1,2,0:0:0:0:
91,179,25008,1,8,0:0:0:0:
172,147,25174,1,0,0:0:0:0:
494,77,25341,6,0,L|412:71,1,55,6|0,0:0|0:0,0:0:0:0:
212,222,25508,1,0,0:0:0:0:
191,174,25591,2,0,B|392:184|392:184|392:149|392:149|497:142|497:142|401:130|401:130|403:147|403:147|235:101|235:101|234:168|234:168|170:124|170:124|211:72|211:72|217:22|217:22|456:34,1,1100,0|0,0:0|0:0,0:0:0:0:
445,80,26091,1,0,0:0:0:0:
249,244,26175,2,0,B|173:224|173:224|172:311|172:311|173:214|173:214|242:163|242:163|242:275|242:275|315:261|315:261|318:125|318:125|392:102|392:102|390:269|390:269|469:239|469:239|468:133|468:133|251:128,1,1320,2|2,0:0|0:0,0:0:0:0:
218,66,26758,1,0,0:0:0:0:
394,102,26841,2,0,L|386:4,1,76.9999976501466,0|0,0:0|0:0,0:0:0:0:
146,255,27008,6,0,B|234:182|234:182|230:246|230:246|240:73|240:73|238:172|238:172|174:0|174:0|176:29|176:29|348:50|348:50|349:108|349:108|411:47|411:47|411:170|411:170|231:53|231:53|175:14|175:14|177:168|177:168|364:303,1,1760,8|8,0:0|0:0,0:0:0:0:
363,285,27695,2,0,B|391:249|391:249|350:147|350:147|370:154|370:154|167:205,1,385,0|0,0:0|0:0,0:0:0:0:
408,211,28008,5,2,0:0:0:0:
439,159,28091,2,0,B|254:138|254:138|251:197|251:197|202:187|202:187|198:349|198:349|252:230|252:230|252:328|252:328|304:169|304:169|301:249|301:249|255:218|255:218|256:348|256:348|457:270,1,1320,0|0,0:0|0:0,0:0:0:0:
447,85,28675,1,0,0:0:0:0:
372,73,28758,1,0,0:0:0:0:
197,227,28841,2,0,L|168:161,2,63.8000019470215,2|0|0,0:0|0:0|0:0,0:0:0:0:
397,268,29008,2,0,L|420:117,1,127.600003894043,8|0,0:0|0:0,0:0:0:0:
253,156,29175,2,0,L|182:144,1,55,0|0,0:0|0:0,0:0:0:0:
370,244,29341,5,2,0:0:0:0:
205,279,29425,2,0,L|204:11,1,220,0|0,0:0|0:0,0:0:0:0:
269,39,29591,1,0,0:0:0:0:
91,235,29675,1,8,0:0:0:0:
27,125,29841,1,2,0:0:0:0:
299,276,30008,2,0,B|291:130|291:130|202:20|202:20|93:142,1,412.5,0|0,0:0|0:0,0:0:0:0:
318,323,30341,2,0,B|423:284|424:284|543:233|466:154|466:154|405:124,1,330,8|0,0:0|0:0,0:0:0:0:
206,271,30675,6,0,L|200:189,1,55,2|0,0:0|0:0,0:0:0:0:
283,206,30841,2,0,L|279:128,1,55,0|0,0:0|0:0,0:0:0:0:
216,207,31008,2,0,P|194:146|288:103,1,165,8|0,0:0|0:0,0:0:0:0:
487,352,31341,2,0,B|12:229|12:229|491:92|491:92|266:69,1,1155.00004405976,2|0,0:0|0:0,0:0:0:0:
134,156,32008,5,2,0:0:0:0:
37,72,32174,1,0,0:0:0:0:
376,136,32341,1,8,0:0:0:0:
281,102,32453,1,0,0:0:0:0:
376,136,32564,1,0,0:0:0:0:
156,253,32675,2,0,L|97:229,1,55,0|0,0:0|0:0,0:0:0:0:
313,111,32841,2,0,L|383:88,1,55,2|0,0:0|0:0,0:0:0:0:
141,305,33008,2,0,L|109:299,1,27.5,8|0,0:0|0:0,0:0:0:0:
125,253,33091,2,0,L|85:233,1,27.5,0|0,0:0|0:0,0:0:0:0:
142,202,33175,2,0,L|102:168,1,27.5,0|0,0:0|0:0,0:0:0:0:
186,170,33258,1,0,0:0:0:0:
320,118,33341,6,0,L|397:92,1,71.4999967269899,8|0,0:0|0:0,0:0:0:0:
186,221,33508,1,0,0:0:0:0:
246,211,33591,1,0,0:0:0:0:
306,204,33674,1,2,0:0:0:0:
367,197,33758,1,0,0:0:0:0:
182,150,33841,2,0,L|86:127,1,71.4999967269899,8|0,0:0|0:0,0:0:0:0:
314,69,34008,1,0,0:0:0:0:
253,61,34091,1,0,0:0:0:0:
194,55,34174,1,2,0:0:0:0:
133,50,34258,1,0,0:0:0:0:
297,197,34341,6,0,L|383:172,1,71.4999967269899,8|0,0:0|0:0,0:0:0:0:
156,138,34508,1,0,0:0:0:0:
215,125,34591,1,0,0:0:0:0:
273,115,34674,1,2,0:0:0:0:
333,102,34758,1,0,0:0:0:0:
152,258,34841,2,0,L|140:169,1,55,8|0,0:0|0:0,0:0:0:0:
307,187,35008,2,0,L|318:110,1,55,2|0,0:0|0:0,0:0:0:0:
243,125,35175,2,0,L|235:61,1,55,2|0,0:0|0:0,0:0:0:0:
404,82,35341,6,0,L|479:56,1,55,8|0,0:0|0:0,0:0:0:0:
224,242,35508,2,0,L|229:153,1,55,2|0,0:0|0:0,0:0:0:0:
439,175,35675,2,0,L|414:90,1,55,2|0,0:0|0:0,0:0:0:0:
221,83,35841,2,0,L|125:59|125:59,1,55,10|0,0:0|0:0,0:0:0:0:
394,349,36008,5,12,0:0:0:0:
466,272,36174,1,0,0:0:0:0:
441,169,36341,1,8,0:0:0:0:
342,134,36507,1,2,0:0:0:0:
111,243,36841,1,2,0:0:0:0:
295,233,37008,1,8,0:0:0:0:
314,123,37174,1,0,0:0:0:0:
58,136,37341,5,8,0:0:0:0:
218,162,37841,1,2,0:0:0:0:
439,169,38341,1,8,0:0:0:0:
119,244,38675,5,8,0:0:0:0:
400,199,39175,1,2,0:0:0:0:
394,144,39258,1,0,0:0:0:0:
388,89,39341,1,2,2:0:0:0:
106,339,40008,5,8,0:0:0:0:
175,259,40174,1,0,0:0:0:0:
143,159,40341,1,8,0:0:0:0:
41,134,40508,1,2,0:0:0:0:
160,104,40675,1,2,2:0:0:0:
265,70,40841,1,2,0:0:0:0:
144,244,41008,1,8,0:0:0:0:
38,187,41175,1,0,0:0:0:0:
336,237,41341,5,8,0:0:0:0:
120,104,41841,1,2,0:0:0:0:
318,180,42341,1,8,0:0:0:0:
193,121,42508,1,0,0:0:0:0:
445,48,42675,5,8,0:0:0:0:
53,101,43008,1,8,0:0:0:0:
446,104,43341,1,2,2:0:0:0:
53,101,43675,1,8,0:0:0:0:
446,104,44008,5,8,0:0:0:0:
256,173,44341,1,8,0:0:0:0:
242,103,44508,1,2,0:0:0:0:
388,239,45175,2,0,L|378:152,1,55,0|0,0:0|0:0,0:0:0:0:
294,163,45341,5,8,0:0:0:0:
136,166,45841,2,0,L|146:79,1,55,2|0,0:0|0:0,0:0:0:0:
188,78,46008,1,2,2:0:0:0:
334,33,46258,1,0,0:0:0:0:
115,35,46508,1,0,0:0:0:0:
379,257,46675,5,12,0:0:0:0:
269,222,46842,1,0,0:0:0:0:
379,257,47008,1,8,0:0:0:0:
91,238,47175,1,2,0:0:0:0:
193,119,47508,1,2,0:0:0:0:
343,130,47675,1,8,0:0:0:0:
319,50,47841,1,0,0:0:0:0:
58,133,48008,5,8,0:0:0:0:
334,230,48341,1,8,0:0:0:0:
194,227,48508,2,0,L|201:136,1,55,2|0,0:0|0:0,0:0:0:0:
414,126,48675,1,2,2:0:0:0:
275,89,48841,1,2,0:0:0:0:
414,126,49008,1,8,0:0:0:0:
354,49,49175,1,0,0:0:0:0:
52,284,49341,5,12,0:0:0:0:
191,178,49508,1,0,0:0:0:0:
52,284,49675,1,8,0:0:0:0:
339,192,49841,1,2,0:0:0:0:
86,206,50175,1,2,0:0:0:0:
139,82,50341,1,8,0:0:0:0:
259,27,50508,1,0,0:0:0:0:
497,184,50675,1,8,0:0:0:0:
381,103,50841,1,0,0:0:0:0:
95,222,51008,5,8,0:0:0:0:
190,175,51175,1,2,0:0:0:0:
358,149,51341,1,2,2:0:0:0:
285,65,51508,1,2,0:0:0:0:
121,164,51675,1,8,0:0:0:0:
159,95,51841,1,0,0:0:0:0:
456,113,52008,5,12,0:0:0:0:
274,237,52175,2,0,L|193:215,1,55,0|0,0:0|0:0,0:0:0:0:
397,207,52341,1,8,0:0:0:0:
419,158,52424,1,0,0:0:0:0:
398,109,52507,1,2,0:0:0:0:
347,92,52591,1,0,0:0:0:0:
185,187,52675,2,0,L|117:169,1,55,2|0,2:0|0:0,0:0:0:0:
293,106,52841,2,0,L|361:88,1,55,2|0,0:0|0:0,0:0:0:0:
142,241,53008,1,8,0:0:0:0:
127,189,53091,1,0,0:0:0:0:
151,140,53174,1,0,0:0:0:0:
200,119,53258,1,0,0:0:0:0:
368,229,53341,5,12,0:0:0:0:
313,220,53424,1,0,0:0:0:0:
259,212,53507,1,0,0:0:0:0:
204,204,53591,1,0,0:0:0:0:
371,82,53675,2,0,L|454:59,1,55,8|0,0:0|0:0,0:0:0:0:
219,66,53841,2,0,L|141:47,1,55,2|0,0:0|0:0,0:0:0:0:
376,232,54008,1,2,2:0:0:0:
400,184,54091,1,0,0:0:0:0:
381,135,54174,1,2,0:0:0:0:
331,116,54258,1,0,0:0:0:0:
161,111,54341,2,0,L|139:21,1,55,8|0,0:0|0:0,0:0:0:0:
324,72,54508,2,0,L|312:-5,1,55,2|0,2:0|0:0,0:0:0:0:
100,276,54675,6,0,L|107:190,1,55,12|0,0:0|0:0,0:0:0:0:
171,202,54841,2,0,L|246:188,1,55,0|0,0:0|0:0,0:0:0:0:
68,290,55008,1,8,0:0:0:0:
54,237,55091,1,0,0:0:0:0:
76,188,55174,1,0,0:0:0:0:
124,164,55258,1,0,0:0:0:0:
317,149,55341,2,0,L|310:63,1,55,8|0,0:0|0:0,0:0:0:0:
246,75,55507,2,0,L|171:61,1,55,0|0,0:0|0:0,0:0:0:0:
363,284,55675,1,8,0:0:0:0:
402,248,55758,1,0,0:0:0:0:
397,195,55841,1,0,0:0:0:0:
352,167,55925,1,0,0:0:0:0:
183,262,56008,6,0,L|170:191,1,55,12|0,0:0|0:0,0:0:0:0:
223,188,56175,2,0,L|306:156,1,55,2|0,0:0|0:0,0:0:0:0:
131,163,56341,2,0,L|129:90,1,55,8|0,0:0|0:0,0:0:0:0:
171,84,56508,2,0,L|234:60,1,55,2|0,0:0|0:0,0:0:0:0:
60,241,56675,6,0,L|49:170,1,55,8|0,0:0|0:0,0:0:0:0:
280,133,56841,2,0,L|363:117,1,55,2|0,0:0|0:0,0:0:0:0:
123,95,57008,2,0,L|40:79,1,55,8|0,0:0|0:0,0:0:0:0:
280,133,57175,2,0,L|363:117,1,55,2|0,0:0|0:0,0:0:0:0:
80,259,57341,5,12,0:0:0:0:
205,223,57507,1,0,0:0:0:0:
206,168,57590,1,0,0:0:0:0:
208,113,57674,1,0,0:0:0:0:
457,215,57841,1,8,0:0:0:0:
453,160,57924,1,0,0:0:0:0:
450,105,58007,1,0,0:0:0:0:
320,193,58174,2,0,L|318:106,1,55,0|0,0:0|0:0,0:0:0:0:
164,163,58340,1,8,0:0:0:0:
308,158,58507,1,0,0:0:0:0:
308,103,58590,1,0,0:0:0:0:
309,48,58673,5,0,0:0:0:0:
71,32,58840,1,8,0:0:0:0:
172,198,59007,1,0,0:0:0:0:
178,144,59090,1,0,0:0:0:0:
148,99,59173,1,0,0:0:0:0:
96,86,59257,1,0,0:0:0:0:
282,190,59341,2,0,L|290:114,1,55,8|0,0:0|0:0,0:0:0:0:
230,121,59507,2,0,L|238:53,1,55,0|0,0:0|0:0,0:0:0:0:
465,57,59674,5,8,0:0:0:0:
353,234,59841,1,0,0:0:0:0:
349,179,59924,1,0,0:0:0:0:
345,124,60007,1,0,0:0:0:0:
114,111,60174,1,8,0:0:0:0:
168,106,60257,1,0,0:0:0:0:
223,102,60340,1,0,0:0:0:0:
97,289,60507,1,2,0:0:0:0:
54,178,60674,1,8,0:0:0:0:
129,102,60841,1,0,0:0:0:0:
289,194,61007,5,2,0:0:0:0:
132,184,61173,1,8,0:0:0:0:
291,98,61340,1,0,0:0:0:0:
271,27,61507,1,2,0:0:0:0:
25,270,61674,1,8,0:0:0:0:
157,239,61840,1,0,0:0:0:0:
459,194,62007,5,12,0:0:0:0:
329,264,62174,1,0,0:0:0:0:
327,209,62257,1,0,0:0:0:0:
325,154,62340,1,0,0:0:0:0:
101,303,62507,1,8,0:0:0:0:
77,254,62590,1,0,0:0:0:0:
89,201,62673,1,0,0:0:0:0:
130,167,62757,1,0,0:0:0:0:
190,164,62840,2,0,L|254:150,1,55,0|0,0:0|0:0,0:0:0:0:
101,212,63007,2,0,L|92:123,1,55,8|0,0:0|0:0,0:0:0:0:
154,141,63174,2,0,L|162:66,1,55,0|0,0:0|0:0,0:0:0:0:
19,91,63340,2,0,L|87:53,1,55,0|0,0:0|0:0,0:0:0:0:
223,265,63507,5,8,0:0:0:0:
246,215,63590,1,0,0:0:0:0:
245,161,63673,1,0,0:0:0:0:
219,113,63757,1,0,0:0:0:0:
175,81,63840,1,0,0:0:0:0:
121,72,63923,1,0,0:0:0:0:
287,95,64007,2,0,L|351:73,1,55,8|0,0:0|0:0,0:0:0:0:
182,30,64174,2,0,L|99:13,1,55,0|0,0:0|0:0,0:0:0:0:
381,268,64340,5,8,0:0:0:0:
257,266,64507,1,0,0:0:0:0:
254,211,64590,1,0,0:0:0:0:
251,156,64673,1,0,0:0:0:0:
488,81,64840,1,8,0:0:0:0:
433,72,64923,1,0,0:0:0:0:
379,63,65006,1,0,0:0:0:0:
238,45,65173,1,2,0:0:0:0:
369,141,65340,1,8,0:0:0:0:
239,226,65507,1,0,0:0:0:0:
486,195,65674,5,8,0:0:0:0:
373,167,65840,1,2,0:0:0:0:
140,135,66007,1,8,0:0:0:0:
373,167,66173,1,2,0:0:0:0:
90,284,66340,1,8,0:0:0:0:
358,166,66507,2,0,L|426:111,1,55,8|8,0:0|0:0,0:0:0:0:
175,150,66674,5,12,0:0:0:0:
283,77,66840,1,0,0:0:0:0:
228,67,66923,1,0,0:0:0:0:
174,57,67006,1,2,0:0:0:0:
435,246,67174,1,8,0:0:0:0:
310,230,67340,2,0,L|242:210,1,55,0|0,0:0|0:0,0:0:0:0:
320,160,67507,2,0,L|417:131,1,55,2|0,0:0|0:0,0:0:0:0:
131,163,67673,1,8,0:0:0:0:
244,113,67840,2,0,L|248:45,1,55,0|0,0:0|0:0,0:0:0:0:
80,102,68007,2,0,L|89:6,1,55,2|0,0:0|0:0,0:0:0:0:
281,26,68174,6,0,L|361:11,1,55,8|0,0:0|0:0,0:0:0:0:
271,109,68340,1,0,0:0:0:0:
399,164,68507,2,0,L|392:93,1,55,2|0,0:0|0:0,0:0:0:0:
179,172,68674,1,8,0:0:0:0:
91,74,68840,2,0,L|147:58,1,55,0|0,0:0|0:0,0:0:0:0:
323,28,69007,5,8,0:0:0:0:
201,142,69174,1,0,0:0:0:0:
255,134,69257,1,0,0:0:0:0:
309,126,69340,1,0,0:0:0:0:
80,218,69507,2,0,L|72:130,1,55,8|0,0:0|0:0,0:0:0:0:
262,156,69674,1,0,0:0:0:0:
167,135,69840,1,2,0:0:0:0:
412,171,70007,1,8,0:0:0:0:
361,78,70173,1,0,0:0:0:0:
282,68,70257,1,0,0:0:0:0:
107,79,70340,1,8,0:0:0:0:
350,187,70507,5,2,0:0:0:0:
87,252,70674,1,8,0:0:0:0:
93,155,70840,2,0,L|168:140,1,55,2|0,0:0|0:0,0:0:0:0:
312,118,71007,2,0,L|315:43,1,55,8|0,0:0|0:0,0:0:0:0:
154,74,71174,2,0,L|141:9,1,55,2|0,0:0|0:0,0:0:0:0:
379,250,71340,5,12,0:0:0:0:
236,238,71507,1,8,2:0:0:0:
233,183,71590,1,0,0:0:0:0:
231,128,71673,1,2,0:0:0:0:
467,87,71840,2,0,L|377:72,1,55,8|0,0:0|0:0,0:0:0:0:
261,265,72007,1,8,2:0:0:0:
245,213,72090,1,0,0:0:0:0:
269,164,72173,1,2,0:0:0:0:
318,144,72256,1,0,0:0:0:0:
143,139,72340,6,0,L|63:112,1,55,8|0,0:0|0:0,0:0:0:0:
165,92,72507,2,0,L|228:67,1,55,10|0,2:0|0:0,0:0:0:0:
34,263,72674,2,0,L|43:176,1,55,2|0,0:0|0:0,0:0:0:0:
245,153,72840,1,8,0:0:0:0:
120,87,73007,1,8,2:0:0:0:
245,153,73174,2,0,L|323:129,1,55,2|0,0:0|0:0,0:0:0:0:
73,181,73341,1,8,0:0:0:0:
61,79,73507,2,0,L|156:64,1,55,0|0,0:0|0:0,0:0:0:0:
293,319,73674,5,8,0:0:0:0:
319,271,73757,1,0,0:0:0:0:
318,216,73840,1,0,0:0:0:0:
290,170,73923,1,0,0:0:0:0:
243,143,74007,1,0,0:0:0:0:
188,142,74090,1,0,0:0:0:0:
345,88,74174,2,0,L|417:66,1,55,8|0,0:0|0:0,0:0:0:0:
236,258,74340,2,0,L|228:184,1,55,2|0,0:0|0:0,0:0:0:0:
298,189,74507,2,0,L|299:115,1,55,2|0,0:0|0:0,0:0:0:0:
157,58,74674,2,0,L|99:44,1,55,8|0,0:0|0:0,0:0:0:0:
249,60,74840,2,0,L|325:40,1,55,2|0,0:0|0:0,0:0:0:0:
130,257,75007,5,10,0:0:0:0:
110,170,75174,1,0,0:0:0:0:
268,140,75257,1,10,0:0:0:0:
281,66,75424,1,0,0:0:0:0:
70,53,75507,1,10,0:0:0:0:
58,110,75673,1,0,0:0:0:0:
295,203,75757,1,10,0:0:0:0:
349,203,75840,2,0,L|363:170,2,27.5,0|0|0,0:0|0:0|0:0,0:0:0:0:
154,213,76006,5,14,0:0:0:0:
256,192,86674,12,6,94674,0:0:0:0:
348,241,95174,5,0,0:0:0:0:
134,145,95507,1,0,0:0:0:0:
289,179,95674,1,0,0:0:0:0:
302,126,95757,1,0,0:0:0:0:
287,74,95840,1,0,0:0:0:0:
246,38,95923,1,0,0:0:0:0:
193,28,96007,1,10,0:0:0:0:
61,205,96174,6,0,L|53:141,2,55,0|0|8,0:0|0:0|0:0,0:0:0:0:
135,206,96424,2,0,L|150:127,1,55,0|0,0:0|0:0,0:0:0:0:
84,116,96591,1,0,0:0:0:0:
263,161,96674,2,0,L|349:134,1,55,8|2,0:0|0:0,0:0:0:0:
159,56,96841,2,0,L|233:35,1,55,8|2,0:0|0:0,0:0:0:0:
369,197,97007,1,14,0:0:0:0:
373,132,97090,1,2,0:0:0:0:
340,76,97173,1,2,0:0:0:0:
281,48,97256,1,2,0:0:0:0:
90,179,97341,5,10,0:0:0:0:
19,89,97507,1,0,0:0:0:0:
166,57,97591,1,10,0:0:0:0:
179,169,97757,1,0,0:0:0:0:
331,135,97841,1,10,0:0:0:0:
336,72,98007,1,0,0:0:0:0:
481,42,98091,1,10,0:0:0:0:
454,242,98340,1,10,0:0:0:0:
149,206,98507,1,10,0:0:0:0:
270,168,98674,6,0,L|282:93,1,55,0|0,0:0|0:0,0:0:0:0:
92,144,98841,2,0,L|86:104,2,27.5,10|0|0,0:0|0:0|0:0,0:0:0:0:
340,49,99091,2,0,L|346:9,2,27.5,10|0|0,0:0|0:0|0:0,0:0:0:0:
46,223,99341,2,0,L|40:183,2,27.5,10|0|0,0:0|0:0|0:0,0:0:0:0:
193,191,99507,2,0,L|284:164,1,55,0|10,0:0|0:0,0:0:0:0:
177,126,99674,2,0,L|99:111,1,55,0|0,0:0|0:0,0:0:0:0:
346,143,99841,2,0,L|361:53,1,55,10|0,0:0|0:0,0:0:0:0:
146,335,100007,5,12,0:0:0:0:
43,253,100173,1,0,0:0:0:0:
130,136,100340,1,0,0:0:0:0:
256,92,100507,2,0,L|180:69,1,55,2|0,0:0|0:0,0:0:0:0:
397,322,100674,1,8,0:0:0:0:
474,230,100840,1,0,0:0:0:0:
400,126,101007,1,0,0:0:0:0:
247,100,101174,1,0,0:0:0:0:
479,281,101341,5,2,0:0:0:0:
490,228,101424,1,0,0:0:0:0:
466,180,101507,1,0,0:0:0:0:
416,159,101590,1,0,0:0:0:0:
227,171,101674,2,0,L|238:100,1,55,8|0,0:0|0:0,0:0:0:0:
305,102,101841,2,0,L|324:47,1,55,0|0,0:0|0:0,0:0:0:0:
155,285,102007,1,8,0:0:0:0:
132,236,102090,1,0,0:0:0:0:
151,186,102173,1,2,0:0:0:0:
200,165,102256,1,0,0:0:0:0:
386,88,102341,2,0,L|442:64,1,55,8|0,0:0|0:0,0:0:0:0:
251,186,102507,2,0,L|195:162,1,55,2|0,0:0|0:0,0:0:0:0:
411,278,102674,5,8,0:0:0:0:
274,265,102841,1,0,0:0:0:0:
283,206,102924,1,0,0:0:0:0:
324,163,103007,1,2,0:0:0:0:
382,151,103090,1,0,0:0:0:0:
179,209,103174,1,8,0:0:0:0:
299,82,103341,1,0,0:0:0:0:
233,75,103424,1,0,0:0:0:0:
167,69,103507,1,2,0:0:0:0:
101,63,103590,1,0,0:0:0:0:
266,239,103674,2,0,L|272:155,1,55,8|0,0:0|0:0,0:0:0:0:
108,209,103841,2,0,L|94:131,1,55,2|0,0:0|0:0,0:0:0:0:
300,173,104007,5,8,0:0:0:0:
315,121,104090,1,0,0:0:0:0:
293,72,104173,1,0,0:0:0:0:
243,51,104256,1,0,0:0:0:0:
98,220,104341,2,0,L|88:145,1,55,8|0,0:0|0:0,0:0:0:0:
153,149,104507,2,0,L|178:85,1,55,0|0,0:0|0:0,0:0:0:0:
29,218,104674,1,8,0:0:0:0:
14,166,104757,1,0,0:0:0:0:
39,118,104840,1,2,0:0:0:0:
90,100,104923,1,0,0:0:0:0:
248,159,105007,1,8,0:0:0:0:
264,108,105090,1,0,0:0:0:0:
241,60,105173,1,2,0:0:0:0:
190,42,105256,1,0,0:0:0:0:
347,144,105341,6,0,L|442:124,2,55,10|0|0,0:0|0:0|0:0,0:0:0:0:
197,182,105591,2,0,L|211:94,1,55,10|0,0:0|0:0,0:0:0:0:
271,106,105757,1,0,0:0:0:0:
117,95,105841,2,0,L|22:75,2,55,10|0|0,0:0|0:0|0:0,0:0:0:0:
271,221,106091,2,0,L|257:133,1,55,10|0,0:0|0:0,0:0:0:0:
197,145,106258,1,0,0:0:0:0:
344,180,106341,2,0,L|437:153,1,55,10|0,0:0|0:0,0:0:0:0:
234,73,106507,2,0,L|247:-5,1,55,10|2,0:0|0:0,0:0:0:0:
450,306,106674,5,8,0:0:0:0:
470,257,106757,1,0,0:0:0:0:
448,209,106840,1,0,0:0:0:0:
397,193,106923,1,8,0:0:0:0:
228,169,107007,2,0,L|250:91,1,55,0|0,0:0|0:0,0:0:0:0:
315,102,107174,2,0,L|337:24,1,55,8|0,0:0|0:0,0:0:0:0:
180,312,107341,1,0,0:0:0:0:
151,266,107424,1,8,0:0:0:0:
164,214,107507,1,0,0:0:0:0:
210,187,107590,1,0,0:0:0:0:
262,159,107674,2,0,L|327:134,1,55,8|0,0:0|0:0,0:0:0:0:
248,132,107841,2,0,L|183:107,1,55,2|2,0:0|0:0,0:0:0:0:
448,266,108007,5,10,0:0:0:0:
493,89,108174,1,0,0:0:0:0:
346,57,108258,1,10,0:0:0:0:
333,169,108424,1,0,0:0:0:0:
181,135,108508,1,10,0:0:0:0:
176,72,108674,1,0,0:0:0:0:
31,42,108758,1,10,0:0:0:0:
28,166,109007,1,10,0:0:0:0:
296,271,109174,5,14,0:0:0:0:
177,237,109341,2,0,L|158:133,1,55,8|0,0:0|0:0,0:0:0:0:
234,160,109507,2,0,L|314:143,2,55,0|0|8,0:0|0:0|0:0,0:0:0:0:
85,154,109757,2,0,L|101:71,1,55,0|0,0:0|0:0,0:0:0:0:
159,80,109924,1,0,0:0:0:0:
16,218,110007,2,0,L|22:134,1,55,8|0,0:0|0:0,0:0:0:0:
211,164,110174,2,0,L|255:97,1,55,8|0,0:0|0:0,0:0:0:0:
95,99,110341,2,0,L|98:22,1,55,8|2,0:0|0:0,0:0:0:0:
278,67,110507,2,0,L|266:0,1,55,8|2,0:0|0:0,0:0:0:0:
64,266,110674,5,10,0:0:0:0:
19,89,110841,1,0,0:0:0:0:
166,57,110925,1,10,0:0:0:0:
179,169,111091,1,0,0:0:0:0:
331,135,111175,1,10,0:0:0:0:
336,72,111341,1,0,0:0:0:0:
481,42,111425,1,10,0:0:0:0:
460,154,111674,1,10,0:0:0:0:
151,228,111841,1,6,0:0:0:0:
281,186,112007,6,0,L|297:94,1,55,8|0,0:0|0:0,0:0:0:0:
217,118,112174,2,0,L|199:43,1,55,0|0,0:0|0:0,0:0:0:0:
382,178,112341,2,0,L|391:113,1,55,2|0,0:0|0:0,0:0:0:0:
198,266,112507,1,8,0:0:0:0:
182,214,112590,1,0,0:0:0:0:
207,166,112673,1,0,0:0:0:0:
257,149,112756,1,0,0:0:0:0:
411,98,112841,2,0,L|424:12,1,55,2|0,0:0|0:0,0:0:0:0:
211,80,113007,2,0,L|141:86,1,55,8|0,0:0|0:0,0:0:0:0:
356,35,113174,2,0,L|433:30,1,55,2|0,0:0|0:0,0:0:0:0:
156,311,113341,5,8,0:0:0:0:
142,209,113507,1,0,0:0:0:0:
378,231,113674,1,10,0:0:0:0:
382,177,113757,1,0,0:0:0:0:
350,135,113840,1,2,0:0:0:0:
297,126,113923,1,0,0:0:0:0:
132,229,114007,2,0,L|121:129,1,55,10|0,0:0|0:0,0:0:0:0:
289,110,114174,2,0,L|309:12,1,55,2|0,0:0|0:0,0:0:0:0:
119,157,114341,1,10,0:0:0:0:
120,102,114424,1,0,0:0:0:0:
153,59,114507,1,2,0:0:0:0:
204,43,114590,1,0,0:0:0:0:
370,191,114674,6,0,L|356:118,1,55,10|0,0:0|0:0,0:0:0:0:
294,121,114841,1,0,0:0:0:0:
434,63,114924,2,0,L|502:35,2,55,10|0|0,0:0|0:0|0:0,0:0:0:0:
246,226,115174,2,0,L|181:203,1,55,10|0,0:0|0:0,0:0:0:0:
390,257,115341,2,0,L|402:188,1,55,10|0,0:0|0:0,0:0:0:0:
203,172,115507,2,0,L|192:103,1,55,10|0,0:0|0:0,0:0:0:0:
388,86,115674,2,0,L|308:76,1,55,8|0,0:0|0:0,0:0:0:0:
267,75,115841,2,0,L|192:70,1,55,10|0,0:0|0:0,0:0:0:0:
395,283,116007,6,0,L|402:203,1,55,8|0,0:0|0:0,0:0:0:0:
213,174,116174,2,0,L|143:159,2,55,2|0|8,0:0|0:0|0:0,0:0:0:0:
405,121,116424,2,0,L|475:106,2,55,0|2|0,0:0|0:0|0:0,0:0:0:0:
209,265,116674,2,0,L|198:176,1,55,8|0,0:0|0:0,0:0:0:0:
261,176,116840,2,0,L|343:161,1,55,2|0,0:0|0:0,0:0:0:0:
130,190,117007,1,10,0:0:0:0:
116,138,117090,1,0,0:0:0:0:
142,91,117173,1,2,0:0:0:0:
193,75,117256,1,10,0:0:0:0:
387,182,117341,5,0,0:0:0:0:
203,243,117424,1,10,0:0:0:0:
171,162,117591,1,0,0:0:0:0:
378,105,117674,1,10,0:0:0:0:
408,235,117841,1,0,0:0:0:0:
151,221,117924,1,10,0:0:0:0:
123,131,118091,1,0,0:0:0:0:
419,97,118174,1,10,0:0:0:0:
423,206,118341,1,0,0:0:0:0:
104,239,118424,2,0,L|125:169,1,55,10|0,0:0|0:0,0:0:0:0:
398,119,118591,1,14,0:0:0:0:
