osu file format v14

[General]
AudioFilename: audio.mp3
AudioLeadIn: 0
PreviewTime: 94675
Countdown: 0
SampleSet: Drum
StackLeniency: 0.7
Mode: 2
LetterboxInBreaks: 0
WidescreenStoryboard: 1

[Editor]
Bookmarks: 14675,36008,57342,76008,94675
DistanceSpacing: 1.8
BeatDivisor: 4
GridSize: 16
TimelineZoom: 2.2

[Metadata]
Title:Eeliaas
TitleUnicode:Eeliaas
Artist:Mitsuki
ArtistUnicode:ミツキ
Creator:Deif
Version:Rain
Source:Muse Dash
Tags:Sinnoh RINYA Elias Mitsuboshi Records ミツボシレコーズ 3rd EP Defeated Memorial Video Game Electronic Instrumental
BeatmapID:3533259
BeatmapSetID:1724385

[Difficulty]
HPDrainRate:5
CircleSize:3.8
OverallDifficulty:9.1
ApproachRate:9.1
SliderMultiplier:1.9
SliderTickRate:0.5

[Events]
//Background and Video events
0,0,"BG.jpg",0,0
//Break Periods
2,76207,84741
//Storyboard Layer 0 (Background)
//Storyboard Layer 1 (Fail)
//Storyboard Layer 2 (Pass)
//Storyboard Layer 3 (Foreground)
//Storyboard Layer 4 (Overlay)
//Storyboard Sound Samples

[TimingPoints]
1342,333.333333333333,4,2,0,50,1,0
6675,-100,4,2,1,60,0,0
12008,-100,4,3,0,50,0,0
12175,-100,4,2,0,50,0,0
13341,-100,4,3,0,50,0,0
13508,-100,4,2,0,50,0,0
14008,-100,4,3,0,50,0,0
14675,-100,4,3,1,50,0,1
15029,-100,4,3,10,50,0,1
15091,-100,4,3,1,50,0,1
15112,-100,4,3,10,50,0,1
15174,-100,4,3,1,50,0,1
15196,-100,4,3,10,50,0,1
15258,-100,4,3,1,50,0,1
15279,-100,4,3,10,50,0,1
15341,-100,4,3,1,50,0,1
16369,-100,4,1,0,30,0,1
16453,-100,4,3,1,50,0,1
16480,-100,4,1,0,30,0,1
16564,-100,4,3,1,50,0,1
16591,-100,4,1,0,30,0,1
16675,-100,4,3,1,50,0,1
19696,-100,4,1,0,30,0,1
19841,-100,4,3,1,50,0,1
19862,-100,4,1,0,30,0,1
20007,-100,4,3,1,50,0,1
20696,-100,4,1,0,30,0,1
20841,-100,4,3,1,50,0,1
21196,-100,4,1,10,30,0,1
21341,-100,4,3,1,50,0,1
21362,-100,4,1,10,30,0,1
21507,-100,4,3,1,50,0,1
21696,-100,4,1,10,30,0,1
21841,-100,4,3,1,50,0,1
21862,-100,4,1,10,30,0,1
22007,-100,4,3,1,50,0,1
22196,-100,4,1,10,30,0,1
22341,-100,4,3,1,50,0,1
22529,-100,4,1,10,30,0,1
22674,-100,4,3,1,50,0,1
23696,-100,4,3,10,50,0,1
23758,-100,4,3,1,50,0,1
23779,-100,4,3,10,50,0,1
23841,-100,4,3,1,50,0,1
23862,-100,4,3,10,50,0,1
23924,-100,4,3,1,50,0,1
23946,-100,4,3,10,50,0,1
24008,-100,4,3,1,50,0,1
25175,-100,4,3,1,50,0,0
25341,-100,4,3,1,50,0,1
25696,-100,4,3,10,50,0,1
25758,-100,4,3,1,50,0,1
25779,-100,4,3,10,50,0,1
25841,-100,4,3,1,50,0,1
25862,-100,4,3,10,50,0,1
25924,-100,4,3,1,50,0,1
25946,-100,4,3,10,50,0,1
26008,-100,4,3,1,50,0,1
28196,-100,4,3,10,50,0,1
28258,-100,4,3,1,50,0,1
28279,-100,4,3,10,50,0,1
28341,-100,4,3,1,50,0,1
28362,-100,4,3,10,50,0,1
28424,-100,4,3,1,50,0,1
28446,-100,4,3,10,50,0,1
28508,-100,4,3,1,50,0,1
28529,-100,4,3,10,50,0,1
28591,-100,4,3,1,50,0,1
30029,-100,4,1,0,30,0,1
30174,-100,4,3,1,50,0,1
30196,-100,4,1,0,30,0,1
30341,-100,4,3,1,50,0,1
30362,-100,4,1,10,30,0,1
30507,-100,4,3,1,50,0,1
30529,-100,4,1,10,30,0,1
30674,-100,4,3,1,50,0,1
31029,-100,4,1,10,30,0,1
31174,-100,4,3,1,50,0,1
33362,-100,4,1,10,30,0,1
33507,-100,4,3,1,50,0,1
33862,-100,4,1,10,30,0,1
34007,-100,4,3,1,50,0,1
34362,-100,4,1,10,30,0,1
34507,-100,4,3,1,50,0,1
36008,-100,4,3,0,55,0,0
36341,-100,4,3,1,45,0,0
37341,-100,4,3,0,55,0,0
37675,-100,4,3,1,45,0,0
38675,-100,4,3,0,55,0,0
39009,-100,4,3,1,45,0,0
40008,-100,4,3,0,55,0,0
40342,-100,4,3,1,45,0,0
41341,-100,4,3,0,55,0,0
41675,-100,4,3,1,45,0,0
42675,-100,4,3,0,55,0,0
43009,-100,4,3,1,45,0,0
44008,-100,4,3,0,55,0,0
44342,-100,4,3,1,45,0,0
45341,-100,4,3,0,55,0,0
45675,-100,4,3,1,45,0,0
46675,-100,4,3,0,55,0,0
47009,-100,4,3,1,45,0,0
48008,-100,4,3,0,55,0,0
48342,-100,4,3,1,45,0,0
49341,-100,4,3,0,55,0,0
49675,-100,4,3,1,45,0,0
50675,-100,4,3,0,55,0,0
51009,-100,4,3,1,45,0,0
52008,-100,4,3,0,55,0,0
52342,-100,4,3,1,45,0,0
53341,-100,4,3,0,55,0,0
53675,-100,4,3,1,45,0,0
54675,-100,4,3,0,55,0,0
55009,-100,4,3,1,45,0,0
56008,-100,4,3,0,55,0,0
56342,-100,4,3,1,45,0,0
57341,333.333333333333,7,1,0,50,1,0
60174,-100,7,1,1,50,0,0
62007,-100,7,1,0,50,0,0
64840,-100,7,1,1,50,0,0
66507,-100,7,3,0,50,0,0
66674,-100,7,1,0,50,0,0
67007,-100,7,1,1,50,0,0
67174,-100,7,1,0,50,0,0
67507,-100,7,1,1,50,0,0
67674,-100,7,1,0,50,0,0
68007,-100,7,1,1,50,0,0
68174,-100,7,1,0,50,0,0
68507,-100,7,1,1,50,0,0
68674,-100,7,1,0,50,0,0
69507,-100,7,1,1,50,0,0
71340,-100,7,1,0,50,0,0
71674,-100,7,1,1,50,0,0
71841,-100,7,1,0,50,0,0
72174,-100,7,1,1,50,0,0
72341,-100,7,1,0,50,0,0
72674,-100,7,1,1,50,0,0
72841,-100,7,1,0,50,0,0
73174,-100,7,1,1,50,0,0
73341,-100,7,1,0,50,0,0
74174,-100,7,1,1,50,0,0
76008,333.333333333333,4,1,1,50,1,0
76341,-100,4,2,0,20,0,0
76674,-100,4,2,0,45,0,0
77008,-100,4,2,0,20,0,0
77341,-100,4,2,0,45,0,0
77674,-100,4,2,0,20,0,0
78007,-100,4,2,0,45,0,0
78341,-100,4,2,0,20,0,0
78674,-100,4,2,0,45,0,0
79341,-100,4,2,0,20,0,0
79674,-100,4,2,0,45,0,0
79841,-100,4,2,0,20,0,0
80008,-100,4,2,0,45,0,0
80341,-100,4,2,0,20,0,0
80674,-100,4,2,0,45,0,0
81008,-100,4,2,0,20,0,0
81341,-100,4,2,0,45,0,0
81674,-100,4,2,0,20,0,0
82007,-100,4,2,0,45,0,0
82341,-100,4,2,0,20,0,0
82674,-100,4,2,0,45,0,0
83008,-100,4,2,0,20,0,0
83341,-100,4,2,0,45,0,0
83674,-100,4,2,0,20,0,0
84007,-100,4,2,0,45,0,0
84341,-100,4,2,0,20,0,0
84674,-100,4,2,0,45,0,0
84841,-100,4,2,0,20,0,0
84924,-100,4,2,0,45,0,0
85091,-100,4,2,0,20,0,0
85174,-100,4,2,0,45,0,0
85257,-100,4,2,0,20,0,0
85341,-100,4,2,0,45,0,0
85674,-100,4,2,0,20,0,0
86007,-100,4,2,0,45,0,0
86341,-100,4,2,0,20,0,0
86674,-100,4,2,2,50,0,0
94674,-100,4,2,1,50,0,0
97007,-100,4,2,1,70,0,0
97341,-100,4,1,1,60,0,1
98716,-100,4,3,0,60,0,1
98841,-100,4,1,1,60,0,1
98882,-100,4,3,0,60,0,1
99007,-100,4,1,1,60,0,1
99132,-100,4,3,0,60,0,1
99257,-100,4,1,1,60,0,1
118591,-100,4,1,1,60,0,0

[Colours]
Combo1 : 255,255,0
Combo2 : 243,89,34
Combo3 : 112,196,193
Combo4 : 128,255,0

[HitObjects]
272,192,1008,5,2,0:0:0:0:
240,144,1092,1,0,0:0:0:0:
272,96,1175,1,0,0:0:0:0:
336,96,1258,1,0,0:0:0:0:
448,96,1342,2,0,L|448:192,1,95,2|0,0:0|0:0,0:0:0:0:
336,192,1675,1,2,0:0:0:0:
448,192,1841,1,2,0:0:0:0:
64,192,2508,6,0,L|64:144,1,47.5,2|0,0:0|0:0,0:0:0:0:
176,96,2675,2,0,L|176:192,1,95,2|0,0:0|0:0,0:0:0:0:
64,192,3008,1,2,0:0:0:0:
176,192,3175,1,2,0:0:0:0:
464,192,3675,5,2,0:0:0:0:
496,144,3758,1,0,0:0:0:0:
464,96,3841,1,0,0:0:0:0:
400,96,3925,1,0,0:0:0:0:
288,96,4008,2,0,L|288:192,1,95,2|0,0:0|0:0,0:0:0:0:
400,192,4341,1,2,0:0:0:0:
288,192,4508,1,2,0:0:0:0:
96,192,4841,6,0,L|48:192,2,47.5,2|0|2,0:0|0:0|0:0,0:0:0:0:
208,192,5175,1,2,0:0:0:0:
480,192,5508,1,2,0:0:0:0:
288,64,5841,2,0,P|236:164|288:320,1,285,2|2,0:0|0:0,0:0:0:0:
352,320,6425,1,0,0:0:0:0:
352,256,6508,1,0,0:0:0:0:
288,256,6591,1,0,0:0:0:0:
144,192,6675,6,0,L|128:96,1,95,14|0,0:0|0:0,0:0:0:0:
256,64,7008,1,2,0:0:0:0:
128,96,7175,2,0,L|112:192,1,95,10|0,0:0|0:0,0:0:0:0:
240,224,7508,1,2,0:0:0:0:
112,192,7675,2,0,L|112:144,1,47.5,10|0,0:0|0:0,0:0:0:0:
176,112,7841,1,0,0:0:0:0:
352,112,8008,6,0,L|256:112,2,95,10|0|2,0:0|0:0|0:0,0:0:0:0:
224,192,8508,2,0,L|224:144,1,47.5,10|0,0:0|0:0,0:0:0:0:
288,112,8675,1,0,0:0:0:0:
416,192,8841,1,10,0:0:0:0:
288,192,9008,2,0,L|288:240,1,47.5,2|0,0:0|0:0,0:0:0:0:
352,192,9175,2,0,L|352:240,1,47.5,8|0,0:0|0:0,0:0:0:0:
208,192,9341,6,0,L|192:288,1,95,10|0,0:0|0:0,0:0:0:0:
320,320,9675,1,2,0:0:0:0:
192,288,9841,2,0,L|176:192,1,95,10|0,0:0|0:0,0:0:0:0:
304,192,10175,1,2,0:0:0:0:
176,192,10341,1,10,0:0:0:0:
352,192,10508,6,0,L|368:96,1,95,10|0,0:0|0:0,0:0:0:0:
240,64,10841,1,2,0:0:0:0:
368,96,11008,2,0,L|384:192,1,95,10|0,0:0|0:0,0:0:0:0:
256,192,11341,2,0,L|256:240,1,47.5,10|0,0:0|0:0,0:0:0:0:
320,272,11508,1,0,0:0:0:0:
448,192,11675,1,10,0:0:0:0:
320,112,11841,1,8,0:0:0:0:
64,192,12008,5,8,0:0:0:0:
256,192,12175,12,0,13175,0:0:0:0:
224,192,13341,5,8,0:0:0:0:
256,192,13508,12,0,13841,0:0:0:0:
368,192,14008,5,8,0:0:0:0:
144,192,14341,2,0,L|144:144,1,47.5,8|0,0:0|0:0,0:0:0:0:
208,192,14508,2,0,L|208:144,1,47.5,8|0,0:0|0:0,0:0:0:0:
64,224,14675,5,6,0:0:0:0:
32,176,14758,1,0,0:0:0:0:
64,128,14841,1,0,0:0:0:0:
128,128,14925,1,0,0:0:0:0:
272,128,15008,1,8,0:0:0:0:
336,128,15091,1,0,0:0:0:0:
272,128,15175,1,0,0:0:0:0:
208,128,15258,1,0,0:0:0:0:
352,128,15341,6,0,L|368:224,1,95,0|2,0:0|0:0,0:0:0:0:
192,288,15675,2,0,L|288:288,1,95,8|0,0:0|0:0,0:0:0:0:
32,192,16008,6,0,L|32:96,1,95,2|0,0:0|0:0,0:0:0:0:
96,96,16258,1,0,0:0:0:0:
240,96,16341,2,0,L|304:96,2,63.3333333333333,8|0|0,0:0|0:0|0:0,0:0:0:0:
128,192,16675,6,0,L|224:192,1,95,0|2,0:0|0:0,0:0:0:0:
400,96,17008,1,8,0:0:0:0:
419,109,17050,1,0,0:0:0:0:
432,129,17091,1,0,0:0:0:0:
436,152,17133,1,0,0:0:0:0:
432,175,17175,1,0,0:0:0:0:
419,194,17216,1,0,0:0:0:0:
399,208,17258,1,0,0:0:0:0:
256,208,17341,6,0,L|240:112,1,95,2|0,0:0|0:0,0:0:0:0:
240,80,17591,1,0,0:0:0:0:
336,80,17675,1,8,0:0:0:0:
464,192,17841,6,0,L|480:96,1,95
480,64,18091,1,0,0:0:0:0:
336,64,18175,2,0,L|432:64,2,95,2|8|0,0:0|0:0|0:0,0:0:0:0:
80,320,18675,5,2,0:0:0:0:
61,307,18716,1,0,0:0:0:0:
48,287,18758,1,0,0:0:0:0:
44,264,18800,1,0,0:0:0:0:
48,241,18841,1,0,0:0:0:0:
61,222,18883,1,0,0:0:0:0:
81,208,18925,1,0,0:0:0:0:
176,192,19008,2,0,L|80:192,1,95,8|2,0:0|0:0,0:0:0:0:
336,192,19341,6,0,L|432:192,1,95,0|2,0:0|0:0,0:0:0:0:
176,192,19675,2,0,L|144:192,2,23.75,8|0|0,0:0|0:0|0:0,0:0:0:0:
272,192,19841,2,0,L|304:192,2,23.75,0|0|0,0:0|0:0|0:0,0:0:0:0:
128,64,20008,6,0,L|320:64,1,190,2|8,0:0|0:0,0:0:0:0:
144,192,20508,1,0,0:0:0:0:
320,192,20675,5,0,0:0:0:0:
352,184,20716,1,0,0:0:0:0:
368,160,20758,1,0,0:0:0:0:
372,136,20800,1,0,0:0:0:0:
368,112,20841,1,2,0:0:0:0:
304,112,20925,1,0,0:0:0:0:
160,192,21008,1,8,0:0:0:0:
288,96,21175,5,0,0:0:0:0:
320,96,21216,1,0,0:0:0:0:
352,96,21258,1,0,0:0:0:0:
384,96,21300,1,0,0:0:0:0:
416,96,21341,1,2,0:0:0:0:
384,96,21383,1,0,0:0:0:0:
352,96,21425,1,0,0:0:0:0:
320,96,21466,1,0,0:0:0:0:
288,96,21508,1,0,0:0:0:0:
112,96,21675,5,8,0:0:0:0:
90,104,21716,1,0,0:0:0:0:
71,119,21758,1,0,0:0:0:0:
59,139,21800,1,0,0:0:0:0:
53,163,21841,1,0,0:0:0:0:
54,186,21883,1,0,0:0:0:0:
64,208,21925,1,0,0:0:0:0:
79,226,21966,1,0,0:0:0:0:
99,239,22008,1,0,0:0:0:0:
352,240,22175,6,0,L|384:240,2,23.75,2|0|0,0:0|0:0|0:0,0:0:0:0:
208,192,22341,2,0,L|208:144,1,47.5,8|0,0:0|0:0,0:0:0:0:
304,144,22508,2,0,L|336:144,2,23.75,0|0|0,0:0|0:0|0:0,0:0:0:0:
160,240,22675,6,0,P|128:208|160:128,1,142.5,2|0,0:0|0:0,0:0:0:0:
304,128,23008,1,8,0:0:0:0:
336,128,23050,1,0,0:0:0:0:
308,128,23091,1,0,0:0:0:0:
332,128,23133,1,0,0:0:0:0:
312,128,23175,1,0,0:0:0:0:
328,128,23216,1,0,0:0:0:0:
316,128,23258,1,0,0:0:0:0:
256,128,23341,5,0,0:0:0:0:
432,192,23508,1,2,0:0:0:0:
176,192,23675,1,8,0:0:0:0:
112,192,23758,1,0,0:0:0:0:
112,256,23841,1,0,0:0:0:0:
176,256,23925,1,0,0:0:0:0:
320,256,24008,5,2,0:0:0:0:
384,256,24091,1,0,0:0:0:0:
320,256,24175,1,0,0:0:0:0:
144,192,24341,2,0,L|240:192,1,95,8|2,0:0|0:0,0:0:0:0:
416,192,24675,2,0,L|400:96,1,95,0|2,0:0|0:0,0:0:0:0:
224,96,25008,2,0,L|320:96,1,95,8|0,0:0|0:0,0:0:0:0:
64,160,25341,5,6,0:0:0:0:
32,208,25425,1,0,0:0:0:0:
64,256,25508,1,0,0:0:0:0:
128,256,25591,1,0,0:0:0:0:
272,256,25675,1,8,0:0:0:0:
336,256,25758,1,0,0:0:0:0:
272,256,25841,1,0,0:0:0:0:
208,256,25925,1,0,0:0:0:0:
352,256,26008,6,0,L|368:160,1,95,0|2,0:0|0:0,0:0:0:0:
192,96,26341,2,0,L|288:96,1,95,8|0,0:0|0:0,0:0:0:0:
32,192,26675,6,0,L|32:288,1,95,2|0,0:0|0:0,0:0:0:0:
96,288,26925,1,0,0:0:0:0:
240,304,27008,1,8,0:0:0:0:
259,291,27050,1,0,0:0:0:0:
272,271,27091,1,0,0:0:0:0:
276,248,27133,1,0,0:0:0:0:
272,225,27175,1,0,0:0:0:0:
259,206,27216,1,0,0:0:0:0:
239,192,27258,1,0,0:0:0:0:
96,192,27341,5,0,0:0:0:0:
32,192,27425,1,0,0:0:0:0:
176,192,27508,1,2,0:0:0:0:
240,192,27591,1,0,0:0:0:0:
96,192,27675,2,0,L|80:96,1,95,8|0,0:0|0:0,0:0:0:0:
336,192,28008,6,0,L|352:96,1,95,2|0,0:0|0:0,0:0:0:0:
288,64,28258,1,0,0:0:0:0:
192,64,28341,2,0,L|144:64,2,47.5,8|0|0,0:0|0:0|0:0,0:0:0:0:
288,144,28591,6,0,P|304:112|288:56,1,95,0|0,0:0|0:0,0:0:0:0:
144,64,28841,2,0,L|240:64,2,95,2|8|0,0:0|0:0|0:0,0:0:0:0:
432,64,29341,6,0,L|512:64,2,71.25,2|0|0,0:0|0:0|0:0,0:0:0:0:
336,192,29675,2,0,L|432:192,1,95,8|2,0:0|0:0,0:0:0:0:
256,192,30008,5,0,0:0:0:0:
432,192,30175,1,2,0:0:0:0:
176,192,30341,2,0,L|144:192,2,23.75,8|0|0,0:0|0:0|0:0,0:0:0:0:
272,192,30508,2,0,L|304:192,2,23.75,2|0|0,0:0|0:0|0:0,0:0:0:0:
128,64,30675,6,0,L|112:160,1,95,2|0,0:0|0:0,0:0:0:0:
368,64,31008,1,8,0:0:0:0:
384,80,31050,1,0,0:0:0:0:
390,103,31091,1,0,0:0:0:0:
384,126,31133,1,0,0:0:0:0:
368,143,31175,1,0,0:0:0:0:
192,192,31341,6,0,L|176:96,1,95,2|0,0:0|0:0,0:0:0:0:
432,80,31675,2,0,L|336:80,1,95,8|0,0:0|0:0,0:0:0:0:
336,112,31925,1,0,0:0:0:0:
480,192,32008,6,0,L|385:192,1,95,2|0,0:0|0:0,0:0:0:0:
208,80,32341,2,0,L|144:80,2,63.3333333333333,8|0|0,0:0|0:0|0:0,0:0:0:0:
304,80,32675,6,0,L|304:128,1,47.5,0|0,0:0|0:0,0:0:0:0:
208,80,32841,2,0,L|208:128,1,47.5,2|0,0:0|0:0,0:0:0:0:
352,192,33008,1,8,0:0:0:0:
416,192,33091,1,0,0:0:0:0:
416,256,33175,1,0,0:0:0:0:
352,256,33258,1,0,0:0:0:0:
208,256,33341,5,8,0:0:0:0:
80,256,33508,1,0,0:0:0:0:
64,192,33591,1,0,0:0:0:0:
96,128,33675,1,2,0:0:0:0:
160,128,33758,1,0,0:0:0:0:
304,256,33841,1,8,0:0:0:0:
432,256,34008,1,0,0:0:0:0:
448,192,34091,1,0,0:0:0:0:
416,128,34175,1,2,0:0:0:0:
352,128,34258,1,0,0:0:0:0:
208,256,34341,5,8,0:0:0:0:
80,256,34508,1,0,0:0:0:0:
64,192,34591,1,0,0:0:0:0:
96,128,34675,1,2,0:0:0:0:
160,128,34758,1,0,0:0:0:0:
304,256,34841,5,8,0:0:0:0:
176,256,35008,1,2,0:0:0:0:
160,192,35091,1,0,0:0:0:0:
192,128,35175,1,2,0:0:0:0:
256,128,35258,1,0,0:0:0:0:
400,256,35341,1,8,0:0:0:0:
272,256,35508,2,0,L|272:208,1,47.5,2|0,0:0|0:0,0:0:0:0:
416,192,35675,2,0,L|464:192,1,47.5,2|0,0:0|0:0,0:0:0:0:
320,192,35841,2,0,L|272:192,1,47.5,10|0,0:0|0:0,0:0:0:0:
416,192,36008,6,0,L|432:96,1,95,12|0,0:0|0:0,0:0:0:0:
384,64,36258,1,0,0:0:0:0:
320,64,36341,1,8,0:0:0:0:
144,64,36508,1,2,0:0:0:0:
128,192,36841,1,2,0:0:0:0:
384,192,37008,2,0,L|400:96,1,95,8|0,0:0|0:0,0:0:0:0:
144,192,37341,6,0,L|128:96,1,95,8|0,0:0|0:0,0:0:0:0:
256,80,37675,1,8,0:0:0:0:
80,80,37841,1,2,0:0:0:0:
64,192,38175,1,2,0:0:0:0:
320,192,38341,2,0,L|336:96,1,95,8|0,0:0|0:0,0:0:0:0:
80,192,38675,6,0,L|272:192,1,190,8|8,0:0|0:0,0:0:0:0:
96,80,39175,2,0,L|96:128,1,47.5,2|0,0:0|0:0,0:0:0:0:
160,144,39341,1,2,2:0:0:0:
336,192,39508,1,2,0:0:0:0:
80,192,39675,2,0,L|64:96,1,95,8|0,0:0|0:0,0:0:0:0:
320,96,40008,6,0,P|368:136|368:256,1,190,8|8,0:0|0:0,0:0:0:0:
240,96,40508,1,2,0:0:0:0:
416,192,40675,2,0,L|320:192,1,95,2|2,2:0|0:0,0:0:0:0:
32,192,41008,2,0,L|128:192,1,95,8|0,0:0|0:0,0:0:0:0:
384,192,41341,6,0,L|400:96,1,95,8|0,0:0|0:0,0:0:0:0:
272,80,41675,1,8,0:0:0:0:
96,80,41841,1,2,0:0:0:0:
80,192,42175,1,2,0:0:0:0:
336,192,42341,2,0,L|432:192,1,95,8|0,0:0|0:0,0:0:0:0:
176,192,42675,6,0,L|368:192,1,190,8|8,0:0|0:0,0:0:0:0:
240,192,43175,2,0,L|224:96,1,95,0|2,0:0|2:0,0:0:0:0:
400,96,43508,1,2,0:0:0:0:
144,192,43675,2,0,L|128:96,1,95,8|0,0:0|0:0,0:0:0:0:
384,192,44008,6,0,L|192:192,1,190,8|8,0:0|0:0,0:0:0:0:
320,192,44508,2,0,L|336:96,1,95,2|2,0:0|2:0,0:0:0:0:
160,96,44841,1,2,0:0:0:0:
416,96,45008,1,8,0:0:0:0:
288,96,45175,2,0,L|240:96,1,47.5,0|0,0:0|0:0,0:0:0:0:
384,96,45341,6,0,P|428:172|384:256,1,190,8|8,0:0|0:0,0:0:0:0:
256,256,45841,2,0,L|256:208,1,47.5,2|0,0:0|0:0,0:0:0:0:
320,192,46008,1,2,2:0:0:0:
144,192,46175,1,2,0:0:0:0:
400,192,46341,2,0,L|304:192,1,95,8|0,0:0|0:0,0:0:0:0:
48,80,46675,6,0,L|240:80,1,190,12|8,0:0|0:0,0:0:0:0:
112,96,47175,2,0,P|68:172|112:256,1,190,2|2,0:0|0:0,0:0:0:0:
288,256,47675,2,0,L|192:256,1,95,8|0,0:0|0:0,0:0:0:0:
448,192,48008,6,0,L|256:192,1,190,8|8,0:0|0:0,0:0:0:0:
384,192,48508,2,0,L|384:144,1,47.5,2|0,0:0|0:0,0:0:0:0:
320,112,48675,1,2,2:0:0:0:
144,112,48841,1,2,0:0:0:0:
400,112,49008,2,0,L|304:112,1,95,8|0,0:0|0:0,0:0:0:0:
48,192,49341,6,0,L|240:192,1,190,12|8,0:0|0:0,0:0:0:0:
416,112,49841,2,0,L|224:112,1,190,2|2,0:0|0:0,0:0:0:0:
48,192,50341,2,0,L|144:192,1,95,8|0,0:0|0:0,0:0:0:0:
400,192,50675,6,0,L|384:96,1,95,8|0,0:0|0:0,0:0:0:0:
208,192,51008,2,0,L|192:96,1,95,8|2,0:0|0:0,0:0:0:0:
320,96,51341,1,2,2:0:0:0:
144,96,51508,1,2,0:0:0:0:
400,192,51675,2,0,L|384:96,1,95,8|0,0:0|0:0,0:0:0:0:
128,192,52008,6,0,L|112:96,1,95,12|0,0:0|0:0,0:0:0:0:
176,64,52258,1,0,0:0:0:0:
272,64,52341,1,8,0:0:0:0:
400,64,52508,1,2,0:0:0:0:
464,64,52591,1,0,0:0:0:0:
400,64,52675,1,2,2:0:0:0:
224,192,52841,1,2,0:0:0:0:
480,192,53008,2,0,L|480:144,1,47.5,8|0,0:0|0:0,0:0:0:0:
416,128,53175,1,0,0:0:0:0:
160,192,53341,6,0,L|144:288,1,95,12|0,0:0|0:0,0:0:0:0:
208,320,53591,1,0,0:0:0:0:
304,320,53675,1,8,0:0:0:0:
336,256,53758,1,0,0:0:0:0:
304,192,53841,1,2,0:0:0:0:
240,192,53925,1,0,0:0:0:0:
176,192,54008,1,2,2:0:0:0:
240,192,54091,1,0,0:0:0:0:
336,192,54175,2,0,L|336:144,1,47.5,2|0,0:0|0:0,0:0:0:0:
192,144,54341,2,0,L|144:144,1,47.5,8|0,0:0|0:0,0:0:0:0:
288,144,54508,2,0,L|336:144,1,47.5,2|0,2:0|0:0,0:0:0:0:
192,80,54675,6,0,L|144:80,1,47.5,12|0,0:0|0:0,0:0:0:0:
144,80,54841,1,0,0:0:0:0:
320,80,55008,2,0,L|368:80,1,47.5,8|0,0:0|0:0,0:0:0:0:
367,80,55175,1,0,0:0:0:0:
112,192,55341,2,0,L|208:192,1,95,8|0,0:0|0:0,0:0:0:0:
384,192,55675,2,0,L|288:192,1,95,8|0,0:0|0:0,0:0:0:0:
289,192,55925,1,0,0:0:0:0:
432,192,56008,6,0,L|416:96,1,95,12|2,0:0|0:0,0:0:0:0:
240,192,56341,2,0,L|224:96,1,95,8|2,0:0|0:0,0:0:0:0:
288,80,56591,1,0,0:0:0:0:
432,80,56675,1,8,0:0:0:0:
496,128,56758,1,0,0:0:0:0:
496,192,56841,1,2,0:0:0:0:
432,240,56925,1,0,0:0:0:0:
288,240,57008,2,0,L|240:240,1,47.5,8|0,0:0|0:0,0:0:0:0:
384,240,57175,2,0,L|384:192,1,47.5,2|0,0:0|0:0,0:0:0:0:
240,192,57341,6,0,L|256:96,1,95,12|0,0:0|0:0,0:0:0:0:
384,96,57674,1,0,0:0:0:0:
128,96,57841,2,0,L|224:96,2,95,8|0|0,0:0|0:0|0:0,0:0:0:0:
384,192,58341,6,0,L|400:288,1,95,8|0,0:0|0:0,0:0:0:0:
272,288,58674,1,0,0:0:0:0:
16,192,58841,2,0,L|112:192,2,95,8|0|0,0:0|0:0|0:0,0:0:0:0:
272,192,59341,2,0,L|176:192,1,95,8|0,0:0|0:0,0:0:0:0:
432,192,59674,6,0,L|448:96,1,95,8|0,0:0|0:0,0:0:0:0:
320,80,60007,1,0,0:0:0:0:
144,80,60174,2,0,L|96:80,2,47.5,8|0|0,0:0|0:0|0:0,0:0:0:0:
272,80,60507,1,2,0:0:0:0:
80,192,60674,6,0,L|176:192,2,95,8|0|2,0:0|0:0|0:0,0:0:0:0:
256,192,61174,1,8,0:0:0:0:
384,192,61340,2,0,L|384:96,1,95,0|2,0:0|0:0,0:0:0:0:
128,96,61674,1,8,0:0:0:0:
16,96,61840,1,0,0:0:0:0:
272,192,62007,6,0,L|256:96,1,95,12|0,0:0|0:0,0:0:0:0:
128,96,62340,1,0,0:0:0:0:
384,96,62507,2,0,L|288:96,2,95,8|0|0,0:0|0:0|0:0,0:0:0:0:
128,192,63007,6,0,L|112:288,1,95,8|0,0:0|0:0,0:0:0:0:
240,288,63340,1,0,0:0:0:0:
496,192,63507,2,0,L|400:192,2,95,8|0|0,0:0|0:0|0:0,0:0:0:0:
240,192,64007,2,0,L|336:192,1,95,8|0,0:0|0:0,0:0:0:0:
80,192,64340,6,0,L|64:96,1,95,8|0,0:0|0:0,0:0:0:0:
192,80,64674,1,0,0:0:0:0:
368,80,64840,2,0,L|416:80,2,47.5,8|0|0,0:0|0:0|0:0,0:0:0:0:
240,80,65174,1,2,0:0:0:0:
416,288,65340,6,0,L|400:192,1,95,8|0,0:0|0:0,0:0:0:0:
144,192,65674,2,0,L|128:96,1,95,8|2,0:0|0:0,0:0:0:0:
384,192,66007,2,0,L|368:96,1,95,8|2,0:0|0:0,0:0:0:0:
112,192,66340,2,0,L|208:192,1,95,8|8,0:0|0:0,0:0:0:0:
256,192,66590,1,8,0:0:0:0:
112,192,66674,6,0,L|96:96,1,95,12|0,0:0|0:0,0:0:0:0:
160,80,66924,1,0,0:0:0:0:
96,64,67007,1,2,0:0:0:0:
352,192,67174,2,0,L|368:96,1,95,8|0,0:0|0:0,0:0:0:0:
304,80,67424,1,0,0:0:0:0:
368,64,67507,1,2,0:0:0:0:
112,192,67674,6,0,L|96:96,1,95,8|0,0:0|0:0,0:0:0:0:
160,80,67924,1,0,0:0:0:0:
224,64,68007,1,2,0:0:0:0:
480,192,68174,2,0,L|496:96,1,95,8|0,0:0|0:0,0:0:0:0:
432,80,68424,1,0,0:0:0:0:
368,64,68507,1,2,0:0:0:0:
112,192,68674,2,0,L|208:192,1,95,8|0,0:0|0:0,0:0:0:0:
256,192,68924,1,0,0:0:0:0:
112,192,69007,6,0,L|96:96,1,95,8|0,0:0|0:0,0:0:0:0:
224,80,69340,1,0,0:0:0:0:
400,80,69507,2,0,L|448:80,2,47.5,8|0|0,0:0|0:0|0:0,0:0:0:0:
272,80,69840,1,2,0:0:0:0:
448,192,70007,6,0,L|352:192,1,95,8|0,0:0|0:0,0:0:0:0:
384,144,70257,1,0,0:0:0:0:
448,144,70340,1,8,0:0:0:0:
272,192,70507,1,2,0:0:0:0:
144,192,70674,2,0,L|144:96,1,95,8|2,0:0|0:0,0:0:0:0:
400,96,71007,1,8,0:0:0:0:
464,96,71090,1,0,0:0:0:0:
496,144,71174,1,2,0:0:0:0:
464,192,71257,1,0,0:0:0:0:
320,192,71340,5,12,0:0:0:0:
192,192,71507,1,8,2:0:0:0:
256,192,71590,1,0,0:0:0:0:
320,192,71674,1,2,0:0:0:0:
64,112,71840,1,8,0:0:0:0:
192,112,72007,1,8,2:0:0:0:
128,112,72090,1,0,0:0:0:0:
64,112,72174,1,2,0:0:0:0:
320,112,72340,6,0,L|336:160,1,47.5,8|0,0:0|0:0,0:0:0:0:
272,112,72507,2,0,L|256:160,1,47.5,10|0,2:0|0:0,0:0:0:0:
320,112,72674,1,2,0:0:0:0:
64,112,72840,2,0,L|80:160,1,47.5,8|0,0:0|0:0,0:0:0:0:
144,112,73007,2,0,L|128:160,1,47.5,8|0,2:0|0:0,0:0:0:0:
64,112,73174,1,2,0:0:0:0:
320,112,73340,1,8,0:0:0:0:
192,112,73507,2,0,L|240:112,1,47.5,0|0,0:0|0:0,0:0:0:0:
384,144,73674,5,8,0:0:0:0:
448,144,73757,1,0,0:0:0:0:
448,208,73840,1,0,0:0:0:0:
384,208,73924,1,0,0:0:0:0:
240,208,74007,2,0,L|240:160,1,47.5,0|0,0:0|0:0,0:0:0:0:
384,160,74174,2,0,L|432:160,1,47.5,8|0,0:0|0:0,0:0:0:0:
288,160,74340,2,0,L|272:112,1,47.5,2|0,0:0|0:0,0:0:0:0:
336,160,74507,2,0,L|352:112,1,47.5,2|0,0:0|0:0,0:0:0:0:
208,224,74674,2,0,L|160:224,1,47.5,8|0,0:0|0:0,0:0:0:0:
224,272,74840,2,0,L|272:272,1,47.5,2|0,0:0|0:0,0:0:0:0:
128,192,75007,6,0,P|112:176|128:112,1,95,10|0,0:0|0:0,0:0:0:0:
224,192,75257,2,0,P|240:176|224:112,1,95,10|0,0:0|0:0,0:0:0:0:
80,192,75507,2,0,P|64:176|80:112,1,95,10|0,0:0|0:0,0:0:0:0:
224,192,75757,2,0,L|272:192,2,47.5,10|0|0,0:0|0:0|0:0,0:0:0:0:
32,192,76007,5,14,0:0:0:0:
256,192,85341,12,0,86341,0:0:0:0:
208,288,86674,6,0,P|176:160|272:112,1,253.333333333333,6|0,0:0|0:0,0:0:0:0:
416,288,87341,2,0,P|436:200|416:104,1,190,2|0,0:0|0:0,0:0:0:0:
160,96,88007,6,0,B|350:96|350:96|160:96,1,380,2|2,0:0|0:0,0:0:0:0:
160,96,88841,1,0,0:0:0:0:
272,192,89007,2,0,L|272:96,1,95,0|0,0:0|0:0,0:0:0:0:
144,96,89341,6,0,L|48:96,1,95,2|0,0:0|0:0,0:0:0:0:
49,192,89674,2,0,L|144:192,1,95,0|0,0:0|0:0,0:0:0:0:
256,192,90007,2,0,L|64:192,1,190,0|2,0:0|0:0,0:0:0:0:
320,288,90674,6,0,P|340:200|208:80,1,285,2|0,0:0|0:0,0:0:0:0:
98,192,91341,2,0,L|288:192,1,190,2|0,0:0|0:0,0:0:0:0:
176,192,91841,1,0,0:0:0:0:
304,192,92007,6,0,L|432:192,2,126.666666666667,2|0|0,0:0|0:0|0:0,0:0:0:0:
160,288,92674,2,0,P|140:200|160:104,1,190,0|0,0:0|0:0,0:0:0:0:
416,112,93341,6,0,B|36:112|36:112|416:112,1,760,2|6,0:0|0:0,0:0:0:0:
256,192,94841,12,0,95841,0:0:0:0:
320,192,96007,6,0,L|336:96,1,95,10|0,0:0|0:0,0:0:0:0:
304,64,96257,1,0,0:0:0:0:
240,64,96341,1,8,0:0:0:0:
112,192,96507,1,0,0:0:0:0:
176,192,96591,1,0,0:0:0:0:
112,192,96674,5,8,0:0:0:0:
48,192,96757,1,2,0:0:0:0:
48,128,96841,1,8,0:0:0:0:
112,128,96924,1,2,0:0:0:0:
256,128,97007,1,14,0:0:0:0:
320,128,97091,1,2,0:0:0:0:
176,192,97174,1,2,0:0:0:0:
240,192,97257,1,2,0:0:0:0:
384,192,97341,6,0,P|400:176|384:112,1,95,10|0,0:0|0:0,0:0:0:0:
288,192,97591,2,0,P|272:176|288:112,1,95,10|0,0:0|0:0,0:0:0:0:
432,192,97841,2,0,P|448:176|432:112,1,95,10|0,0:0|0:0,0:0:0:0:
336,192,98091,2,0,P|320:176|336:112,1,95,10|0,0:0|0:0,0:0:0:0:
480,192,98341,2,0,L|384:192,2,95,10|10|0,0:0|0:0|0:0,0:0:0:0:
224,192,98841,6,0,L|176:192,2,47.5,10|0|0,0:0|0:0|0:0,0:0:0:0:
320,192,99091,2,0,L|368:192,2,47.5,10|0|0,0:0|0:0|0:0,0:0:0:0:
176,192,99341,1,10,0:0:0:0:
112,192,99424,2,0,L|112:144,1,47.5,0|0,0:0|0:0,0:0:0:0:
256,144,99591,1,10,0:0:0:0:
320,144,99674,2,0,L|320:96,1,47.5,0|0,0:0|0:0,0:0:0:0:
176,96,99841,1,10,0:0:0:0:
112,96,99924,1,0,0:0:0:0:
256,192,100007,6,0,L|272:96,1,95,12|0,0:0|0:0,0:0:0:0:
144,96,100341,1,0,0:0:0:0:
400,96,100507,2,0,L|400:144,1,47.5,2|0,0:0|0:0,0:0:0:0:
256,192,100674,2,0,L|240:96,1,95,8|0,0:0|0:0,0:0:0:0:
416,256,101007,2,0,L|416:208,1,47.5
352,192,101174,1,0,0:0:0:0:
96,192,101341,5,2,0:0:0:0:
32,192,101424,2,0,P|16:176|32:112,1,95,0|0,0:0|0:0,0:0:0:0:
176,112,101674,2,0,L|192:64,1,47.5,8|0,0:0|0:0,0:0:0:0:
128,112,101841,2,0,L|112:64,1,47.5,0|0,0:0|0:0,0:0:0:0:
256,112,102007,2,0,L|272:64,1,47.5,8|0,0:0|0:0,0:0:0:0:
208,160,102174,2,0,L|192:112,1,47.5,2|0,0:0|0:0,0:0:0:0:
336,192,102341,2,0,L|384:192,1,47.5,8|0,0:0|0:0,0:0:0:0:
240,192,102507,2,0,L|192:192,1,47.5,2|0,0:0|0:0,0:0:0:0:
336,192,102674,6,0,P|352:176|336:112,1,95,8|0,0:0|0:0,0:0:0:0:
272,112,102924,1,0,0:0:0:0:
416,112,103007,1,2,0:0:0:0:
320,192,103174,2,0,P|304:208|320:272,1,95,8|0,0:0|0:0,0:0:0:0:
384,272,103424,1,0,0:0:0:0:
240,272,103507,1,2,0:0:0:0:
336,192,103674,1,8,0:0:0:0:
208,192,103841,2,0,L|160:192,1,47.5,2|0,0:0|0:0,0:0:0:0:
304,192,104007,5,8,0:0:0:0:
368,192,104091,1,0,0:0:0:0:
400,144,104174,1,0,0:0:0:0:
368,96,104257,1,0,0:0:0:0:
224,288,104341,1,8,0:0:0:0:
192,240,104424,1,0,0:0:0:0:
224,192,104507,1,0,0:0:0:0:
288,192,104591,1,0,0:0:0:0:
352,192,104674,1,8,0:0:0:0:
288,192,104757,1,0,0:0:0:0:
144,192,104841,1,2,0:0:0:0:
80,192,104924,1,0,0:0:0:0:
144,192,105007,1,8,0:0:0:0:
208,192,105091,1,0,0:0:0:0:
352,192,105174,1,2,0:0:0:0:
288,192,105257,1,0,0:0:0:0:
144,64,105341,5,10,0:0:0:0:
80,64,105424,1,0,0:0:0:0:
144,64,105507,1,0,0:0:0:0:
288,64,105591,1,10,0:0:0:0:
352,64,105674,2,0,L|352:112,1,47.5,0|0,0:0|0:0,0:0:0:0:
208,320,105841,1,10,0:0:0:0:
144,320,105924,1,0,0:0:0:0:
208,320,106007,1,0,0:0:0:0:
352,320,106091,1,10,0:0:0:0:
416,320,106174,2,0,L|416:272,1,47.5,0|0,0:0|0:0,0:0:0:0:
272,192,106341,2,0,L|272:144,1,47.5,10|0,0:0|0:0,0:0:0:0:
416,96,106507,1,10,0:0:0:0:
352,96,106591,1,2,0:0:0:0:
208,96,106674,5,8,0:0:0:0:
144,96,106757,1,0,0:0:0:0:
208,96,106841,1,0,0:0:0:0:
352,96,106924,2,0,L|400:144,2,47.5,8|0|0,0:0|0:0|0:0,0:0:0:0:
256,192,107174,1,8,0:0:0:0:
192,192,107257,1,0,0:0:0:0:
256,192,107341,1,0,0:0:0:0:
400,192,107424,2,0,L|448:240,2,47.5,8|0|0,0:0|0:0|0:0,0:0:0:0:
304,192,107674,2,0,L|304:144,1,47.5,8|0,0:0|0:0,0:0:0:0:
448,80,107841,2,0,L|496:80,1,47.5,2|2,0:0|0:0,0:0:0:0:
352,80,108007,6,0,L|208:80,1,142.5,10|10,0:0|0:0,0:0:0:0:
464,192,108507,1,10,0:0:0:0:
209,304,108757,2,0,L|352:304,1,142.5,10|10,0:0|0:0,0:0:0:0:
96,192,109174,6,0,P|80:176|96:112,1,95,14|8,0:0|0:0,0:0:0:0:
160,64,109424,1,0,0:0:0:0:
256,64,109507,1,0,0:0:0:0:
320,64,109591,1,0,0:0:0:0:
320,128,109674,1,8,0:0:0:0:
256,128,109757,1,0,0:0:0:0:
160,216,109841,2,0,L|160:168,1,47.5
256,256,110007,1,8,0:0:0:0:
320,256,110091,1,0,0:0:0:0:
320,320,110174,1,8,0:0:0:0:
256,320,110257,1,0,0:0:0:0:
112,320,110341,2,0,L|112:272,1,47.5,8|2,0:0|0:0,0:0:0:0:
256,192,110507,1,8,0:0:0:0:
320,192,110591,1,2,0:0:0:0:
176,80,110674,6,0,L|32:80,1,142.5,10|10,0:0|0:0,0:0:0:0:
384,192,111174,1,10,0:0:0:0:
33,304,111424,2,0,L|176:304,1,142.5,10|10,0:0|0:0,0:0:0:0:
432,192,111841,6,0,P|448:176|432:112,1,95,6|8,0:0|0:0,0:0:0:0:
368,64,112091,1,0,0:0:0:0:
432,65,112174,2,0,L|432:113,1,47.5,0|0,0:0|0:0,0:0:0:0:
368,112,112341,1,2,0:0:0:0:
112,192,112507,2,0,L|96:144,1,47.5,8|0,0:0|0:0,0:0:0:0:
160,192,112674,2,0,L|176:144,1,47.5,0|0,0:0|0:0,0:0:0:0:
112,192,112841,1,2,0:0:0:0:
368,272,113007,2,0,L|416:272,1,47.5,8|0,0:0|0:0,0:0:0:0:
272,192,113174,2,0,L|208:192,1,47.5,2|0,0:0|0:0,0:0:0:0:
368,192,113341,5,8,0:0:0:0:
496,192,113507,1,0,0:0:0:0:
240,64,113674,1,10,0:0:0:0:
176,64,113757,1,0,0:0:0:0:
240,64,113841,2,0,L|256:112,2,47.5,2|0|10,0:0|0:0|0:0,0:0:0:0:
176,64,114091,1,0,0:0:0:0:
112,64,114174,1,2,0:0:0:0:
176,64,114257,1,0,0:0:0:0:
320,192,114341,6,0,P|336:208|320:272,1,95,10|2,0:0|0:0,0:0:0:0:
256,320,114591,1,0,0:0:0:0:
112,320,114674,1,10,0:0:0:0:
48,320,114757,1,0,0:0:0:0:
112,320,114841,1,0,0:0:0:0:
256,192,114924,1,10,0:0:0:0:
320,192,115007,1,0,0:0:0:0:
256,192,115091,1,0,0:0:0:0:
112,192,115174,1,10,0:0:0:0:
48,192,115257,1,0,0:0:0:0:
208,128,115341,5,10,0:0:0:0:
272,128,115424,1,0,0:0:0:0:
272,64,115507,1,10,0:0:0:0:
208,64,115591,1,0,0:0:0:0:
144,64,115674,1,8,0:0:0:0:
208,64,115757,1,0,0:0:0:0:
352,64,115841,1,10,0:0:0:0:
416,64,115924,1,0,0:0:0:0:
272,192,116007,6,0,L|256:96,1,95,8|2,0:0|0:0,0:0:0:0:
432,192,116341,2,0,L|432:144,1,47.5,8|0,0:0|0:0,0:0:0:0:
288,192,116507,2,0,L|240:192,1,47.5,2|0,0:0|0:0,0:0:0:0:
304,192,116674,2,0,L|352:192,1,47.5,8|0,0:0|0:0,0:0:0:0:
288,192,116841,2,0,L|240:192,1,47.5,2|0,0:0|0:0,0:0:0:0:
384,192,117007,2,0,P|400:208|384:272,1,95,10|2,0:0|0:0,0:0:0:0:
240,272,117257,2,0,L|192:272,1,47.5,10|0,0:0|0:0,0:0:0:0:
336,192,117424,6,0,P|352:176|336:112,1,95,10|0,0:0|0:0,0:0:0:0:
192,192,117674,2,0,P|176:176|192:112,1,95,10|0,0:0|0:0,0:0:0:0:
336,192,117924,2,0,L|432:192,1,95,10|0,0:0|0:0,0:0:0:0:
288,192,118174,1,10,0:0:0:0:
224,192,118257,1,0,0:0:0:0:
224,128,118341,1,0,0:0:0:0:
368,96,118424,1,10,0:0:0:0:
432,96,118507,1,0,0:0:0:0:
288,96,118591,1,14,0:0:0:0:
