osu file format v14

[General]
AudioFilename: audio.mp3
AudioLeadIn: 0
PreviewTime: 35923
Countdown: 0
SampleSet: Soft
StackLeniency: 0.7
Mode: 0
LetterboxInBreaks: 0
WidescreenStoryboard: 1

[Editor]
Bookmarks: 6673,14673,36006,57339,76339,76464,76631,76756,76923,77048,77214,77381,77506,77673,77839,77964,78173,78298,78464,78589,78756,78881,79048,79214,79339,79506,79631,79798,79964,80089,80256,80423,80548,80756,80923,81048,81214,81381,81548,81714,81881,82048,82256,82381,82589,82714,82881,83048,83214,83381,83506,83673,83839,84006,84173,84339,84506,84673,84839,84964,85131,85298,85464,85631,85839,86006,86173,86339,86548,86673,97339
DistanceSpacing: 1.1
BeatDivisor: 8
GridSize: 16
TimelineZoom: 3.699999

[Metadata]
Title:Eeliaas
TitleUnicode:Eeliaas
Artist:Mitsuki
ArtistUnicode:ミツキ
Creator:Ascended
Version:atlas' Insane
Source:Muse Dash
Tags:りにゃ Rinya Elias Eelias Eliaas Mitsuboshi Records ミツボシレコーズ 3rd EP Defeated Memorial Video Game Electronic Instrumental techno artcore -ascended- -_ascended_- Flask Down atlas- atlas aeniko osu! mappers guild mpg fa featured artist showcase
BeatmapID:3570951
BeatmapSetID:1737106

[Difficulty]
HPDrainRate:5
CircleSize:3.8
OverallDifficulty:7
ApproachRate:9
SliderMultiplier:1.9
SliderTickRate:1

[Events]
//Background and Video events
0,0,"homo.jpg",0,0
//Break Periods
2,76225,86091
//Storyboard Layer 0 (Background)
//Storyboard Layer 1 (Fail)
//Storyboard Layer 2 (Pass)
//Storyboard Layer 3 (Foreground)
//Storyboard Layer 4 (Overlay)
//Storyboard Sound Samples

[TimingPoints]
1025,333.333333333333,4,2,1,30,1,0
1359,333.333333333333,4,2,1,30,1,0
1858,-133.333333333333,4,2,1,30,0,0
6692,-133.333333333333,4,2,1,40,0,0
12025,-133.333333333333,4,2,1,50,0,0
14692,-80,4,2,1,70,0,0
16692,-66.6666666666667,4,2,1,70,0,0
18692,-80,4,2,1,70,0,0
19692,-62.5,4,2,1,70,0,0
20358,-80,4,2,1,70,0,0
25692,-66.6666666666667,4,2,1,70,0,0
26525,-100,4,2,1,70,0,0
26692,-80,4,2,1,70,0,0
30692,-71.4285714285714,4,2,1,70,0,0
34858,-76.9230769230769,4,2,1,70,0,0
36025,-86.9565217391304,4,2,1,55,0,0
57339,-86.9565217391304,4,2,1,55,0,0
57358,333.333333333333,7,2,1,60,1,0
57358,-86.9565217391304,4,2,1,60,0,0
66507,-86.9565217391304,4,2,1,60,0,0
66525,-86.9565217391304,4,2,1,65,0,0
75005,-76.9230769230769,4,2,1,65,0,0
76025,333.333333333333,4,2,1,65,1,0
86691,-133.333333333333,4,2,1,40,0,0
86713,-133.333333333333,4,2,1,40,0,0
94693,-133.333333333333,4,2,1,50,0,0
94713,-133.333333333333,4,2,1,50,0,0
96026,-133.333333333333,4,2,1,50,0,0
96693,-133.333333333333,4,2,1,70,0,0
96713,-133.333333333333,4,2,1,70,0,0
97356,-66.6666666666667,4,2,1,60,0,0
97378,-66.6666666666667,4,2,1,60,0,0
100025,-66.6666666666667,4,2,1,70,0,0
100045,-66.6666666666667,4,2,1,70,0,0

[Colours]
Combo1 : 149,149,255
Combo2 : 217,217,255

[HitObjects]
42,365,1025,6,0,L|31:311,1,47.5
118,281,1191,2,0,L|129:227,1,47.5
50,172,1359,5,2,2:2:0:0:
136,151,1525,1,2,2:2:0:0:
218,136,1692,1,2,2:2:0:0:
179,42,1858,6,0,B|254:5|298:67|286:75|267:90|327:158|394:105,1,249.375009512902,2|0,2:2|0:0,0:0:0:0:
447,58,2525,5,0,0:0:0:0:
450,64,2608,1,0,0:0:0:0:
453,70,2692,1,2,2:2:0:0:
472,153,2858,1,2,2:2:0:0:
486,237,3025,1,2,2:2:0:0:
394,210,3192,6,0,B|268:236|268:236|295:239|314:258,1,178.12500679493,2|0,2:2|0:0,0:0:0:0:
351,333,3692,6,0,B|332:356|331:356|316:355,1,35.625001358986
315,364,3858,2,0,B|285:366|284:366|274:354,1,35.625001358986
116,264,4025,5,2,2:2:0:0:
216,286,4192,1,2,2:2:0:0:
116,264,4358,1,2,2:2:0:0:
193,196,4525,6,0,P|183:99|176:62,1,124.687504756451,2|0,2:2|0:0,0:0:0:0:
224,10,4858,1,2,2:2:0:0:
236,16,4942,1,2,2:2:0:0:
245,26,5025,1,2,2:2:0:0:
95,77,5192,5,2,2:2:0:0:
277,125,5525,1,2,2:2:0:0:
456,178,5858,1,2,2:2:0:0:
381,370,6358,6,0,L|374:319,3,35.625001358986
315,269,6692,5,2,2:2:0:0:
278,362,6858,1,2,2:2:0:0:
315,269,7025,2,0,P|269:273|258:275,1,35.625001358986,2|0,2:3|0:0,0:0:0:0:
219,223,7192,2,0,P|173:213|96:199,1,106.875004076958,2|0,2:2|0:0,0:0:0:0:
114,202,7525,1,2,2:3:0:0:
265,142,7692,6,0,L|268:98,3,35.625001358986,2|2|2|2,2:2|2:2|2:2|2:2,0:0:0:0:
315,44,8025,6,0,P|354:82|349:112,2,71.2500027179719,2|2|2,2:2|2:2|2:3,0:0:0:0:
215,18,8525,2,0,P|169:30|59:42,1,142.500005435944,2|2,2:2|2:2,0:0:0:0:
28,106,9025,1,2,2:2:0:0:
28,106,9108,1,2,2:2:0:0:
28,106,9192,2,0,P|51:144|54:153,1,35.625001358986,2|2,2:3|2:2,0:0:0:0:
107,188,9358,5,2,2:2:0:0:
96,271,9525,1,2,2:2:0:0:
88,353,9692,1,2,2:3:0:0:
179,301,9858,6,0,B|261:292|229:240|318:238,1,142.500005435944,2|2,2:2|2:3,0:0:0:0:
384,238,10358,1,2,2:2:0:0:
384,238,10525,2,0,P|400:201|339:164,1,106.875004076958,2|0,2:2|0:0,0:0:0:0:
356,160,10858,1,2,2:2:0:0:
289,118,11025,2,0,L|306:31,1,71.2500027179719,2|0,2:3|0:0,0:0:0:0:
378,10,11358,5,2,2:2:0:0:
378,10,11442,1,0,0:0:0:0:
378,10,11525,1,0,0:0:0:0:
494,57,11692,2,0,P|487:122|484:204,1,142.500005435944,2|6,2:2|1:2,0:0:0:0:
484,199,13358,5,2,1:2:0:0:
484,199,14025,5,2,1:2:0:0:
369,205,14358,5,0,1:1:0:0:
360,202,14442,1,0,1:1:0:0:
353,201,14525,1,0,1:1:0:0:
345,199,14608,1,0,1:1:0:0:
332,199,14692,6,0,L|133:229,1,178.125,6|0,1:2|0:0,0:0:0:0:
85,202,15025,2,0,P|124:153|148:153,1,59.375,10|2,2:2|2:2,0:0:0:0:
197,144,15192,1,2,2:2:0:0:
124,44,15358,6,0,B|179:50|179:50|184:56|184:56|191:51|191:51|255:59,2,118.75,2|2|8,2:3|1:2|2:2,0:0:0:0:
300,122,15858,2,0,L|378:107,1,59.375
438,113,16025,6,0,B|450:174|405:188|399:186|390:184|350:210|374:270,1,178.125,0|0,1:1|0:0,0:0:0:0:
360,333,16358,1,8,2:2:0:0:
371,337,16470,1,2,2:2:0:0:
371,337,16581,1,2,2:2:0:0:
372,352,16692,6,0,L|200:374,1,142.500005435944,2|2,2:3|1:2,0:0:0:0:
230,370,17025,6,0,B|212:268|302:230|302:230|298:260|334:312,1,213.750008153916,8|0,2:2|0:0,0:0:0:0:
309,269,17358,6,0,P|368:250|391:248,1,71.2500027179719,2|0,1:3|0:0,0:0:0:0:
430,190,17525,2,0,P|414:153|388:140,2,71.2500027179719,0|2|10,0:0|2:2|2:2,0:0:0:0:
282,149,17858,6,0,P|285:63|292:-26,1,142.500005435944,2|2,2:3|2:2,0:0:0:0:
288,6,18108,1,2,2:2:0:0:
288,6,18192,1,2,1:2:0:0:
125,140,18358,6,0,P|142:170|135:205,1,71.2500027179719,8|0,2:2|0:0,0:0:0:0:
125,207,18525,2,0,P|108:177|116:143,1,71.2500027179719,2|0,2:3|0:0,0:0:0:0:
297,246,18692,6,0,B|221:271|221:271|212:268|212:268|200:280|200:280|173:279|173:279|118:298|118:298|118:303|118:303|90:303|90:303|11:329,1,296.875,2|0,1:2|0:0,0:0:0:0:
21,325,19192,1,2,1:2:0:0:
286,336,19358,6,0,B|334:325|334:325|332:332|355:341,1,59.375,2|0,2:2|0:0,0:0:0:0:
472,343,19525,2,0,B|424:354|424:354|426:347|403:338,1,59.375,2|0,1:3|0:0,0:0:0:0:
384,158,19692,6,0,L|356:429,1,228,10|0,2:2|0:0,0:0:0:0:
197,304,20025,6,0,B|162:251|203:219|203:219|193:247|219:279,1,152,2|0,1:3|0:0,0:0:0:0:
258,161,20358,6,0,L|239:72,1,59.375,8|0,2:2|0:0,0:0:0:0:
181,58,20525,2,0,L|162:-31,1,59.375,2|0,2:2|0:0,0:0:0:0:
306,3,20692,6,0,P|358:30|360:93,1,118.75,2|2,2:3|1:2,0:0:0:0:
418,142,20942,1,0,0:0:0:0:
418,142,21025,2,0,P|424:198|475:224,1,118.75,10|2,2:2|2:1,0:0:0:0:
475,371,21358,6,0,B|492:335|455:310|455:310|329:290,1,178.125,2|0,1:1|0:0,0:0:0:0:
349,293,21692,2,0,P|342:341|332:354,1,59.375,10|0,2:1|0:0,0:0:0:0:
336,349,21858,1,0,0:0:0:0:
240,286,22025,6,0,L|226:138,2,118.75,0|2|8,0:0|1:1|2:2,0:0:0:0:
176,339,22525,2,0,L|114:353,1,59.375,2|0,2:2|0:0,0:0:0:0:
47,334,22692,6,0,L|244:361,1,178.125,2|0,1:2|0:0,0:0:0:0:
236,362,23025,2,0,P|282:278|252:250,1,118.75,10|0,2:2|0:0,0:0:0:0:
173,182,23358,6,0,L|181:230,4,29.6875,2|0|0|0|0,2:3|0:0|0:0|0:0|1:1,0:0:0:0:
225,37,23692,6,0,L|234:95,1,59.375,10|2,2:2|2:2,0:0:0:0:
308,133,23858,2,0,L|382:118,1,59.375,2|2,2:2|2:2,0:0:0:0:
390,49,24025,1,2,1:2:0:0:
474,293,24192,6,0,P|429:332|413:330,1,59.375,2|0,2:2|0:0,0:0:0:0:
345,344,24358,2,0,P|349:284|361:274,1,59.375,10|0,2:2|0:0,0:0:0:0:
378,191,24525,2,0,P|416:236|415:252,1,59.375,2|0,1:2|0:0,0:0:0:0:
346,288,24692,5,2,2:2:0:0:
230,316,24858,1,2,1:2:0:0:
108,345,25025,2,0,P|95:257|80:192,1,118.75,10|2,2:2|1:2,0:0:0:0:
136,164,25275,1,0,0:0:0:0:
136,164,25358,6,0,P|189:202|188:222,1,59.375,4|0,1:2|0:0,0:0:0:0:
264,226,25525,1,0,0:0:0:0:
264,226,25608,1,0,0:0:0:0:
264,226,25692,2,0,L|276:119,3,71.2500027179719,10|2|2|2,2:2|2:2|2:2|2:2,0:0:0:0:
319,88,26025,6,0,B|368:77|381:121|377:123|374:126|393:160|446:140,2,142.500005435944,2|2|10,2:3|1:2|2:2,0:0:0:0:
245,69,26525,2,0,L|233:11,1,47.5
149,34,26692,6,0,P|167:88|217:97,1,59.375,0|0,1:1|0:0,0:0:0:0:
245,69,26858,1,2,2:3:0:0:
86,239,27025,6,0,B|122:224|115:162|115:162|128:223|187:236,1,178.125,8|0,2:2|0:0,0:0:0:0:
229,289,27358,6,0,L|241:356,1,59.375,2|2,2:2|2:2,0:0:0:0:
314,370,27525,1,2,1:2:0:0:
321,367,27608,1,2,2:2:0:0:
328,366,27692,2,0,L|316:291,2,59.375,8|0|0,2:2|0:0|0:0,0:0:0:0:
406,271,28025,6,0,P|393:189|426:168,1,118.75,2|0,1:3|0:0,0:0:0:0:
487,149,28275,1,2,2:2:0:0:
487,149,28358,2,0,P|480:98|479:72,1,59.375,10|0,2:2|0:0,0:0:0:0:
426,32,28525,1,2,2:2:0:0:
426,32,28608,2,0,P|355:79|370:104,1,118.75,2|0,2:3|0:0,0:0:0:0:
358,87,28858,1,0,1:1:0:0:
249,176,29025,2,0,L|243:110,1,59.375,8|0,2:2|0:0,0:0:0:0:
242,100,29192,2,0,L|236:34,1,59.375,2|0,2:3|0:0,0:0:0:0:
109,17,29358,6,0,B|85:72|131:94|131:94|137:91|160:96|176:145|155:182,1,178.125,2|2,1:2|2:2,0:0:0:0:
109,222,29692,2,0,P|60:201|70:140,1,118.75,10|2,2:2|1:2,0:0:0:0:
229,281,30025,6,0,L|121:308,1,59.375,2|0,1:2|0:0,0:0:0:0:
168,307,30192,2,0,L|60:334,1,59.375,2|0,1:3|0:0,0:0:0:0:
240,356,30358,2,0,B|301:366|301:366|316:361|316:361|426:379,1,178.125,8|0,2:2|0:0,0:0:0:0:
489,300,30692,6,0,P|485:220|434:228,1,132.999995941162,4|2,2:2|1:2,0:0:0:0:
460,128,31025,2,0,P|400:74|370:115,1,132.999995941162,8|0,2:2|0:0,0:0:0:0:
342,188,31358,2,0,P|262:192|270:243,1,132.999995941162,2|0,1:2|0:0,0:0:0:0:
260,226,31692,6,0,B|266:302|322:273|317:355,1,132.999995941162,8|0,2:2|0:0,0:0:0:0:
201,363,31942,1,0,1:1:0:0:
201,363,32025,5,8,2:2:0:0:
100,341,32192,1,8,2:2:0:0:
0,275,32358,5,2,1:3:0:0:
101,253,32525,1,0,1:1:0:0:
197,179,32692,6,0,L|210:244,2,66.4999979705811,0|0|0,1:1|1:1|1:1,0:0:0:0:
193,97,32942,5,0,1:1:0:0:
201,96,33025,1,2,1:2:0:0:
209,94,33108,1,2,1:2:0:0:
214,93,33192,1,2,1:2:0:0:
219,92,33275,1,2,1:2:0:0:
227,91,33358,6,0,L|368:108,1,132.999995941162,6|0,1:1|1:1,0:0:0:0:
440,126,33608,1,0,1:1:0:0:
440,126,33692,2,0,P|423:169|381:186,1,66.4999979705811,0|0,1:1|1:1,0:0:0:0:
313,190,33858,2,0,P|337:212|345:244,1,66.4999979705811,6|0,1:1|0:0,0:0:0:0:
420,260,34025,1,0,1:1:0:0:
429,261,34108,1,0,1:1:0:0:
439,262,34192,1,0,1:1:0:0:
508,327,34358,6,0,L|425:347,3,66.4999979705811,6|0|0|0,1:1|0:0|1:1|1:1,0:0:0:0:
374,383,34692,1,0,1:1:0:0:
245,303,34858,6,0,L|241:220,1,61.7499971733095,2|0,2:2|0:0,0:0:0:0:
169,194,35025,2,0,L|174:57,1,123.499994346619,10|10,2:2|2:2,0:0:0:0:
241,7,35358,6,0,P|271:47|261:94,1,61.7499971733095,6|0,1:2|1:1,0:0:0:0:
349,56,35525,2,0,P|341:105|301:131,1,61.7499971733095,10|0,1:2|1:1,0:0:0:0:
241,118,35692,2,0,P|320:133|378:153,1,123.499994346619,12|8,2:2|2:2,0:0:0:0:
458,365,36025,6,0,P|456:292|398:285,1,109.250002083778,6|2,1:2|2:2,0:0:0:0:
424,279,36275,1,0,0:0:0:0:
416,273,36358,2,0,P|411:223|407:206,1,54.6250010418892,10|0,2:2|0:0,0:0:0:0:
468,0,36525,2,0,P|479:72|495:228,1,218.500004167557,2|2,2:2|1:2,0:0:0:0:
356,325,37025,2,0,P|337:381|282:378,1,109.250002083778,10|2,2:2|2:2,0:0:0:0:
227,235,37358,6,0,B|126:253|126:253|125:247|125:247|-1:272,2,218.500004167557,2|8|0,1:2|2:2|0:0,0:0:0:0:
228,136,38192,1,0,1:1:0:0:
228,136,38358,2,0,L|244:16,1,109.250002083778,8|0,2:2|0:0,0:0:0:0:
412,74,38692,6,0,B|346:43|310:103|318:114|324:125|275:169|226:135,1,218.500004167557,2|8,1:2|2:2,0:0:0:0:
159,111,39192,1,2,2:2:0:0:
151,107,39275,1,2,2:2:0:0:
140,111,39358,2,0,L|117:247,1,109.250002083778,2|0,2:2|1:1,0:0:0:0:
26,196,39692,2,0,L|50:381,1,163.875003125668,10|0,2:2|0:0,0:0:0:0:
135,363,40025,5,0,1:1:0:0:
220,343,40192,1,2,2:2:0:0:
231,253,40358,5,10,2:2:0:0:
318,270,40525,1,2,2:2:0:0:
231,253,40692,1,2,2:2:0:0:
315,185,40858,6,0,P|305:101|293:58,2,109.250002083778,2|10|2,1:2|2:2|2:2,0:0:0:0:
220,343,41358,6,0,P|146:313|48:304,1,163.875003125668,2|0,1:2|0:0,0:0:0:0:
63,303,41692,1,10,2:2:0:0:
294,364,41858,2,0,P|372:342|422:338,1,109.250002083778,2|0,2:2|0:0,0:0:0:0:
404,243,42192,1,2,1:2:0:0:
495,380,42358,2,0,L|499:299,1,54.6250010418892,10|0,2:2|0:0,0:0:0:0:
487,309,42525,2,0,L|491:228,1,54.6250010418892
476,165,42692,6,0,B|381:148|435:97|332:78,1,163.875003125668,2|0,1:2|0:0,0:0:0:0:
265,101,43025,2,0,P|294:162|343:149,1,109.250002083778,10|0,2:2|0:0,0:0:0:0:
285,11,43358,5,2,2:2:0:0:
163,108,43525,1,2,1:2:0:0:
161,100,43608,1,0,0:0:0:0:
160,93,43692,1,10,2:2:0:0:
285,11,43858,1,0,0:0:0:0:
158,92,44025,6,0,L|127:276,1,163.875003125668,2|0,1:2|0:0,0:0:0:0:
182,338,44358,2,0,P|225:296|211:242,1,109.250002083778,10|2,2:2|2:2,0:0:0:0:
241,178,44608,1,0,0:0:0:0:
241,178,44692,2,0,P|308:212|299:257,1,109.250002083778,0|0,0:0|1:1,0:0:0:0:
311,342,45025,1,8,2:2:0:0:
425,319,45192,1,2,2:2:0:0:
426,307,45275,1,2,2:2:0:0:
428,296,45358,6,0,B|452:241|411:211|407:213|401:217|334:168|371:89,1,218.500004167557,2|8,1:2|2:2,0:0:0:0:
351,6,45858,2,0,L|414:16,1,54.6250010418892,2|2,2:2|2:2,0:0:0:0:
245,51,46025,2,0,L|422:10,2,163.875003125668,2|2|2,2:2|2:2|2:2,0:0:0:0:
118,95,46692,5,6,1:2:0:0:
103,188,46858,1,2,2:2:0:0:
118,95,47025,5,10,2:2:0:0:
105,189,47192,2,0,L|224:203,1,109.250002083778,2|0,2:2|0:0,0:0:0:0:
301,233,47525,2,0,P|292:283|251:300,1,54.6250010418892,2|0,1:2|0:0,0:0:0:0:
213,326,47692,2,0,L|353:307,1,109.250002083778,10|2,2:2|2:2,0:0:0:0:
512,357,48025,5,2,1:2:0:0:
425,343,48192,1,2,2:2:0:0:
512,357,48358,5,8,2:2:0:0:
477,273,48525,5,2,2:2:0:0:
467,267,48608,1,2,2:2:0:0:
474,258,48692,1,2,2:2:0:0:
444,180,48858,6,0,P|457:129|507:114,2,109.250002083778,2|10|2,1:2|2:2|2:2,0:0:0:0:
446,17,49358,5,6,1:2:0:0:
349,7,49524,1,2,2:2:0:0:
257,1,49691,1,10,2:2:0:0:
171,65,49858,6,0,B|281:89|281:89|252:88|219:109,1,163.875003125668,2|0,2:2|0:0,0:0:0:0:
276,273,50192,2,0,P|279:219|291:166,2,109.250002083778,2|10|2,1:2|2:2|2:2,0:0:0:0:
413,79,50692,5,2,1:2:0:0:
493,91,50858,1,0,0:0:0:0:
506,174,51025,5,10,2:2:0:0:
430,183,51192,1,0,0:0:0:0:
401,262,51358,5,2,2:2:0:0:
480,275,51525,1,2,1:2:0:0:
511,380,51692,6,0,L|402:347,1,109.250002083778,10|2,2:2|2:2,0:0:0:0:
309,189,52025,6,0,L|321:271,3,54.6250010418892,6|0|0|0,1:2|0:0|0:0|0:0,0:0:0:0:
318,190,52358,2,0,L|338:106,2,54.6250010418892,10|2|2,2:2|2:2|2:2,0:0:0:0:
260,325,52692,6,0,L|248:407,3,54.6250010418892,2|2|2|2,2:2|2:2|1:2|2:2,0:0:0:0:
251,326,53025,2,0,L|231:242,2,54.6250010418892,10|2|2,2:2|2:2|2:2,0:0:0:0:
212,183,53358,5,6,1:2:0:0:
132,157,53525,1,0,0:0:0:0:
212,183,53692,1,10,2:2:0:0:
247,106,53858,5,2,2:2:0:0:
247,106,53942,1,2,2:2:0:0:
247,106,54025,2,0,P|216:47|168:54,2,109.250002083778,2|2|10,2:2|1:2|2:2,0:0:0:0:
317,44,54525,1,2,2:2:0:0:
257,352,54692,5,6,1:2:0:0:
241,256,54858,1,0,0:0:0:0:
333,292,55025,5,10,2:2:0:0:
343,216,55192,1,0,0:0:0:0:
435,259,55358,5,10,2:2:0:0:
427,211,55525,1,2,1:2:0:0:
421,168,55692,1,10,2:2:0:0:
403,92,55858,5,2,1:2:0:0:
403,92,55942,1,2,1:2:0:0:
403,92,56025,6,0,B|353:78|309:114|343:125|304:164|245:147,1,163.875003125668,14|0,2:2|0:0,0:0:0:0:
191,104,56358,2,0,P|171:68|180:50,1,54.6250010418892,10|0,2:2|0:0,0:0:0:0:
251,11,56525,2,0,P|271:47|262:65,1,54.6250010418892,10|0,2:2|0:0,0:0:0:0:
253,154,56692,5,2,1:2:0:0:
255,172,56775,1,2,1:2:0:0:
258,190,56858,1,2,1:2:0:0:
260,208,56942,1,2,1:2:0:0:
262,223,57025,6,0,L|209:232,2,54.6250010418892,10|10|10,2:2|2:2|2:2,0:0:0:0:
359,257,57358,6,0,P|440:252|444:121,1,218.500004167557,6|2,1:2|2:2,0:0:0:0:
267,56,57858,6,0,P|254:130|245:299,1,218.500004167557,6|2,1:2|2:2,0:0:0:0:
259,368,58358,6,0,B|188:403|159:338|170:332|170:334|130:267|64:317,1,218.500004167557,6|2,1:2|2:2,0:0:0:0:
48,222,58858,6,0,B|16:182|16:182|38:111,2,109.250002083778,6|2|2,1:2|2:2|2:2,0:0:0:0:
111,161,59358,1,6,1:2:0:0:
259,368,59691,6,0,B|322:344|379:343|379:343|358:335|337:309,1,163.875003125668,6|0,1:2|0:0,0:0:0:0:
304,238,60024,1,8,2:2:0:0:
459,306,60191,1,2,1:2:0:0:
459,306,60274,1,2,2:2:0:0:
459,306,60358,2,0,P|427:249|373:260,2,109.250002083778,2|0|2,2:2|0:0|1:2,0:0:0:0:
346,319,60858,5,2,2:2:0:0:
389,249,61024,1,2,2:2:0:0:
354,156,61191,6,0,L|99:202,1,218.500004167557,2|2,1:2|2:2,0:0:0:0:
78,254,61691,6,0,P|50:197|84:147,1,109.250002083778,6|0,1:2|0:0,0:0:0:0:
184,49,62024,6,0,B|213:38|222:12|222:12|284:58|265:136|186:155,1,218.500004167557,6|2,1:2|2:2,0:0:0:0:
157,276,62524,6,0,B|250:290|331:313|331:313|355:297|363:270,1,218.500004167557,6|2,1:2|2:2,0:0:0:0:
385,113,63024,6,0,B|410:88|412:8|412:8|420:85|477:122,1,218.500004167557,6|2,1:2|2:2,0:0:0:0:
434,384,63524,6,0,B|410:322|456:282|474:290|490:298|527:267|512:201,1,218.500004167557,6|2,1:2|2:2,0:0:0:0:
333,232,64024,6,0,P|294:274|315:327,1,109.250002083778,6|0,1:2|0:0,0:0:0:0:
380,345,64357,6,0,P|311:358|197:382,1,163.875003125668,6|0,1:2|0:0,0:0:0:0:
219,377,64691,1,8,2:2:0:0:
98,281,64857,5,2,2:2:0:0:
99,271,64941,1,2,2:2:0:0:
99,262,65024,1,2,2:2:0:0:
184,174,65191,2,0,P|222:197|237:227,1,54.6250010418892
117,109,65357,2,0,P|58:122|-4:135,1,109.250002083778,2|2,1:2|2:2,0:0:0:0:
205,61,65691,5,6,1:2:0:0:
214,63,65857,1,0,0:0:0:0:
296,39,66024,5,6,1:2:0:0:
338,52,66191,1,0,0:0:0:0:
419,23,66357,5,6,1:2:0:0:
496,52,66524,1,0,1:1:0:0:
496,52,66607,1,0,1:1:0:0:
496,52,66691,6,0,L|480:181,1,109.250002083778,6|2,1:2|2:2,0:0:0:0:
482,160,67024,1,10,2:2:0:0:
393,224,67191,6,0,B|470:236|467:307|467:307|408:334,1,163.875003125668,6|0,1:2|0:0,0:0:0:0:
432,324,67524,1,10,2:2:0:0:
178,367,67691,6,0,P|163:307|273:304,1,163.875003125668,6|0,1:2|0:0,0:0:0:0:
246,277,68024,1,10,2:2:0:0:
272,115,68191,6,0,B|208:123|202:177|202:177|57:224,1,218.500004167557,6|10,1:2|2:2,0:0:0:0:
0,124,68691,2,0,P|-6:97|2:71,1,54.6250010418892,6|0,1:2|0:0,0:0:0:0:
76,127,68857,2,0,P|84:101|78:74,1,54.6250010418892,2|0,2:2|0:0,0:0:0:0:
40,2,69024,5,4,1:2:0:0:
146,14,69191,1,0,0:0:0:0:
195,129,69357,2,0,L|204:69,1,54.6250010418892,8|0,2:2|0:0,0:0:0:0:
195,129,69524,1,2,2:2:0:0:
201,136,69607,1,2,2:2:0:0:
198,147,69691,1,2,2:2:0:0:
133,210,69857,2,0,P|218:237|271:250,2,109.250002083778,10|6|2,2:2|2:2|2:2,0:0:0:0:
58,278,70274,5,2,1:2:0:0:
54,286,70357,2,0,L|68:388,1,54.6250010418892,10|0,2:2|0:0,0:0:0:0:
156,320,70608,5,0,1:1:0:0:
152,328,70691,2,0,L|166:430,1,54.6250010418892,10|0,2:2|0:0,0:0:0:0:
237,242,70858,5,2,1:2:0:0:
233,250,70941,2,0,L|247:352,1,54.6250010418892,8|2,2:2|2:2,0:0:0:0:
355,317,71108,5,0,1:1:0:0:
351,325,71191,2,0,L|365:427,1,54.6250010418892,10|0,2:2|1:1,0:0:0:0:
467,249,71357,5,14,2:2:0:0:
469,237,71524,1,8,2:2:0:0:
392,193,71691,5,8,2:2:0:0:
379,114,71857,1,12,2:2:0:0:
491,101,72024,5,8,2:2:0:0:
503,4,72191,1,8,2:2:0:0:
277,60,72357,6,0,L|261:191,1,109.250002083778,14|8,2:2|2:2,0:0:0:0:
199,223,72691,5,8,2:2:0:0:
78,248,72857,1,14,2:2:0:0:
136,151,73024,1,8,2:2:0:0:
42,136,73191,1,8,2:2:0:0:
83,46,73357,1,8,2:2:0:0:
0,57,73524,1,8,2:2:0:0:
182,15,73691,5,8,2:2:0:0:
192,17,73774,1,8,2:2:0:0:
199,26,73857,1,8,2:2:0:0:
201,33,73941,1,8,2:2:0:0:
199,43,74024,1,8,2:2:0:0:
194,48,74107,1,8,2:2:0:0:
190,49,74191,1,8,2:2:0:0:
186,44,74274,1,8,2:2:0:0:
189,39,74357,6,0,L|73:25,1,109.250002083778,10|10,2:2|2:2,0:0:0:0:
274,83,74691,2,0,L|338:70,1,54.6250010418892,10|8,2:2|2:2,0:0:0:0:
341,71,74857,2,0,L|405:58,1,54.6250010418892,10|8,2:2|2:2,0:0:0:0:
445,125,75024,6,0,P|440:219|383:220,1,123.499994346619,12|0,2:2|1:1,0:0:0:0:
409,230,75274,6,0,P|489:262|489:305,1,123.499994346619,12|0,2:2|1:1,0:0:0:0:
490,302,75524,6,0,P|394:326|357:341,1,123.499994346619,12|10,2:2|1:2,0:0:0:0:
361,327,75774,6,0,P|289:308|219:279,1,123.499994346619,14|10,1:2|1:2,0:0:0:0:
185,350,76025,5,6,1:2:0:0:
436,369,86691,6,0,L|429:274,1,71.2500027179719,2|0,2:2|0:0,0:0:0:0:
444,372,87025,2,0,L|437:277,1,71.2500027179719
353,147,87358,6,0,L|346:242,1,71.2500027179719,2|0,2:2|0:0,0:0:0:0:
361,144,87691,2,0,L|354:239,1,71.2500027179719
277,345,88025,6,0,L|182:352,1,71.2500027179719,2|0,2:2|0:0,0:0:0:0:
280,337,88358,2,0,L|185:344,1,71.2500027179719
152,229,88692,6,0,L|57:222,1,71.2500027179719,2|0,2:2|0:0,0:0:0:0:
155,237,89025,2,0,L|60:230,1,71.2500027179719
54,61,89358,6,0,P|96:37|128:41,1,71.2500027179719,2|2,2:2|2:2,0:0:0:0:
128,21,89692,2,0,P|174:33|194:59,1,71.2500027179719,2|0,2:2|0:0,0:0:0:0:
171,129,90025,6,0,P|217:141|237:167,1,71.2500027179719
251,153,90359,2,0,P|275:195|271:227,1,71.2500027179719,2|0,2:2|0:0,0:0:0:0:
256,330,90692,6,0,P|298:354|330:350,1,71.2500027179719,2|0,2:2|0:0,0:0:0:0:
330,370,91024,2,0,P|376:357|396:331,1,71.2500027179719
373,262,91359,6,0,P|419:249|439:223,1,71.2500027179719,2|0,2:2|0:0,0:0:0:0:
453,238,91691,2,0,P|477:196|473:164,1,71.2500027179719
426,104,92025,5,2,2:2:0:0:
414,108,92108,1,0,0:0:0:0:
403,111,92192,1,2,2:2:0:0:
284,70,92358,2,0,L|162:58,1,106.875004076958,2|0,2:2|0:0,0:0:0:0:
113,97,92691,2,0,P|129:118|154:130,1,35.625001358986
209,150,92858,2,0,L|194:214,1,35.625001358986
122,222,93024,1,0,0:0:0:0:
245,329,93358,6,0,B|375:314|375:314|376:310|376:310|521:291|521:291|468:257|460:208|460:208|380:219|387:294,1,498.750019025803,2|0,2:2|0:0,0:0:0:0:
506,378,94692,5,2,2:2:0:0:
30,14,96025,5,0,0:0:0:0:
37,17,96108,1,0,0:0:0:0:
42,21,96192,1,0,0:0:0:0:
45,28,96275,1,0,0:0:0:0:
30,47,96358,6,0,L|74:56,3,35.625001358986
92,139,96692,5,2,2:2:0:0:
117,132,96775,1,2,2:2:0:0:
143,125,96858,1,2,2:2:0:0:
169,118,96941,1,2,2:2:0:0:
195,111,97025,1,2,2:2:0:0:
484,240,97358,6,0,P|463:317|375:314,1,142.500005435944,4|0,1:2|0:0,0:0:0:0:
323,154,97608,6,0,P|386:177|397:244,1,142.500005435944,6|0,1:2|0:0,0:0:0:0:
295,377,97858,6,0,P|303:297|313:221,1,142.500005435944,6|0,1:2|0:0,0:0:0:0:
195,111,98108,6,0,P|205:184|210:252,1,142.500005435944,6|0,1:2|0:0,0:0:0:0:
212,340,98358,5,6,1:2:0:0:
212,340,98525,2,0,P|178:378|146:384,1,71.2500027179719,6|0,1:2|0:0,0:0:0:0:
89,298,98691,1,2,1:2:0:0:
89,298,98858,6,0,L|99:242,4,35.625001358986,8|0|0|0|0,1:2|1:1|1:1|1:1|1:1,0:0:0:0:
65,375,99108,6,0,L|50:213,1,142.500005435944,10|0,2:2|1:1,0:0:0:0:
31,145,99358,5,10,2:2:0:0:
35,134,99441,1,0,1:1:0:0:
41,124,99524,2,0,P|77:122|111:116,1,71.2500027179719,2|10,1:2|1:2,0:0:0:0:
170,258,99692,5,10,2:2:0:0:
178,253,99775,1,8,1:2:0:0:
190,237,99858,1,10,2:2:0:0:
186,204,99942,1,8,2:2:0:0:
162,190,100025,6,0,B|138:130|184:95|190:98|196:100|266:81|229:-7,1,213.750008153916,4|0,1:2|0:0,0:0:0:0:
235,10,100358,1,8,2:2:0:0:
97,94,100525,5,2,2:2:0:0:
104,91,100608,1,2,2:2:0:0:
111,91,100692,2,0,P|184:102|320:151,1,213.750008153916,2|0,2:2|0:0,0:0:0:0:
389,144,101025,2,0,P|403:73|317:49,1,142.500005435944,8|0,2:2|0:0,0:0:0:0:
336,247,101358,6,0,L|450:221,3,71.2500027179719,2|2|0|2,1:2|2:2|0:0|2:2,0:0:0:0:
267,322,101692,2,0,L|381:348,3,71.2500027179719,10|2|2|2,2:2|2:2|2:2|2:2,0:0:0:0:
167,231,102025,2,0,L|281:205,3,71.2500027179719,2|2|2|2,2:2|2:2|1:2|2:2,0:0:0:0:
113,337,102358,2,0,L|87:223,1,71.2500027179719,10|2,2:2|2:2,0:0:0:0:
30,215,102525,2,0,L|56:101,1,71.2500027179719,2|2,2:2|2:2,0:0:0:0:
88,36,102692,6,0,P|154:71|116:145,1,142.500005435944,6|0,1:2|0:0,0:0:0:0:
143,127,102942,1,2,2:2:0:0:
143,127,103025,2,0,P|167:79|184:64,1,71.2500027179719,10|0,2:2|0:0,0:0:0:0:
337,109,103192,6,0,P|271:144|309:218,1,142.500005435944,2|0,2:2|0:0,0:0:0:0:
281,201,103442,1,2,2:2:0:0:
282,200,103525,2,0,P|258:152|241:137,1,71.2500027179719,2|0,1:2|0:0,0:0:0:0:
357,245,103692,2,0,P|381:293|398:308,3,71.2500027179719,8|0|2|2,2:2|0:0|2:2|2:2,0:0:0:0:
273,328,104025,5,6,1:2:0:0:
267,323,104108,1,2,2:2:0:0:
263,318,104192,2,0,L|181:334,1,71.2500027179719,2|2,2:2|2:2,0:0:0:0:
114,307,104358,2,0,P|118:258|161:237,3,71.2500027179719,10|2|2|2,2:2|2:2|2:2|2:2,0:0:0:0:
177,165,104692,6,0,P|143:154|108:153,1,71.2500027179719,2|2,2:2|2:2,0:0:0:0:
232,111,104858,2,0,P|267:109|301:98,1,71.2500027179719,2|2,1:2|2:2,0:0:0:0:
360,158,105025,1,10,2:2:0:0:
364,166,105108,1,2,2:2:0:0:
357,163,105192,1,2,2:2:0:0:
369,160,105275,1,2,2:2:0:0:
362,174,105358,6,0,P|275:192|237:195,2,71.2500027179719,4|0|2,1:2|0:0|2:2,0:0:0:0:
357,163,105608,2,0,P|375:76|378:38,2,71.2500027179719,2|8|2,2:2|2:2|2:2,0:0:0:0:
368,160,105858,2,0,P|402:151|438:145,3,71.2500027179719,2|0|2|2,2:2|0:0|2:2|2:2,0:0:0:0:
292,189,106192,2,0,P|251:161|253:84,1,71.2500027179719,0|2,1:1|2:2,0:0:0:0:
268,59,106358,2,0,L|97:94,1,142.500005435944,8|2,2:2|2:2,0:0:0:0:
41,118,106608,1,2,2:2:0:0:
41,118,106692,6,0,P|31:75|43:41,1,71.2500027179719,6|0,1:2|0:0,0:0:0:0:
124,16,106858,2,0,P|125:66|135:114,1,71.2500027179719,2|0,2:2|0:0,0:0:0:0:
118,167,107025,1,10,2:2:0:0:
198,268,107192,1,2,2:2:0:0:
202,262,107275,1,2,2:2:0:0:
207,256,107358,2,0,L|190:101,1,142.500005435944,2|2,2:2|1:2,0:0:0:0:
250,42,107692,2,0,B|265:52|265:52|274:131,1,71.2500027179719,10|2,2:2|2:2,0:0:0:0:
320,286,107858,5,2,1:2:0:0:
325,279,107942,1,10,2:2:0:0:
317,277,108025,2,0,L|135:309,1,142.500005435944,14|0,2:2|0:0,0:0:0:0:
169,315,108275,2,0,P|149:354|57:358,1,142.500005435944,14|0,2:2|0:0,0:0:0:0:
108,288,108525,6,0,L|290:320,1,142.500005435944,14|0,2:2|0:0,0:0:0:0:
256,326,108775,2,0,P|276:365|368:369,1,142.500005435944,14|0,2:2|0:0,0:0:0:0:
449,342,109025,6,0,P|432:311|399:297,1,71.2500027179719,14|0,2:2|0:0,0:0:0:0:
332,225,109192,2,0,L|473:204,1,142.500005435944,6|0,1:2|0:0,0:0:0:0:
498,128,109525,5,10,2:2:0:0:
423,95,109692,1,2,2:2:0:0:
424,81,109775,1,10,2:2:0:0:
429,62,109858,2,0,B|355:59|325:112|325:112|268:102,2,142.500005435944,2|10|14,2:2|2:2|1:2,0:0:0:0:
304,108,110275,1,2,1:2:0:0:
304,108,110358,2,0,L|284:27,3,71.2500027179719,10|10|10|10,2:2|2:2|2:2|2:2,0:0:0:0:
107,175,110692,6,0,B|109:224|90:238|81:235|72:233|37:257|49:308,1,142.500005435944,14|0,2:2|0:0,0:0:0:0:
58,310,110942,2,0,P|45:237|20:157,1,142.500005435944,14|0,2:2|0:0,0:0:0:0:
185,131,111192,6,0,B|234:133|248:114|245:105|243:96|267:61|318:73,1,142.500005435944,14|0,2:2|0:0,0:0:0:0:
320,82,111442,2,0,P|247:69|167:44,1,142.500005435944,14|0,2:2|0:0,0:0:0:0:
348,162,111692,2,0,P|431:144|451:142,1,71.2500027179719,14|0,2:2|0:0,0:0:0:0:
413,244,111858,6,0,B|383:344|251:294|251:294|306:292|320:234,1,285.000010871888,6|2,1:2|2:2,0:0:0:0:
241,183,112358,1,10,2:2:0:0:
235,179,112442,1,2,2:2:0:0:
240,175,112525,2,0,P|206:156|161:147,1,71.2500027179719,2|2,1:2|2:2,0:0:0:0:
123,78,112692,1,2,2:2:0:0:
117,82,112774,1,2,2:2:0:0:
122,86,112859,2,0,P|88:105|43:114,1,71.2500027179719,10|2,2:2|2:2,0:0:0:0:
0,57,113025,6,0,L|11:-17,2,71.2500027179719,10|10|10,2:2|2:2|2:2,0:0:0:0:
18,244,113358,5,6,1:2:0:0:
98,261,113525,1,8,2:2:0:0:
151,337,113692,5,10,2:2:0:0:
236,322,113858,1,10,2:2:0:0:
292,243,114025,5,10,2:2:0:0:
387,262,114192,1,10,2:2:0:0:
338,363,114358,5,10,2:2:0:0:
286,127,114525,1,2,1:2:0:0:
286,127,114608,1,2,1:2:0:0:
286,127,114692,5,14,2:2:0:0:
185,147,114858,1,10,2:2:0:0:
151,68,115025,5,8,2:2:0:0:
68,60,115192,1,10,2:2:0:0:
224,14,115358,5,10,1:2:0:0:
224,14,115525,1,10,1:2:0:0:
244,307,115692,6,0,P|251:274|217:238,3,71.2500027179719,10|2|10|2,1:2|1:2|1:2|1:2,0:0:0:0:
244,307,116025,6,0,L|333:332,1,71.2500027179719,14|2,2:2|2:2,0:0:0:0:
376,269,116192,1,10,2:2:0:0:
379,263,116275,1,10,2:2:0:0:
388,255,116358,2,0,L|477:230,3,71.2500027179719,2|10|10|2,2:2|2:2|2:2|2:2,0:0:0:0:
323,199,116692,6,0,L|313:96,2,71.2500027179719,14|2|10,2:2|2:2|2:2,0:0:0:0:
303,35,116942,1,10,2:2:0:0:
303,35,117025,2,0,P|252:62|247:94,1,71.2500027179719,10|2,2:2|2:2,0:0:0:0:
224,148,117192,2,0,P|173:121|168:89,1,71.2500027179719,10|2,2:2|2:2,0:0:0:0:
176,29,117358,1,14,2:2:0:0:
176,29,117442,6,0,L|55:50,1,71.2500027179719,14|0,2:2|0:0,0:0:0:0:
316,128,117692,2,0,L|437:149,1,71.2500027179719,14|0,2:2|0:0,0:0:0:0:
123,238,117942,2,0,L|2:259,1,71.2500027179719,14|0,2:2|0:0,0:0:0:0:
224,291,118192,5,14,2:2:0:0:
224,291,118358,5,14,2:2:0:0:
215,376,118442,1,10,2:2:0:0:
388,337,118608,5,10,2:2:0:0:
