osu file format v14

[General]
AudioFilename: audio.mp3
AudioLeadIn: 0
PreviewTime: 35923
Countdown: 0
SampleSet: Soft
StackLeniency: 0.7
Mode: 0
LetterboxInBreaks: 0
WidescreenStoryboard: 1

[Editor]
Bookmarks: 6673,14673,36006,57339,63005,76339,76464,76631,76756,76923,77048,77214,77381,77506,77673,77839,77964,78173,78298,78464,78589,78756,78881,79048,79214,79339,79506,79631,79798,79964,80089,80256,80423,80548,80756,80923,81048,81214,81381,81548,81714,81881,82048,82256,82381,82589,82714,82881,83048,83214,83381,83506,83673,83839,84006,84173,84339,84506,84673,84839,84964,85131,85298,85464,85631,85839,86006,86173,86339,86548,86673,97339,104672
DistanceSpacing: 1
BeatDivisor: 12
GridSize: 16
TimelineZoom: 3.699999

[Metadata]
Title:Eeliaas
TitleUnicode:Eeliaas
Artist:Mitsuki
ArtistUnicode:ミツキ
Creator:Ascended
Version:Hard
Source:Muse Dash
Tags:りにゃ Rinya Elias Eelias Eliaas Mitsuboshi Records ミツボシレコーズ 3rd EP Defeated Memorial Video Game Electronic Instrumental techno artcore -ascended- -_ascended_- Flask Down atlas- atlas aeniko osu! mappers guild mpg fa featured artist showcase
BeatmapID:3559139
BeatmapSetID:1737106

[Difficulty]
HPDrainRate:4.2
CircleSize:3.5
OverallDifficulty:6
ApproachRate:7.5
SliderMultiplier:1.4
SliderTickRate:1

[Events]
//Background and Video events
0,0,"homo.jpg",0,0
//Break Periods
2,76225,85866
2,94891,95866
//Storyboard Layer 0 (Background)
//Storyboard Layer 1 (Fail)
//Storyboard Layer 2 (Pass)
//Storyboard Layer 3 (Foreground)
//Storyboard Layer 4 (Overlay)
//Storyboard Sound Samples

[TimingPoints]
1025,333.333333333333,4,2,1,30,1,0
1025,-133.333333333333,4,2,1,30,0,0
1359,333.333333333333,4,2,1,30,1,0
1359,-133.333333333333,4,2,1,30,0,0
6358,-100,4,2,1,40,0,0
6692,-100,4,2,1,40,0,0
12025,-111.111111111111,4,2,1,50,0,0
13358,-133.333333333333,4,2,1,50,0,0
14692,-71.4285714285714,4,2,1,70,0,1
15025,-83.3333333333333,4,2,1,70,0,1
15358,-83.3333333333333,4,2,1,70,0,1
21358,-76.9230769230769,4,2,1,70,0,1
22692,-83.3333333333333,4,2,1,70,0,1
25358,-71.4285714285714,4,2,1,70,0,1
25692,-83.3333333333333,4,2,1,70,0,1
36025,-100,4,2,1,55,0,0
57358,333.333333333333,7,2,1,60,1,0
57358,-76.9230769230769,4,2,1,60,0,0
60191,-125,4,2,1,60,0,0
62024,-76.9230769230769,4,2,1,60,0,0
65024,-125,4,2,1,60,0,0
65691,-90.9090909090909,4,2,1,60,0,0
66525,-100,4,2,1,65,0,0
66691,-76.9230769230769,4,2,1,65,0,0
69524,-100,4,2,1,65,0,0
71357,-83.3333333333333,4,2,1,65,0,0
75024,-83.3333333333333,4,2,1,65,0,0
75524,-71.4285714285714,4,2,1,65,0,0
76025,333.333333333333,4,2,1,65,1,0
86690,-133.333333333333,4,2,1,40,0,0
94692,-111.111111111111,4,2,1,50,0,0
96692,-111.111111111111,4,2,1,70,0,0
97358,-100,4,2,1,60,0,0
97858,-76.9230769230769,4,2,1,60,0,0
100024,-76.9230769230769,4,2,1,70,0,1
108024,-66.6666666666667,4,2,1,70,0,1
109191,-76.9230769230769,4,2,1,70,0,1
110691,-66.6666666666667,4,2,1,70,0,1
111858,-76.9230769230769,4,2,1,70,0,1
116024,-71.4285714285714,4,2,1,70,0,1
118608,-90.9090909090909,4,2,1,70,0,0

[Colours]
Combo1 : 149,149,255
Combo2 : 217,217,255

[HitObjects]
72,183,1025,6,0,P|58:180|44:177,3,26.2500010013581
88,202,1359,2,0,P|113:196|139:192,3,52.5000020027161,2|2|2|2,2:2|2:2|2:2|2:2,0:0:0:0:
422,196,2525,5,0,0:0:0:0:
422,196,2608,1,0,0:0:0:0:
422,196,2692,2,0,P|396:190|370:186,3,52.5000020027161,2|2|2|2,2:2|2:2|2:2|2:2,0:0:0:0:
268,61,3692,6,0,P|271:47|274:33,3,26.2500010013581
249,77,4026,2,0,P|255:102|259:128,3,52.5000020027161,2|2|2|2,2:2|2:2|2:2|2:2,0:0:0:0:
264,337,4858,5,2,2:2:0:0:
264,337,4942,1,2,2:2:0:0:
264,337,5025,1,2,2:2:0:0:
187,278,5192,2,0,P|142:295|128:353,2,105.000004005432,2|2|2,2:2|2:2|2:2,0:0:0:0:
486,372,6358,6,0,P|489:358|495:333,3,35
475,384,6692,2,0,P|438:379|411:338,1,70,2|2,2:2|2:2,0:0:0:0:
355,295,7025,1,2,2:3:0:0:
355,295,7192,2,0,P|367:239|391:139,1,140,2|2,2:2|2:3,0:0:0:0:
290,108,7692,6,0,P|294:90|297:73,3,35,2|2|2|2,2:2|2:2|2:2|2:2,0:0:0:0:
276,119,8025,2,0,P|283:153|291:187,1,70,2|2,2:2|2:2,0:0:0:0:
256,281,8358,1,2,2:3:0:0:
256,281,8526,2,0,P|192:277|176:198,1,140,2|2,2:2|2:2,0:0:0:0:
65,259,9025,6,0,P|47:263|30:266,3,35,2|2|2|2,2:2|2:2|2:3|2:2,0:0:0:0:
73,236,9358,2,0,P|67:194|63:162,1,70,2|2,2:2|2:2,0:0:0:0:
48,64,9692,1,2,2:3:0:0:
48,64,9858,2,0,P|127:68|145:142,1,140,2|2,2:2|2:3,0:0:0:0:
250,178,10358,5,2,2:2:0:0:
250,178,10525,2,0,P|325:157|390:144,1,140,2|2,2:2|2:2,0:0:0:0:
438,71,11025,2,0,P|489:99|480:180,1,140,2|2,2:3|2:2,0:0:0:0:
378,298,11692,1,2,2:2:0:0:
209,273,12025,5,6,1:2:0:0:
209,273,13358,6,0,B|184:165|333:218|302:100,1,210.000008010865,2|2,1:2|1:2,0:0:0:0:
88,83,14358,5,0,1:1:0:0:
88,83,14442,1,0,1:1:0:0:
88,83,14525,2,0,L|62:89,1,26.2500010013581,0|0,1:1|1:1,0:0:0:0:
31,97,14692,2,0,B|-8:73|-8:73|15:183,1,146.999995513916,6|0,1:2|3:0,3:0:0:0:
23,202,15025,2,0,L|64:212,3,41.9999987182618,10|2|2|2,2:2|2:2|2:2|2:2,0:0:0:0:
68,235,15358,2,0,L|86:324,1,83.9999974365235,2|2,2:3|1:2,0:0:0:0:
146,379,15692,2,0,B|235:355|235:355|245:317,1,125.999996154785,8|0,2:2|0:0,0:0:0:0:
253,289,16025,6,0,P|275:324|322:322,1,83.9999974365235,0|2,1:1|2:3,0:0:0:0:
382,275,16358,6,0,P|386:251|398:218,2,55.9999982910157,8|2|2,2:2|2:2|2:2,0:0:0:0:
392,290,16692,6,0,L|373:176,1,83.9999974365235,2|2,2:3|1:2,0:0:0:0:
278,184,17025,1,8,2:2:0:0:
318,4,17358,5,2,1:3:0:0:
405,39,17525,1,0,0:0:0:0:
405,39,17608,1,2,2:2:0:0:
405,39,17692,2,0,L|426:126,1,83.9999974365235,10|2,2:2|2:3,0:0:0:0:
503,196,18025,2,0,L|512:155,2,41.9999987182618,2|2|2,2:2|2:2|1:2,0:0:0:0:
486,289,18358,1,8,2:2:0:0:
486,289,18525,1,2,2:3:0:0:
387,268,18692,6,0,B|340:276|340:276|325:310|325:310|283:319,1,125.999996154785,2|0,1:2|0:0,0:0:0:0:
266,329,19025,2,0,L|178:308,1,83.9999974365235,8|2,2:2|1:2,0:0:0:0:
133,237,19358,1,2,2:2:0:0:
133,237,19525,1,2,1:3:0:0:
203,181,19692,1,10,2:2:0:0:
35,69,20025,6,0,B|90:92|90:92|131:38,1,125.999996154785,2|0,1:3|0:0,0:0:0:0:
140,23,20358,2,0,L|237:54,1,83.9999974365235,8|2,2:2|2:2,0:0:0:0:
304,77,20692,1,2,2:3:0:0:
392,38,20858,1,2,1:2:0:0:
392,38,20942,1,0,0:0:0:0:
392,38,21025,2,0,L|423:135,1,83.9999974365235,10|2,2:2|2:1,0:0:0:0:
400,246,21358,6,0,B|395:227|395:227|492:203|492:203|496:223,1,136.499993751526,2|0,1:1|0:0,0:0:0:0:
497,229,21692,2,0,L|303:167,1,181.999991668702,10|0,2:1|0:0,0:0:0:0:
230,163,22192,2,0,B|216:165|216:165|232:229|232:229|244:226,1,90.9999958343508,2|8,1:1|2:2,0:0:0:0:
249,238,22442,2,0,B|260:235|260:235|276:298|276:298|263:301,1,90.9999958343508,2|0,2:1|0:0,0:0:0:0:
249,315,22692,6,0,L|129:276,1,125.999996154785,2|0,1:2|0:0,0:0:0:0:
97,275,23025,2,0,B|59:250|59:250|66:207,1,83.9999974365235,10|0,2:2|0:0,0:0:0:0:
47,98,23358,2,0,B|81:123|81:123|127:110,1,83.9999974365235,2|0,2:3|1:1,0:0:0:0:
185,43,23692,1,10,2:2:0:0:
185,43,23775,1,2,2:2:0:0:
185,43,23858,2,0,L|226:53,1,41.9999987182618,2|2,2:2|2:2,2:0:0:0:
250,55,24025,6,0,P|273:14|319:11,2,83.9999974365235,2|2|10,1:2|2:2|2:2,0:0:0:0:
320,115,24525,1,2,1:2:0:0:
409,93,24692,2,0,P|419:52|429:9,1,83.9999974365235,2|2,2:2|1:2,0:0:0:0:
502,73,25025,2,0,P|492:114|483:155,1,83.9999974365235,10|2,2:2|1:2,0:0:0:0:
385,239,25358,6,0,B|365:213|365:213|474:248,1,146.999995513916,4|0,1:2|0:0,0:0:0:0:
469,274,25692,2,0,L|524:260,3,41.9999987182618,10|2|2|2,2:2|2:2|2:2|2:2,0:0:0:0:
500,290,26025,2,0,L|485:379,1,83.9999974365235,2|2,2:3|1:2,0:0:0:0:
400,333,26358,2,0,L|317:347,1,83.9999974365235,10|0,2:2|0:0,0:0:0:0:
246,267,26692,5,0,1:1:0:0:
246,267,26858,1,2,2:3:0:0:
278,178,27025,2,0,P|273:119|216:106,1,125.999996154785,8|0,2:2|0:0,0:0:0:0:
192,86,27358,6,0,P|187:112|181:133,3,41.9999987182618,2|2|2|2,2:2|2:2|1:2|2:2,0:0:0:0:
159,93,27692,2,0,P|102:99|85:136,1,83.9999974365235,8|0,2:2|0:0,0:0:0:0:
15,175,28025,5,2,1:3:0:0:
79,253,28192,1,0,0:0:0:0:
79,253,28275,1,2,2:2:0:0:
79,253,28359,2,0,L|100:340,1,83.9999974365235,10|2,2:2|2:2,0:0:0:0:
140,364,28608,1,2,2:3:0:0:
140,364,28692,2,0,B|185:349|185:349|199:313,1,83.9999974365235,2|0,0:0|1:1,0:0:0:0:
240,219,29025,1,8,2:2:0:0:
240,219,29192,1,2,2:3:0:0:
318,286,29358,6,0,L|402:305,1,83.9999974365235,2|0,1:2|0:0,0:0:0:0:
449,317,29608,1,2,2:2:0:0:
449,317,29692,2,0,L|468:233,1,83.9999974365235,10|2,2:2|1:2,0:0:0:0:
487,150,30025,1,2,1:2:0:0:
487,150,30192,1,2,1:3:0:0:
506,65,30358,1,8,2:2:0:0:
305,81,30692,5,4,2:2:0:0:
249,11,30858,1,2,1:2:0:0:
170,55,31025,2,0,L|25:81,1,125.999996154785,8|0,2:2|0:0,0:0:0:0:
20,73,31358,2,0,B|-4:132|-4:132|31:184,1,125.999996154785,2|0,1:2|0:0,0:0:0:0:
54,175,31692,2,0,L|178:197,1,125.999996154785,8|0,2:2|1:1,0:0:0:0:
197,202,32025,5,8,2:2:0:0:
278,167,32192,1,8,2:2:0:0:
364,242,32358,6,0,P|389:227|414:216,2,55.9999982910157,2|2|2,1:3|2:3|2:3,0:2:0:0:
348,224,32692,6,0,L|445:247,1,83.9999974365235,0|0,1:1|1:1,0:0:0:0:
364,328,33025,1,2,1:2:0:0:
364,328,33108,1,2,1:2:0:0:
364,328,33192,2,0,B|316:335|319:338|317:335|317:339,1,41.9999987182618,2|2,1:2|1:2,0:0:0:0:
297,342,33358,6,0,B|233:291|233:291|142:311,1,167.999994873047,6|0,1:1|1:1,0:0:0:0:
61,356,33858,2,0,B|35:335|35:335|47:273,1,83.9999974365235,6|0,1:1|1:1,0:0:0:0:
51,254,34108,1,0,1:1:0:0:
51,254,34192,1,0,1:1:0:0:
24,164,34358,6,0,B|83:149|83:149|98:108|98:108|165:85,1,167.999994873047,6|0,1:1|1:1,0:0:0:0:
247,92,34858,1,2,2:2:0:0:
269,184,35025,2,0,L|279:230,3,41.9999987182618,10|0|10|0,2:2|1:1|2:2|1:1,0:0:0:0:
298,229,35358,2,0,L|388:245,1,83.9999974365235,6|10,1:2|1:2,0:0:0:0:
462,216,35692,1,12,2:2:0:0:
508,298,35858,1,8,2:2:0:0:
433,352,36025,6,0,P|398:344|364:340,1,70,6|2,1:2|2:2,0:0:0:0:
279,371,36358,1,10,2:2:0:0:
279,371,36525,2,0,P|197:337|203:284,1,140,2|2,2:2|1:2,0:0:0:0:
244,218,37025,2,0,P|239:183|232:149,1,70,10|2,2:2|2:2,0:0:0:0:
165,79,37358,6,0,P|88:101|89:172,1,140,2|8,1:2|2:2,0:0:0:0:
7,205,37858,2,0,P|29:282|100:281,1,140,2|0,2:2|1:1,0:0:0:0:
136,225,38358,1,8,2:2:0:0:
317,279,38692,6,0,P|385:264|454:256,1,140,2|8,1:2|2:2,0:0:0:0:
481,161,39192,1,2,2:2:0:0:
481,161,39275,1,2,2:2:0:0:
481,161,39358,2,0,P|446:168|412:172,1,70,2|0,2:2|1:1,0:0:0:0:
341,119,39692,1,10,2:2:0:0:
181,244,40025,6,0,P|143:219|135:185,1,70,0|2,1:1|2:2,0:0:0:0:
50,191,40358,2,0,P|52:145|78:121,1,70,10|2,2:2|2:2,0:0:0:0:
139,68,40692,2,0,P|131:33|127:0,2,70,2|2|10,2:2|1:2|2:2,0:0:0:0:
207,131,41192,1,2,2:2:0:0:
299,90,41358,6,0,P|367:107|389:177,1,140,2|10,1:2|2:2,0:0:0:0:
461,239,41858,2,0,P|382:251|308:267,1,140,2|2,2:2|1:2,0:0:0:0:
259,198,42358,2,0,P|219:220|206:255,1,70,10|0,2:2|0:0,0:0:0:0:
246,327,42692,5,2,1:2:0:0:
413,384,43025,1,10,2:2:0:0:
481,216,43358,2,0,P|474:176|467:139,1,70,2|2,2:2|1:2,0:0:0:0:
484,63,43692,1,10,2:2:0:0:
304,0,44025,6,0,P|289:68|279:137,1,140,2|10,1:2|2:2,0:0:0:0:
206,200,44525,2,0,P|139:175|143:108,1,140,2|0,2:2|1:1,0:0:0:0:
206,57,45025,1,8,2:2:0:0:
279,137,45192,5,2,2:2:0:0:
279,137,45275,1,2,2:2:0:0:
279,137,45358,2,0,P|293:205|303:274,1,140,2|8,1:2|2:2,3:3:0:0:
322,376,45858,1,2,2:2:0:0:
322,376,45941,1,2,2:2:0:0:
322,376,46024,2,0,P|288:369|254:364,1,70,2|0,2:2|1:1,0:0:0:0:
238,344,46275,2,0,P|204:351|169:356,1,70,2|0,2:2|0:0,0:0:0:0:
150,371,46525,1,2,2:2:0:0:
57,315,46692,6,0,P|50:349|41:383,2,70,6|2|10,1:2|2:2|2:2,0:0:0:0:
18,221,47192,2,0,P|85:204|101:134,1,140,2|2,2:2|1:2,0:0:0:0:
39,72,47692,1,10,2:2:0:0:
206,129,48025,6,0,P|250:117|279:112,1,70,2|2,1:2|2:2,0:0:0:0:
362,74,48358,1,8,2:2:0:0:
450,126,48525,1,2,2:2:0:0:
450,126,48608,1,2,2:2:0:0:
450,126,48692,2,0,P|442:160|437:195,1,70,2|2,2:2|1:2,0:0:0:0:
341,228,49025,2,0,P|349:194|354:159,1,70,10|2,2:2|2:2,0:0:0:0:
416,286,49358,5,6,1:2:0:0:
416,286,49525,2,0,P|394:313|361:320,1,70,2|10,2:2|2:2,0:0:0:0:
279,366,49858,2,0,P|221:343|217:258,1,140,2|2,2:2|1:2,0:0:0:0:
249,191,50358,2,0,P|241:157|236:122,1,70,10|2,2:2|2:2,0:0:0:0:
317,67,50692,6,0,P|295:35|261:39,2,70,2|0|10,1:2|0:0|2:2,0:0:0:0:
120,109,51358,2,0,P|115:144|107:178,1,70,2|2,2:2|1:2,0:0:0:0:
20,182,51692,2,0,P|26:240|84:249,1,105,10|0,2:2|0:0,0:0:0:0:
91,266,52025,6,0,P|148:253|205:245,1,105,6|0,1:2|0:0,0:0:0:0:
200,259,52358,2,0,P|235:264|269:273,1,70,10|2,2:2|2:2,0:0:0:0:
341,345,52692,1,2,2:2:0:0:
341,345,52775,1,2,2:2:0:0:
341,345,52858,1,2,1:2:0:0:
428,326,53025,2,0,P|445:323|462:319,2,35,10|2|2,2:2|2:2|2:2,0:0:0:0:
425,229,53358,6,0,P|408:174|361:161,1,105,6|0,1:2|0:0,0:0:0:0:
357,139,53692,2,0,P|322:153|307:191,1,70,10|2,2:2|2:2,0:0:0:0:
268,272,54025,1,2,2:2:0:0:
268,272,54108,1,2,2:2:0:0:
268,272,54191,1,2,1:2:0:0:
177,252,54358,2,0,P|160:249|143:245,2,35,10|2|2,2:2|2:2|2:2,0:0:0:0:
165,146,54692,5,6,1:2:0:0:
165,146,54775,2,0,P|155:94|151:59,1,70,2|0,2:2|0:0,0:0:0:0:
144,39,55025,2,0,P|178:33|212:26,1,70,10|0,2:2|0:0,0:0:0:0:
303,69,55358,2,0,P|300:86|296:103,2,35,10|0|2,2:2|0:0|1:2,0:0:0:0:
378,2,55692,1,10,2:2:0:0:
432,179,56025,5,14,2:2:0:0:
432,179,56192,1,10,2:2:0:0:
452,267,56358,1,10,2:2:0:0:
452,267,56525,1,10,2:2:0:0:
467,353,56692,6,0,P|450:357|434:362,3,35,2|2|2|2,1:2|1:2|1:2|1:2,0:0:0:0:
405,382,57025,5,10,2:2:0:0:
405,382,57109,1,10,2:2:0:0:
405,382,57192,2,0,L|369:373,1,35,10|10,2:2|2:2,0:0:0:0:
345,370,57358,6,0,B|274:358|274:358|243:321|243:321|169:309,1,181.999991668702,6|2,1:2|2:2,0:0:0:0:
88,337,57858,2,0,B|68:294|68:294|104:260,1,90.9999958343508,6|2,1:2|2:2,0:0:0:0:
180,211,58191,1,2,2:2:0:0:
264,238,58358,6,0,L|448:202,1,181.999991668702,6|2,1:2|2:2,0:0:0:0:
481,116,58858,2,0,B|500:73|500:73|464:39,1,90.9999958343508,6|2,1:2|2:2,0:0:0:0:
390,104,59191,1,2,2:2:0:0:
290,66,59358,6,0,B|228:76|228:76|197:112|197:112|126:124,2,181.999991668702,6|6|8,1:2|1:2|2:2,0:0:0:0:
311,173,60191,5,2,1:2:0:0:
311,173,60274,1,2,2:2:0:0:
311,173,60358,2,0,P|321:210|325:243,1,56,2|0,2:2|0:0,0:0:0:0:
398,283,60691,2,0,P|388:320|384:353,1,56,2|2,1:2|2:2,0:0:0:0:
292,371,61024,2,0,P|262:353|252:325,2,56,2|2|2,2:2|1:2|2:2,0:0:0:0:
130,271,61691,2,0,P|166:257|186:214,1,84,6|0,1:2|0:0,0:0:0:0:
191,185,62024,6,0,B|194:162|194:162|83:124|83:124|89:80,1,181.999991668702,6|2,1:2|2:2,0:0:0:0:
163,25,62524,2,0,B|193:-8|193:-8|238:10,1,90.9999958343508,6|2,1:2|2:2,0:0:0:0:
283,81,62857,1,2,2:2:0:0:
361,19,63024,6,0,L|395:197,1,181.999991668702,6|2,1:2|2:2,0:0:0:0:
447,283,63524,2,0,B|417:316|417:316|372:298,1,90.9999958343508,6|2,1:2|2:2,0:0:0:0:
289,263,63857,1,2,2:2:0:0:
242,345,64024,6,0,L|276:167,2,181.999991668702,6|6|8,1:2|1:2|2:2,0:0:0:0:
169,260,64857,5,2,2:2:0:0:
169,260,64941,1,2,2:2:0:0:
168,260,65024,2,0,P|142:269|124:290,1,56,2|0,2:2|0:0,0:0:0:0:
55,345,65357,2,0,P|28:335|10:314,1,56,2|2,1:2|2:2,0:0:0:0:
54,232,65691,6,0,L|35:117,1,115.50000352478,6|0,1:2|0:0,0:0:0:0:
29,84,66024,2,0,L|144:65,1,115.50000352478,6|0,1:2|0:0,0:0:0:0:
176,57,66357,1,6,1:2:0:0:
275,132,66524,5,0,1:1:0:0:
275,132,66607,1,0,1:1:0:0:
275,132,66691,2,0,B|266:184|266:184|245:213|245:213|236:264,1,136.499993751526,6|0,1:2|0:0,0:0:0:0:
234,290,67024,1,10,2:2:0:0:
275,373,67191,6,0,L|469:349,1,181.999991668702,6|10,1:2|2:2,0:0:0:0:
477,263,67691,6,0,B|429:212|429:212|360:235,1,136.499993751526,6|0,1:2|0:0,0:0:0:0:
341,243,68024,1,10,2:2:0:0:
236,260,68191,6,0,B|207:79,1,181.999991668702,6|10,1:2|2:2,0:0:0:0:
124,27,68691,1,6,1:2:0:0:
124,27,68857,1,2,2:2:0:0:
72,106,69024,5,4,1:2:0:0:
266,10,69357,1,8,2:2:0:0:
336,90,69524,1,2,2:2:0:0:
336,90,69607,1,2,2:2:0:0:
336,90,69691,2,0,P|370:77|383:48,1,70,2|10,2:2|2:2,0:0:0:0:
460,0,70024,2,2,P|494:13|507:42,1,70,6|2,2:2|2:2,0:0:0:0:
511,84,70274,1,2,1:2:0:0:
511,84,70357,6,0,L|488:201,1,105,10|0,2:2|1:1,0:0:0:0:
478,223,70691,2,0,B|449:197|449:197|416:208,1,70,10|2,2:2|1:2,0:0:0:0:
383,233,70941,1,8,2:2:0:0:
383,233,71024,2,0,L|391:270,3,35,2|0|10|0,2:2|1:1|2:2|1:1,0:0:0:0:
353,254,71357,6,0,L|266:235,1,83.9999974365235,14|8,2:2|2:2,0:0:0:0:
200,296,71691,1,8,2:2:0:0:
200,296,71857,1,12,2:2:0:0:
112,273,72024,2,0,B|84:242|84:242|96:192,1,83.9999974365235,8|8,2:2|2:2,0:0:0:0:
150,128,72357,5,14,2:2:0:0:
150,128,72523,1,8,2:2:0:0:
234,156,72691,2,0,L|321:137,1,83.9999974365235,8|14,2:2|2:2,0:0:0:0:
390,192,73024,1,8,2:2:0:0:
390,192,73190,1,8,2:2:0:0:
475,170,73357,2,0,B|490:128|490:128|464:91,1,83.9999974365235,12|8,2:2|2:2,0:0:0:0:
399,59,73691,6,0,L|408:16,3,41.9999987182618,12|8|8|8,2:2|2:2|2:2|2:2,0:0:0:0:
371,53,74024,2,0,L|380:96,3,41.9999987182618,8|8|8|8,2:2|2:2|2:2|2:2,0:0:0:0:
349,51,74357,2,0,L|262:32,1,83.9999974365235,10|10,2:2|2:2,0:0:0:0:
181,6,74691,5,10,2:2:0:0:
181,6,74775,1,8,2:2:0:0:
181,6,74858,2,0,L|131:17,1,41.9999987182618,10|8,2:2|2:2,0:0:0:0:
132,49,75024,6,0,B|137:91|137:91|136:93|136:93|140:131,1,83.9999974365235,12|0,2:2|1:1,0:0:0:0:
151,142,75274,2,0,B|145:184|145:184|146:186|146:186|142:224,1,83.9999974365235,12|0,2:2|1:1,0:0:0:0:
122,244,75524,6,0,B|158:248|158:248|171:268|171:268|214:274,1,97.9999970092774,12|10,2:2|1:2,0:0:0:0:
229,282,75774,2,0,B|265:277|265:277|278:257|278:257|321:251,1,97.9999970092774,14|10,1:2|1:2,0:0:0:0:
338,249,76025,5,6,1:2:0:0:
379,86,86691,6,0,P|396:17|493:29,1,183.750007009506,2|0,2:2|0:0,0:0:0:0:
491,39,87358,2,0,P|484:63|480:99,1,52.5000020027161,2|0,2:2|0:0,0:0:0:0:
477,173,87691,1,0,0:0:0:0:
308,242,88024,6,0,B|242:249|218:196|225:189|235:184|208:128|141:133,2,210.000008010865,2|2|2,2:2|2:2|2:2,0:0:0:0:
315,155,89524,1,2,2:2:0:0:
315,155,89691,1,2,2:2:0:0:
478,376,90358,6,0,P|487:319|495:290,1,78.7500030040742,2|0,2:2|0:0,0:0:0:0:
508,288,90691,2,0,P|497:209|404:189,1,183.750007009506,2|0,2:2|0:0,0:0:0:0:
393,195,91358,2,0,P|401:238|406:268,1,52.5000020027161,2|0,2:2|0:0,0:0:0:0:
311,262,91691,2,0,P|303:219|298:189,1,52.5000020027161
331,111,92024,5,2,2:2:0:0:
331,111,92191,1,2,2:2:0:0:
331,111,92358,1,2,2:2:0:0:
167,51,92691,6,0,P|146:59|136:95,1,52.5000020027161
84,177,93024,2,0,P|60:167|49:144,1,52.5000020027161
126,98,93358,6,0,B|52:1|52:1|113:139|136:295,1,420.000016021729,2|2,2:2|2:2,0:0:0:0:
463,363,96691,6,0,P|465:347|470:327,4,31.4999990386963,2|2|2|2|2,2:2|2:2|2:2|2:2|2:2,0:0:0:0:
277,300,97358,6,0,L|201:310,1,70,4|0,1:2|0:0,0:0:0:0:
184,334,97608,2,0,L|108:323,1,70,6|0,1:2|0:0,0:0:0:0:
80,344,97858,2,0,P|42:319|35:276,1,90.9999958343508,6|0,1:2|0:0,0:0:0:0:
0,245,98108,2,0,P|6:193|41:171,1,90.9999958343508,6|0,1:2|0:0,0:0:0:0:
79,162,98358,6,0,B|114:130|114:130|156:144,1,90.9999958343508,6|6,1:2|1:2,0:0:0:0:
332,90,98858,6,2,L|341:24,2,45.4999979171754,8|0|0,1:2|1:1|1:1,0:0:0:0:
363,81,99108,2,0,L|372:146,2,45.4999979171754,10|0|0,2:2|1:1|1:1,0:0:0:0:
398,66,99358,2,0,L|407:0,2,45.4999979171754,10|0|2,2:2|1:1|1:2,0:0:0:0:
466,151,99691,5,10,2:2:0:0:
466,151,99775,1,8,1:2:0:0:
466,151,99858,2,0,L|478:203,1,45.4999979171754,10|8,2:2|2:2,0:0:0:0:
465,228,100024,6,0,P|378:279|385:319,1,136.499993751526,4|0,1:2|0:0,0:0:0:0:
377,348,100358,2,0,P|329:339|280:333,1,90.9999958343508,8|2,2:2|2:2,0:3:0:0:
241,329,100608,1,2,2:2:0:0:
241,329,100691,2,0,P|250:281|256:232,1,90.9999958343508,2|0,2:2|1:1,0:0:0:0:
276,145,101024,2,0,P|247:86|182:83,1,136.499993751526,8|0,2:2|0:3,0:3:0:0:
150,94,101358,6,0,P|159:142|165:191,1,90.9999958343508,2|0,1:2|0:0,0:0:0:0:
83,242,101691,1,10,2:2:0:0:
83,242,101774,1,2,2:2:0:0:
83,242,101858,1,2,2:2:0:0:
159,292,102024,6,0,P|153:314|152:336,3,45.4999979171754,2|2|2|2,2:2|2:2|1:2|2:2,0:0:0:0:
195,339,102358,2,0,P|197:362|202:384,3,45.4999979171754,10|2|2|2,2:2|2:2|2:2|2:2,0:0:0:0:
245,350,102691,6,0,P|295:345|316:307,1,90.9999958343508,6|0,1:2|0:3,0:3:0:0:
332,225,103024,1,10,2:2:0:0:
238,227,103191,6,0,P|247:179|253:130,1,90.9999958343508,2|0,2:2|0:0,0:0:0:0:
265,51,103524,1,2,1:2:0:0:
344,4,103691,6,0,P|394:13|415:64,1,90.9999958343508,8|2,2:2|2:2,0:3:0:0:
431,88,103941,1,2,2:2:0:0:
431,88,104024,6,0,P|455:83|479:80,3,45.4999979171754,6|2|2|2,1:2|2:2|2:2|2:2,0:0:0:0:
465,119,104358,2,0,P|456:167|450:216,1,90.9999958343508,10|2,2:2|2:2,0:0:0:0:
476,300,104691,5,2,2:2:0:0:
476,300,104774,1,2,2:2:0:0:
476,300,104858,1,2,1:2:0:0:
403,369,105024,2,0,P|363:346|354:300,1,90.9999958343508,10|2,2:2|2:2,0:0:0:0:
301,223,105358,6,0,P|266:273|225:273,1,90.9999958343508,4|2,1:2|2:2,0:0:0:0:
203,303,105608,1,2,2:2:0:0:
203,303,105691,2,0,P|153:268|153:227,1,90.9999958343508,8|2,2:2|2:2,0:0:0:0:
187,149,106024,6,0,P|130:157|82:164,1,90.9999958343508,2|0,2:2|1:1,0:0:0:0:
51,170,106274,1,2,2:2:0:0:
51,170,106358,2,0,P|59:113|66:65,1,90.9999958343508,8|2,2:2|2:2,0:0:0:0:
132,5,106691,6,0,P|179:6|204:52,1,90.9999958343508,6|2,1:2|2:2,0:0:0:0:
282,97,107024,1,10,2:2:0:0:
282,97,107108,1,2,2:2:0:0:
282,97,107191,1,2,2:2:0:0:
253,182,107358,6,0,P|249:204|245:239,3,45.4999979171754,2|2|2|2,2:2|2:2|1:2|2:2,0:0:0:0:
221,239,107691,6,0,P|218:216|214:194,3,45.4999979171754,10|2|2|10,2:2|2:2|1:2|2:2,0:0:0:0:
246,258,108024,6,0,B|284:270|284:270|290:294|290:294|328:307,1,105.000004005432,14|0,2:2|0:0,0:0:0:0:
355,318,108274,2,0,B|393:305|393:305|398:281|398:281|437:268,1,105.000004005432,14|0,2:2|0:0,0:0:0:0:
466,269,108524,6,0,B|496:224|496:224|476:165,1,105.000004005432,14|0,2:2|0:0,0:0:0:0:
461,147,108774,2,0,B|416:177|416:177|357:157,1,105.000004005432,14|0,2:2|0:0,0:0:0:0:
336,147,109024,1,14,2:2:0:0:
265,74,109191,6,0,P|191:86|152:195,1,181.999991668702,6|10,1:2|2:2,0:0:0:0:
125,265,109691,1,2,2:2:0:0:
125,265,109774,1,10,2:2:0:0:
125,265,109858,2,0,P|76:249|33:241,1,90.9999958343508,2|10,2:2|2:2,0:0:0:0:
59,148,110191,5,14,1:2:0:0:
59,148,110274,1,2,1:2:0:0:
59,148,110358,2,0,P|66:123|70:101,3,45.4999979171754,10|10|10|10,2:2|2:2|2:2|2:2,0:0:0:0:
42,165,110691,6,0,B|36:110|36:110|15:63,1,105.000004005432,14|0,2:2|0:0,0:0:0:0:
0,29,110941,2,0,B|55:23|55:23|101:2,1,105.000004005432,14|0,2:2|0:0,0:0:0:0:
138,21,111191,6,0,B|177:33|177:33|187:52|187:52|236:70,1,105.000004005432,14|0,2:2|0:0,0:0:0:0:
263,81,111441,2,0,B|302:69|302:69|312:50|312:50|361:32,1,105.000004005432,14|0,2:2|0:0,0:0:0:0:
391,22,111691,1,14,2:2:0:0:
462,111,111858,6,0,P|395:112|353:216,1,181.999991668702,6|2,1:2|2:2,0:3:0:0:
433,272,112358,1,10,2:2:0:0:
433,272,112441,1,2,2:2:0:0:
433,272,112524,2,0,P|336:235|251:225,1,181.999991668702,2|10,1:2|2:2,0:0:0:0:
169,190,113024,5,10,2:2:0:0:
169,190,113108,1,10,2:2:0:0:
169,190,113191,2,0,L|124:200,1,45.4999979171754,10|10,2:2|2:2,0:0:0:0:
120,225,113358,6,0,P|136:280|141:330,1,90.9999958343508,6|8,1:2|2:2,0:0:0:0:
226,369,113691,1,10,2:2:0:0:
226,369,113774,1,2,2:2:0:0:
226,369,113858,1,10,2:2:0:0:
313,340,114024,2,0,P|316:317|323:295,2,45.4999979171754,10|2|10,2:2|2:2|2:2,0:0:0:0:
407,363,114358,2,0,P|454:336|457:295,1,90.9999958343508,10|2,2:2|1:2,0:0:0:0:
405,179,114691,6,0,P|409:205|414:227,3,45.4999979171754,14|0|10|2,2:2|0:0|2:2|2:2,0:0:0:0:
389,218,115024,2,0,P|344:208|299:202,1,90.9999958343508,8|10,2:2|2:2,0:0:0:0:
266,179,115274,1,0,0:0:0:0:
266,179,115358,2,0,P|213:172|170:162,1,90.9999958343508,10|10,1:2|1:2,0:0:0:0:
92,202,115691,1,10,1:2:0:0:
92,202,115774,1,2,1:2:0:0:
92,202,115858,1,10,1:2:0:0:
33,119,116024,6,0,B|17:68|17:68|63:53,1,97.9999970092774,14|10,2:2|2:2,0:0:0:0:
84,19,116274,1,10,2:2:0:0:
84,19,116358,2,0,B|134:3|134:3|149:49,1,97.9999970092774,2|10,2:2|2:2,0:0:0:0:
238,95,116691,6,0,B|282:84|282:84|286:81|286:81|337:67,1,97.9999970092774,14|10,2:2|2:2,0:0:0:0:
379,56,116941,1,10,2:2:0:0:
379,56,117024,2,0,B|389:100|389:100|393:104|393:104|405:149,1,97.9999970092774,10|10,2:2|2:2,0:0:0:0:
443,262,117358,5,14,2:2:0:0:
443,262,117441,2,0,B|437:285|437:285|363:265,1,97.9999970092774,14|8,2:2|2:2,0:0:0:0:
318,277,117691,2,0,B|294:271|294:271|314:197,1,97.9999970092774,14|8,2:2|2:2,0:0:0:0:
273,171,117941,2,0,B|196:185|196:185|188:212,1,97.9999970092775,14|8,2:2|2:2,0:0:0:0:
205,223,118191,1,14,2:2:0:0:
110,180,118358,5,14,2:2:0:0:
92,175,118441,1,10,2:2:0:0:
74,170,118524,1,14,2:2:0:0:
57,165,118607,1,10,2:2:0:0:
