osu file format v14

[General]
AudioFilename: audio.mp3
AudioLeadIn: 0
PreviewTime: 35923
Countdown: 0
SampleSet: None
StackLeniency: 0.3
Mode: 0
LetterboxInBreaks: 0
WidescreenStoryboard: 1

[Editor]
Bookmarks: 6673,14673,36006,57339,66672,76339,76464,76631,76756,76923,77048,77214,77381,77506,77673,77839,77964,78173,78298,78464,78589,78756,78881,79048,79214,79339,79506,79631,79798,79964,80089,80256,80423,80548,80756,80923,81048,81214,81381,81548,81714,81881,82048,82256,82381,82589,82714,82881,83048,83214,83381,83506,83673,83839,84006,84173,84339,84506,84673,84839,84964,85131,85298,85464,85631,85839,86006,86173,86339,86548,86673,97339,109173
DistanceSpacing: 0.7
BeatDivisor: 12
GridSize: 16
TimelineZoom: 3.999998

[Metadata]
Title:Eeliaas
TitleUnicode:Eeliaas
Artist:Mitsuki
ArtistUnicode:ミツキ
Creator:Ascended
Version:Flask's Catastrophic Extreme
Source:Muse Dash
Tags:りにゃ Rinya Elias Eelias Eliaas Mitsuboshi Records ミツボシレコーズ 3rd EP Defeated Memorial Video Game Electronic Instrumental techno artcore -ascended- -_ascended_- Flask Down atlas- atlas aeniko osu! mappers guild mpg fa featured artist showcase
BeatmapID:3607631
BeatmapSetID:1737106

[Difficulty]
HPDrainRate:5
CircleSize:4.2
OverallDifficulty:9
ApproachRate:9.5
SliderMultiplier:2.4
SliderTickRate:1

[Events]
//Background and Video events
0,0,"childe.jpg",0,0
//Break Periods
2,76558,86166
//Storyboard Layer 0 (Background)
//Storyboard Layer 1 (Fail)
//Storyboard Layer 2 (Pass)
//Storyboard Layer 3 (Foreground)
//Storyboard Layer 4 (Overlay)
//Storyboard Sound Samples

[TimingPoints]
1025,333.333333333333,4,2,1,30,1,0
1358,-100,4,2,1,30,0,0
1359,333.333333333333,4,2,1,30,1,0
5858,-133.333333333333,4,2,1,30,0,0
6357,-100,4,2,1,30,0,0
6691,-100,4,2,1,40,0,0
12024,-200,4,2,1,50,0,0
13358,-111.111111111111,4,2,1,50,0,0
14025,-76.9230769230769,4,2,1,50,0,0
14691,-50,4,2,1,70,0,0
15025,-66.6666666666667,4,2,1,70,0,0
15357,-66.6666666666667,4,2,1,70,0,0
18024,-66.6666666666667,4,2,1,70,0,0
18525,-50,4,2,1,70,0,0
18691,-50,4,2,1,70,0,0
19192,-66.6666666666667,4,2,1,70,0,0
20024,-50,4,2,1,70,0,0
20358,-100,4,2,1,70,0,0
20691,-50,4,2,1,70,0,0
21025,-66.6666666666667,4,2,1,70,0,0
21192,-25,4,2,1,70,0,0
22691,-50,4,2,1,70,0,0
23025,-66.6666666666667,4,2,1,70,0,0
23357,-100,4,2,1,70,0,0
23692,-66.6666666666667,4,2,1,70,0,0
24191,-50,4,2,1,70,0,0
24358,-55.5555555555556,4,2,1,70,0,0
24525,-66.6666666666667,4,2,1,70,0,0
24692,-74.0740740740741,4,2,1,70,0,0
24858,-90.9090909090909,4,2,1,70,0,0
25025,-111.111111111111,4,2,1,70,0,0
25192,-142.857142857143,4,2,1,70,0,0
25357,-50,4,2,1,70,0,0
25692,-66.6666666666667,4,2,1,70,0,0
26024,-50,4,2,1,70,0,0
26691,-66.6666666666667,4,2,1,70,0,0
27025,-50,4,2,1,70,0,0
28024,-50,4,2,1,70,0,0
28191,-100,4,2,1,70,0,0
28607,-66.6666666666667,4,2,1,70,0,0
30692,-200,4,2,1,70,0,0
31692,-133.333333333333,4,2,1,70,0,0
32025,-66.6666666666667,4,2,1,70,0,0
32192,-125,4,2,1,70,0,0
33025,-66.6666666666667,4,2,1,70,0,0
33357,-83.3333333333333,4,2,1,70,0,0
33858,-66.6666666666667,4,2,1,70,0,0
34358,-55.5555555555556,4,2,1,70,0,0
34858,-83.3333333333333,4,2,1,70,0,0
35192,-66.6666666666667,4,2,1,70,0,0
35357,-55.5555555555556,4,2,1,70,0,0
35524,-100,4,2,1,70,0,0
35691,-100,4,2,1,70,0,0
35857,-100,4,2,1,70,0,0
36024,-83.3333333333333,4,2,1,55,0,0
57358,333.333333333333,7,2,1,60,1,0
57358,-66.6666666666667,4,2,1,60,0,0
58358,-58.8235294117647,4,2,1,60,0,0
58858,-66.6666666666667,4,2,1,60,0,0
59358,-55.5555555555556,4,2,1,60,0,0
59691,-66.6666666666667,4,2,1,60,0,0
61691,-100,4,2,1,60,0,0
62024,-66.6666666666667,4,2,1,60,0,0
63024,-58.8235294117647,4,2,1,60,0,0
63524,-66.6666666666667,4,2,1,60,0,0
66525,-66.6666666666667,4,2,1,65,0,0
66691,-60.6060606060606,4,2,1,65,0,0
70024,-52.6315789473684,4,2,1,65,0,0
71357,-55.5555555555556,4,2,1,65,0,0
71524,-83.3333333333333,4,2,1,65,0,0
71857,-55.5555555555556,4,2,1,65,0,0
72024,-83.3333333333333,4,2,1,65,0,0
72357,-55.5555555555556,4,2,1,65,0,0
72524,-83.3333333333333,4,2,1,65,0,0
72857,-55.5555555555556,4,2,1,65,0,0
73024,-83.3333333333333,4,2,1,65,0,0
73357,-55.5555555555556,4,2,1,65,0,0
75023,-45.4545454545455,4,2,1,65,0,0
76025,333.333333333333,4,2,1,65,1,0
76025,-41.6666666666667,4,2,1,65,0,0
76358,-41.6666666666667,4,2,1,5,0,0
86688,-100,4,2,1,65,0,0
86691,-133.333333333333,4,2,1,40,0,0
94691,-100,4,2,1,50,0,0
96691,-66.6666666666667,4,2,1,70,0,0
97358,-50,4,2,1,60,0,1
98858,-50,4,2,1,60,0,1
99941,-100,4,2,1,60,0,0
100024,-66.6666666666667,4,2,1,70,0,1
108024,-50,4,2,1,70,0,1
109357,-66.6666666666667,4,2,1,70,0,1
110691,-50,4,2,1,70,0,1
112024,-66.6666666666667,4,2,1,70,0,1
113358,-50,4,2,1,70,0,1
117358,-66.6666666666667,4,2,1,70,0,1
117691,-58.8235294117647,4,2,1,70,0,1
117941,-52.6315789473684,4,2,1,70,0,1
118691,-100,4,2,1,70,0,0

[Colours]
Combo1 : 149,149,255
Combo2 : 217,217,255

[HitObjects]
39,11,1025,5,0,0:0:0:0:
43,40,1108,1,0,0:0:0:0:
47,69,1191,1,0,0:0:0:0:
51,98,1274,1,0,0:0:0:0:
55,127,1357,5,2,2:2:0:0:
120,197,1525,1,2,2:2:0:0:
200,145,1692,1,2,2:2:0:0:
55,127,1858,1,2,2:2:0:0:
61,349,2525,1,0,0:0:0:0:
77,356,2608,1,0,0:0:0:0:
93,363,2692,5,2,2:2:0:0:
181,327,2858,1,2,2:2:0:0:
140,239,3025,1,2,2:2:0:0:
276,306,3192,1,2,2:2:0:0:
378,41,3692,1,0,0:0:0:0:
401,39,3775,1,0,0:0:0:0:
424,37,3858,1,0,0:0:0:0:
448,34,3942,1,0,0:0:0:0:
471,33,4025,5,2,2:2:0:0:
432,121,4192,1,2,2:2:0:0:
510,175,4358,1,2,2:2:0:0:
471,33,4525,1,2,2:2:0:0:
360,251,4858,1,2,2:2:0:0:
368,267,4942,1,2,2:2:0:0:
377,282,5025,1,2,2:2:0:0:
321,360,5192,5,2,2:2:0:0:
173,57,5525,1,2,2:2:0:0:
23,361,5858,6,0,B|41:299|97:301|107:309|111:326|158:329|193:311|197:261,1,225.000008583069,2|0,2:2|0:0,0:0:0:0:
260,228,6358,1,0,0:0:0:0:
259,191,6442,1,0,0:0:0:0:
234,164,6525,1,0,0:0:0:0:
199,156,6608,1,0,0:0:0:0:
165,170,6692,5,2,2:2:0:0:
95,131,6858,1,2,2:2:0:0:
33,236,7025,2,0,P|61:221|95:211,1,60,2|0,2:3|0:0,0:0:0:0:
17,30,7192,2,0,P|67:46|141:61,1,120,2|0,2:2|0:0,0:0:0:0:
133,59,7525,2,0,P|154:32|155:3,1,60,2|0,2:3|0:0,0:0:0:0:
308,7,7692,1,2,2:2:0:0:
343,9,7775,1,2,2:2:0:0:
371,30,7858,1,2,2:2:0:0:
377,65,7942,1,2,2:2:0:0:
367,99,8025,5,2,2:2:0:0:
294,145,8192,1,2,2:2:0:0:
415,267,8358,2,0,P|446:256|475:252,1,60,2|0,2:3|0:0,0:0:0:0:
491,163,8525,2,0,P|431:175|363:188,1,120,2|0,2:2|0:0,0:0:0:0:
228,96,8858,1,2,2:2:0:0:
200,142,8942,1,0,0:0:0:0:
221,196,9025,1,2,2:2:0:0:
262,216,9108,1,2,2:2:0:0:
286,237,9192,1,2,2:3:0:0:
286,263,9275,1,2,2:2:0:0:
277,282,9358,5,2,2:2:0:0:
212,331,9525,1,2,2:2:0:0:
57,276,9692,2,0,P|36:306|39:332,1,60,2|0,2:3|0:0,0:0:0:0:
121,375,9858,2,0,P|127:321|149:253,1,120,2|0,2:2|0:0,0:0:0:0:
245,49,10192,2,0,P|273:69|275:97,1,60,2|0,2:3|0:0,0:0:0:0:
242,168,10358,1,2,2:2:0:0:
245,49,10525,6,0,P|171:64|166:156,1,180,2|0,2:2|0:0,0:0:0:0:
161,164,10858,1,2,2:2:0:0:
326,160,11025,2,0,P|386:172|391:277,1,180,2|0,2:3|0:0,0:0:0:0:
390,283,11358,1,2,2:2:0:0:
318,347,11525,1,0,0:0:0:0:
320,356,11608,1,0,0:0:0:0:
321,366,11692,1,2,2:2:0:0:
219,324,11858,1,2,2:3:0:0:
162,202,12025,6,0,B|134:123|41:96|6:167|-27:156|-27:156|5:166|8:232|83:254|165:205,1,450,6|0,1:2|0:0,0:0:0:0:
184,201,13358,6,0,B|257:214|315:158|278:103|300:84|300:84|280:103|231:78|183:123|185:203,1,377.999988464356,2|0,1:2|0:0,0:0:0:0:
178,222,14025,6,0,B|149:258|161:306|202:304|205:321|205:321|201:304|230:286|221:247|178:223,1,233.999989288331,2|0,1:2|0:0,0:0:0:0:
171,211,14358,5,0,1:1:0:0:
180,161,14442,1,0,1:1:0:0:
189,111,14525,1,0,1:1:0:0:
198,61,14608,1,0,1:1:0:0:
207,11,14692,6,0,B|338:30|338:30|349:28|349:28|507:53|507:53|480:69|480:69|454:53,1,360,6|0,1:2|0:0,0:0:0:0:
405,116,15025,2,0,L|424:167,1,45.0000017166138,10|0,2:2|0:0,0:0:0:0:
379,139,15108,2,0,L|428:161,1,45.0000017166138,2|0,2:2|0:0,0:0:0:0:
376,173,15192,2,0,L|427:154,1,45.0000017166138,2|0,2:2|0:0,0:0:0:0:
398,199,15275,2,0,L|420:149,1,45.0000017166138,2|0,2:2|0:0,0:0:0:0:
433,202,15358,1,2,2:3:0:0:
480,366,15525,6,0,P|501:343|479:361,1,90.0000034332277,2|0,1:2|0:0,0:0:0:0:
404,358,15692,2,0,B|366:380|327:363|306:321|312:313|320:305|320:250|264:212|204:256,1,270.000010299683,8|0,2:2|0:0,0:0:0:0:
59,384,16025,6,0,P|108:367|242:332,1,180.000006866455,0|2,1:1|2:3,0:0:0:0:
241,338,16275,1,0,0:0:0:0:
237,350,16358,5,8,2:2:0:0:
170,378,16470,1,2,2:2:0:0:
130,318,16581,1,2,2:2:0:0:
170,257,16692,6,0,P|177:220|96:191,1,135.000005149841,2|0,2:3|0:0,0:0:0:0:
95,191,16858,2,0,P|51:162|54:121,1,90.0000034332277,2|0,1:2|0:0,0:0:0:0:
62,271,17025,2,0,B|46:227|66:179|117:181|129:207|191:139|186:78|123:40,1,270.000010299683,8|0,2:2|0:0,0:0:0:0:
101,2,17358,6,0,B|77:6|55:-8|55:-8|74:5|87:39,1,90.0000034332277,2|0,1:3|0:0,0:0:0:0:
191,109,17525,1,0,0:0:0:0:
230,117,17608,1,2,2:2:0:0:
260,94,17692,1,10,2:2:0:0:
422,201,17858,6,0,B|430:178|453:166|453:166|432:176|396:170,1,90.0000034332277,2|0,2:3|0:0,0:0:0:0:
352,214,18025,1,2,2:2:0:0:
344,217,18108,1,2,2:2:0:0:
335,152,18192,6,0,B|330:178|330:178|364:268|364:268|359:284,1,135.000005149841,2|0,1:2|0:0,0:0:0:0:
354,283,18358,2,0,B|357:271|357:271|323:181|323:181|328:155,1,135.000005149841,8|0,2:2|0:0,0:0:0:0:
268,232,18525,2,0,B|220:270|220:270|299:277,1,120,2|0,2:3|0:0,0:0:0:0:
505,387,18692,6,0,B|482:359|482:359|421:351|421:351|413:358|413:358|360:349|360:349|353:356|353:356|308:349|308:349|302:354|302:354|261:345|261:345|255:349|255:349|208:345|208:345|202:349|202:349|142:341|142:341|121:309,1,420,2|0,1:2|0:0,0:0:0:0:
119,304,19025,1,8,2:2:0:0:
118,221,19192,6,0,B|152:188|152:188|161:238,1,90.0000034332277,2|0,1:2|0:0,0:0:0:0:
191,341,19358,2,0,B|202:387|202:387|162:373,1,90.0000034332277,2|0,2:2|0:0,0:0:0:0:
50,343,19525,2,0,B|4:330|4:330|36:303,1,90.0000034332277,2|0,1:3|0:0,0:0:0:0:
119,304,19692,6,0,L|147:294,9,30.0000011444092,10|0|0|0|0|0|0|0|0|0,2:2|0:0|0:0|0:0|0:0|0:0|0:0|0:0|0:0|0:0,0:0:0:0:
210,349,20025,6,0,B|248:318|235:272|224:235|233:179|151:217|137:168|222:65|253:65|301:95|320:174|311:214|267:220|230:241|230:239,1,420,2|0,1:3|0:0,0:0:0:0:
239,235,20358,2,0,L|297:252,1,60,8|0,2:2|0:0,0:0:0:0:
297,252,20525,2,0,L|239:235,1,60,2|0,2:2|0:0,0:0:0:0:
304,337,20692,6,0,B|329:350|329:350|406:311|406:311|411:302|411:302|494:261|494:261|516:273,1,240,2|2,2:3|1:2,0:0:0:0:
507,282,20914,1,2,0:0:0:0:
504,287,20970,1,2,0:0:0:0:
501,292,21025,2,0,B|459:262|459:262|482:213,1,90.0000034332277,10|0,2:2|0:0,0:0:0:0:
472,94,21192,6,0,B|463:71|463:71|482:62|482:62|492:83|492:83|472:99,12,80,2|0|0|0|0|0|2|0|0|0|0|0|0,2:1|0:0|0:0|0:0|0:0|0:0|1:1|0:0|0:0|0:0|0:0|0:0|0:0,0:0:0:0:
228,176,21692,2,0,B|236:154|236:154|216:143|216:143|206:164|206:164|221:178,12,80,10|0|0|0|0|0|0|0|0|0|0|0|0,2:1|0:0|0:0|0:0|0:0|0:0|0:0|0:0|0:0|0:0|0:0|0:0|0:0,0:0:0:0:
438,279,22192,6,0,B|429:256|429:256|448:247|448:247|458:268|458:268|438:284,6,80,2|0|0|0|0|0|8,1:1|0:0|0:0|0:0|0:0|0:0|2:2,0:0:0:0:
290,347,22470,2,0,B|299:324|299:324|280:315|280:315|270:336|270:336|290:352,5,80,2|0|2|0|0|0,0:1|0:0|2:2|0:0|0:0|0:0,0:0:0:0:
397,370,22692,6,0,B|370:315|370:315|370:305|370:305|348:235|348:235|295:214|295:214|286:134|286:134|414:187,1,420,2|0,1:2|0:0,0:0:0:0:
413,186,23025,2,0,B|457:177|457:177|443:127,1,90.0000034332277,10|0,2:2|0:0,0:0:0:0:
510,83,23192,2,0,B|501:39|501:39|451:53,1,90.0000034332277
384,74,23358,2,0,L|347:58,6,30,2|0|0|0|0|0|0,2:3|0:0|0:0|0:0|1:1|0:0|0:0,0:0:0:0:
278,93,23692,6,0,P|255:85|240:72,1,45.0000017166138,10|0,2:2|0:0,0:0:0:0:
252,107,23775,2,0,P|229:115|214:128,1,45.0000017166138,2|0,2:2|0:0,0:0:0:0:
231,92,23858,2,0,P|206:89|189:80,1,45.0000017166138,2|0,2:2|0:0,0:0:0:0:
204,103,23942,2,0,P|179:105|162:114,1,45.0000017166138,2|0,2:2|0:0,0:0:0:0:
174,91,24025,1,2,1:2:0:0:
69,36,24192,6,0,P|21:62|36:129,1,120,2|0,2:2|0:0,0:0:0:0:
0,184,24358,6,0,P|17:236|75:239,1,107.999996704102,10|0,2:2|0:0,0:0:0:0:
92,274,24525,6,0,P|133:284|167:250,1,90.0000034332277,2|0,1:2|0:0,0:0:0:0:
192,235,24692,6,0,P|226:231|256:264,1,81.0000003089905,2|0,2:2|0:0,0:0:0:0:
277,268,24858,6,0,P|289:304|277:332,1,66.0000020141602,2|0,1:2|0:0,0:0:0:0:
284,340,25025,6,0,P|267:364|243:371,1,53.9999983520508,10|0,2:2|0:0,0:0:0:0:
234,378,25192,6,0,P|210:374|196:356,1,41.9999987182618,2|0,1:2|0:0,0:0:0:0:
44,352,25358,6,0,P|114:331|102:156,1,240,4|0,1:2|0:0,0:0:0:0:
127,175,25608,1,0,0:0:0:0:
126,99,25692,6,0,P|129:76|138:56,1,45.0000017166138,10|0,2:2|0:0,0:0:0:0:
93,90,25775,2,0,P|79:71|71:51,1,45.0000017166138,2|0,2:2|0:0,0:0:0:0:
62,106,25858,2,0,P|39:102|19:93,1,45.0000017166138,2|0,2:2|0:0,0:0:0:0:
52,137,25942,2,0,P|33:150|13:158,1,45.0000017166138,2|0,2:2|0:0,0:0:0:0:
66,166,26025,2,0,B|117:216|188:189|174:153|234:126|298:160,2,240,2|2|10,2:3|1:2|2:2,0:0:0:0:
182,8,26525,1,0,0:0:0:0:
222,28,26608,1,0,0:0:0:0:
213,76,26692,6,0,P|194:163|183:263,1,180.000006866455,0|2,1:1|2:3,0:0:0:0:
251,300,26942,2,0,P|260:314|245:305,1,45.0000017166138
245,305,27025,6,0,B|187:260|111:259|111:259|69:289|94:332|94:332|161:339|217:378,1,360,8|0,2:2|0:0,0:0:0:0:
351,256,27358,1,2,2:2:0:0:
404,253,27442,1,2,2:2:0:0:
445,289,27525,1,2,1:2:0:0:
441,342,27608,1,2,2:2:0:0:
405,381,27692,2,0,P|374:388|324:316,1,120,8|0,2:2|0:0,0:0:0:0:
276,224,27858,1,0,0:0:0:0:
425,108,28025,6,0,P|488:39|395:47,1,240,2|0,1:3|0:0,0:0:0:0:
352,108,28275,1,2,2:2:0:0:
287,75,28358,1,10,2:2:0:0:
284,66,28442,1,0,0:0:0:0:
283,59,28525,1,2,2:2:0:0:
221,16,28608,2,0,B|183:53|183:53|211:191,1,180,2|0,2:3|0:0,0:0:0:0:
151,225,28858,6,0,B|211:207|211:207|222:209|222:209|286:191,1,135.000005149841,0|0,1:1|0:0,0:0:0:0:
283,199,29025,2,0,B|223:215|223:215|213:213|213:213|152:231,1,135.000005149841,8|0,2:2|0:0,0:0:0:0:
87,263,29192,2,0,B|64:255|64:255|79:240,2,45.0000017166138,2|0|0,2:3|0:0|0:0,0:0:0:0:
90,161,29358,6,0,L|144:338,1,180.000006866455,2|0,1:2|0:0,0:0:0:0:
216,354,29608,1,2,2:2:0:0:
219,348,29692,2,0,B|249:311|249:311|201:297,1,90.0000034332277,10|0,2:2|0:0,0:0:0:0:
76,368,29858,1,2,1:2:0:0:
324,343,30025,5,2,1:2:0:0:
364,365,30108,1,0,0:0:0:0:
402,337,30192,2,0,B|394:295|394:295|390:291|390:291|379:241,1,90.0000034332277,2|0,1:3|0:0,0:0:0:0:
452,92,30358,2,0,L|460:47,6,45.0000017166138,8|0|0|0|2|0|0,2:2|0:0|0:0|0:0|1:2|0:0|0:0,0:0:0:0:
379,162,30692,6,0,L|471:187,1,90.0000034332277,4|0,2:2|0:0,0:0:0:0:
283,197,31025,6,0,L|375:172,1,90.0000034332277,8|0,2:2|0:0,0:0:0:0:
185,163,31358,6,0,L|277:188,1,90.0000034332277,2|0,1:2|0:0,0:0:0:0:
89,198,31692,6,0,L|181:173,1,90.0000034332277,8|0,2:2|0:0,0:0:0:0:
72,100,31942,1,0,1:1:0:0:
56,108,32025,6,0,B|38:133|38:133|60:200,1,90.0000034332277,8|0,2:2|0:0,0:0:0:0:
96,363,32192,2,0,B|114:379|114:379|117:352,1,48,8|0,2:2|0:0,0:0:0:0:
17,299,32358,5,2,1:3:0:0:
84,276,32470,5,2,2:3:0:0:
150,253,32581,5,2,2:3:0:0:
212,296,32692,6,0,L|243:308,1,24,0|0,1:1|0:0,0:0:0:0:
245,303,32775,2,0,L|276:315,1,24,0|0,1:1|0:0,0:0:0:0:
279,310,32858,2,0,L|310:322,1,24,0|0,1:1|0:0,0:0:0:0:
312,316,32942,2,0,L|343:328,1,24,0|0,1:1|0:0,0:0:0:0:
363,355,33025,6,0,L|344:302,1,45.0000017166138,2|2,1:2|1:2,0:0:0:0:
361,301,33108,2,0,L|342:248,1,45.0000017166138,2|2,1:2|1:2,0:0:0:0:
359,247,33192,2,0,L|340:194,1,45.0000017166138,2|2,1:2|1:2,0:0:0:0:
357,193,33275,2,0,L|338:140,1,45.0000017166138,2|2,1:2|1:2,0:0:0:0:
422,144,33358,6,0,L|449:152,3,23.9999992675781,6|0|0|0,1:1|0:0|0:0|0:0,0:0:0:0:
266,118,33525,1,0,1:1:0:0:
261,139,33608,1,0,1:1:0:0:
257,160,33692,2,0,L|273:78,1,71.9999978027344,0|0,1:1|1:1,0:0:0:0:
348,69,33858,6,0,L|384:80,3,30.0000011444092,6|0|0|0,1:1|0:0|0:0|0:0,0:0:0:0:
185,74,34025,1,0,1:1:0:0:
179,109,34108,1,0,1:1:0:0:
172,144,34192,2,0,L|191:51,1,90.0000034332277,0|0,1:1|1:1,0:0:0:0:
261,6,34358,6,0,L|304:17,3,35.9999989013672,6|0|0|0,1:1|0:0|0:0|0:0,0:0:0:0:
109,19,34525,1,0,1:1:0:0:
101,72,34608,1,0,1:1:0:0:
93,125,34692,1,0,1:1:0:0:
85,178,34774,1,0,1:1:0:0:
77,231,34858,6,0,P|41:230|18:185,1,71.9999978027344,2|0,2:2|0:0,0:0:0:0:
0,186,35025,6,0,P|-4:146|22:123,1,71.9999978027344,10|0,2:2|1:1,0:0:0:0:
60,52,35192,6,0,P|107:43|140:73,1,90.0000034332277,10|0,2:2|1:1,0:0:0:0:
191,163,35358,6,0,P|245:170|272:120,1,107.999996704102,6|0,1:2|1:1,0:0:0:0:
455,40,35525,1,10,1:2:0:0:
458,30,35608,1,0,1:1:0:0:
463,19,35692,5,12,2:2:0:0:
396,3,35775,1,8,2:2:0:0:
345,49,35858,1,8,2:2:0:0:
360,116,35942,1,12,2:2:0:0:
427,134,36025,6,0,P|402:245|390:354,1,215.999993408203,6|0,1:2|0:0,0:0:0:0:
318,377,36358,2,0,P|245:353|248:292,1,143.999995605469,10|2,2:2|2:2,0:0:0:0:
473,335,36692,1,0,0:0:0:0:
486,213,36858,2,0,P|512:238|508:280,1,71.9999978027344,2|0,1:2|0:0,0:0:0:0:
473,335,37025,2,0,P|407:310|330:299,1,143.999995605469,10|2,2:2|2:2,0:0:0:0:
273,245,37275,1,0,0:0:0:0:
254,262,37358,5,2,1:2:0:0:
198,358,37525,1,0,0:0:0:0:
99,329,37692,1,8,2:2:0:0:
89,188,37858,6,0,B|118:155|99:82|99:82|129:150|178:155,1,215.999993408203,2|0,2:2|0:0,0:0:0:0:
152,225,38192,1,0,1:1:0:0:
180,49,38358,1,8,2:2:0:0:
28,132,38525,1,0,0:0:0:0:
28,132,38608,1,0,0:0:0:0:
28,132,38692,6,0,B|82:84|149:116|134:149|198:167|241:135,1,215.999993408203,2|0,1:2|0:0,0:0:0:0:
248,138,39025,1,8,2:2:0:0:
126,339,39192,1,2,2:2:0:0:
89,293,39275,1,2,2:2:0:0:
118,243,39358,2,0,P|187:265|256:281,1,143.999995605469,2|0,2:2|1:1,0:0:0:0:
347,226,39692,1,10,2:2:0:0:
486,336,39858,2,0,B|501:356|494:371|494:371|477:357|486:334,2,71.9999978027344,0|0|0,0:0|0:0|1:1,0:0:0:0:
379,322,40192,5,2,2:2:0:0:
445,243,40358,1,10,2:2:0:0:
335,130,40525,1,2,2:2:0:0:
454,80,40692,5,2,2:2:0:0:
355,224,40858,1,2,1:2:0:0:
203,142,41025,1,10,2:2:0:0:
302,1,41192,1,2,2:2:0:0:
311,10,41275,1,0,0:0:0:0:
320,18,41358,6,0,B|274:64|212:43|228:16|168:-18|114:14,1,215.999993408203,2|0,1:2|0:0,0:0:0:0:
154,77,41692,1,10,2:2:0:0:
74,229,41858,6,0,B|121:183|109:123|80:135|56:70|97:22,1,215.999993408203,2|0,2:2|0:0,0:0:0:0:
154,77,42192,2,0,P|149:113|121:137,1,71.9999978027344,2|0,1:2|0:0,0:0:0:0:
18,170,42358,1,10,2:2:0:0:
98,11,42525,1,0,0:0:0:0:
326,129,42692,6,0,B|386:123|423:179|405:247|405:247|381:242|360:259,1,215.999993408203,2|0,1:2|0:0,0:0:0:0:
236,228,43025,2,0,B|200:177|230:116|300:98|300:98|310:125|332:132,1,215.999993408203,10|0,2:2|0:0,0:0:0:0:
364,258,43358,1,2,2:2:0:0:
327,129,43525,1,2,1:2:0:0:
364,258,43692,2,0,B|343:228|299:231|302:257|265:265|231:224,1,143.999995605469,10|0,2:2|0:0,0:0:0:0:
86,180,43942,1,0,0:0:0:0:
71,189,44025,6,0,P|17:230|43:293,1,143.999995605469,2|0,1:2|0:0,0:0:0:0:
172,153,44358,1,10,2:2:0:0:
128,377,44525,2,0,P|137:312|171:153,1,215.999993408203,2|0,2:2|0:0,0:0:0:0:
172,153,44858,1,0,1:1:0:0:
245,242,45025,1,8,2:2:0:0:
338,29,45192,1,2,2:2:0:0:
386,59,45275,1,2,2:2:0:0:
375,115,45358,6,0,B|318:148|270:95|283:85|245:33|202:32|173:54|173:54|207:50|229:74,1,287.999991210938,2|8,1:2|2:2,0:0:0:0:
480,96,45858,1,2,2:2:0:0:
471,85,45942,1,2,2:2:0:0:
467,72,46025,2,0,P|451:135|441:228,1,143.999995605469,2|0,2:2|1:1,0:0:0:0:
481,270,46275,1,2,2:2:0:0:
459,284,46358,2,0,P|418:288|392:261,1,71.9999978027344,8|0,2:2|0:0,0:0:0:0:
323,169,46525,2,0,P|278:167|252:203,1,71.9999978027344,2|0,2:2|0:0,0:0:0:0:
116,348,46692,5,6,1:2:0:0:
215,364,46858,1,2,2:2:0:0:
231,265,47025,1,10,2:2:0:0:
132,249,47192,2,0,B|119:160|119:160|115:152|115:152|98:28,1,215.999993408203,2|0,2:2|0:0,0:0:0:0:
87,25,47525,1,2,1:2:0:0:
188,96,47692,1,10,2:2:0:0:
29,215,47858,1,2,2:2:0:0:
262,366,48025,5,2,1:2:0:0:
161,355,48192,1,2,2:2:0:0:
218,273,48358,1,8,2:2:0:0:
446,235,48525,1,2,2:2:0:0:
464,228,48608,1,2,2:2:0:0:
481,222,48692,5,2,2:2:0:0:
378,123,48858,1,2,1:2:0:0:
307,250,49025,1,10,2:2:0:0:
412,349,49192,1,2,2:2:0:0:
477,103,49358,5,6,1:2:0:0:
395,232,49525,1,2,2:2:0:0:
209,77,49692,1,10,2:2:0:0:
266,10,49858,2,0,L|213:245,1,215.999993408203,2|0,2:2|0:0,0:0:0:0:
222,241,50192,1,2,1:2:0:0:
120,210,50358,1,10,2:2:0:0:
18,179,50525,1,2,2:2:0:0:
97,104,50692,5,2,1:2:0:0:
156,312,50858,1,0,0:0:0:0:
249,22,51025,5,10,2:2:0:0:
199,201,51192,1,0,0:0:0:0:
415,81,51358,5,2,2:2:0:0:
277,127,51525,1,2,1:2:0:0:
466,217,51692,5,10,2:2:0:0:
383,177,51858,1,2,2:2:0:0:
372,174,51942,1,0,0:0:0:0:
361,170,52025,2,0,P|341:290|322:392,1,215.999993408203,6|0,1:2|0:0,0:0:0:0:
255,353,52358,5,10,2:2:0:0:
255,324,52442,1,2,2:2:0:0:
284,296,52525,1,2,2:2:0:0:
331,295,52608,1,2,2:2:0:0:
366,327,52692,5,2,2:2:0:0:
425,339,52775,1,2,2:2:0:0:
476,300,52858,1,2,1:2:0:0:
484,235,52942,1,2,2:2:0:0:
456,189,53025,1,10,2:2:0:0:
421,179,53108,1,2,2:2:0:0:
401,184,53192,1,2,2:2:0:0:
388,195,53275,1,2,2:2:0:0:
406,261,53358,6,0,L|361:42,1,215.999993408203,6|0,1:2|0:0,0:0:0:0:
413,0,53692,1,10,2:2:0:0:
433,19,53775,1,2,2:2:0:0:
437,50,53858,1,2,2:2:0:0:
425,88,53942,1,2,2:2:0:0:
383,126,54025,5,2,2:2:0:0:
322,108,54108,1,2,2:2:0:0:
276,129,54192,1,2,1:2:0:0:
268,170,54275,1,2,2:2:0:0:
282,200,54358,5,10,2:2:0:0:
283,240,54442,1,2,2:2:0:0:
254,288,54525,1,2,2:2:0:0:
183,305,54608,1,2,2:2:0:0:
139,248,54692,6,0,P|162:219|164:186,1,71.9999978027344,6|2,1:2|2:2,0:0:0:0:
125,24,54858,1,2,0:0:0:0:
112,14,54942,1,2,0:0:0:0:
103,9,55025,6,0,P|101:45|119:73,1,71.9999978027344,10|2,2:2|2:2,0:0:0:0:
246,217,55192,1,2,0:0:0:0:
267,205,55275,1,2,2:2:0:0:
271,180,55358,6,0,P|252:151|219:137,1,71.9999978027344,10|0,2:2|0:0,0:0:0:0:
34,141,55524,6,0,P|67:153|101:145,1,71.9999978027344,2|0,1:2|0:0,0:0:0:0:
249,32,55691,6,0,P|215:42|192:69,1,71.9999978027344,10|0,2:2|0:0,0:0:0:0:
69,226,55858,1,2,1:2:0:0:
44,273,55942,1,2,1:2:0:0:
67,315,56025,6,0,P|104:307|140:302,1,71.9999978027344,14|0,2:2|0:0,0:0:0:0:
150,372,56192,2,0,P|115:377|80:384,1,71.9999978027344,10|0,2:2|0:0,0:0:0:0:
216,167,56358,6,0,P|251:172|286:179,1,71.9999978027344,10|0,2:2|0:0,0:0:0:0:
300,110,56525,2,0,P|264:103|229:97,1,71.9999978027344,10|0,2:2|0:0,0:0:0:0:
338,361,56692,5,2,1:2:0:0:
402,366,56775,1,2,1:2:0:0:
443,316,56858,1,2,1:2:0:0:
437,250,56942,1,2,1:2:0:0:
387,208,57025,1,10,2:2:0:0:
370,145,57108,1,10,2:2:0:0:
398,86,57192,1,10,2:2:0:0:
462,83,57275,1,10,2:2:0:0:
496,145,57358,6,0,P|366:180|233:231,1,270.000010299683,6|0,1:2|0:0,0:0:0:0:
239,228,57691,2,0,P|207:209|209:161,1,90.0000034332277,2|0,2:2|0:0,0:0:0:0:
458,277,57858,6,0,P|362:181|252:92,1,270.000010299683,6|0,1:2|0:0,0:0:0:0:
257,95,58191,2,0,P|257:57|299:34,1,90.0000034332277,2|0,2:2|0:0,0:0:0:0:
340,284,58358,6,0,P|356:196|389:62,2,204.000003890991,6|2|2,1:2|2:2|2:2,0:0:0:0:
501,373,58858,2,0,P|497:334|450:315,1,90.0000034332277,6|0,1:2|0:0,0:0:0:0:
385,357,59024,2,0,P|288:370|204:384,1,180.000006866455,2|2,2:2|2:2,0:0:0:0:
131,384,59274,1,0,0:0:0:0:
126,376,59358,6,0,B|113:295|202:282|200:296|203:322|289:277|276:186|212:159|154:219|175:265,1,323.999990112305,6|0,1:2|0:0,0:0:0:0:
177,277,59691,5,6,1:2:0:0:
22,316,59858,1,0,0:0:0:0:
88,250,60024,1,8,2:2:0:0:
28,24,60191,1,2,1:2:0:0:
54,38,60274,1,2,2:2:0:0:
83,31,60358,5,2,2:2:0:0:
264,262,60524,1,0,0:0:0:0:
183,293,60691,5,2,1:2:0:0:
284,38,60858,1,2,2:2:0:0:
353,99,61024,5,2,2:2:0:0:
95,179,61191,1,2,1:2:0:0:
350,191,61357,5,2,2:2:0:0:
248,344,61524,1,2,2:2:0:0:
423,249,61691,6,0,P|427:285|433:310,1,60,6|0,1:2|0:0,0:0:0:0:
422,380,61857,2,0,P|417:343|412:319,1,60
192,276,62024,6,0,B|156:209|241:159|242:173|242:187|309:163|331:115|292:54,1,270.000010299683,6|0,1:2|0:0,0:0:0:0:
299,67,62357,2,0,P|304:35|355:13,1,90.0000034332277,2|0,2:2|0:0,0:0:0:0:
284,286,62524,6,0,B|330:226|255:162|251:176|249:190|187:155|175:103|224:50,1,270.000010299683,6|0,1:2|0:0,0:0:0:0:
214,62,62857,2,0,P|214:29|167:0,1,90.0000034332277,2|0,2:2|0:0,0:0:0:0:
352,186,63024,6,0,P|256:174|139:161,2,204.000003890991,6|2|2,1:2|2:2|2:2,0:0:0:0:
98,228,63524,2,0,P|60:222|42:176,1,90.0000034332277,6|0,1:2|0:0,0:0:0:0:
0,115,63691,2,0,P|33:36|135:34,1,180.000006866455,2|2,2:2|2:2,0:0:0:0:
279,87,63941,1,0,0:0:0:0:
289,102,64024,2,0,P|279:150|272:198,1,90.0000034332277,6|0,1:2|0:0,0:0:0:0:
169,175,64191,2,0,P|179:127|186:79,1,90.0000034332277
382,26,64357,5,6,1:2:0:0:
458,72,64524,1,0,0:0:0:0:
381,120,64691,1,8,2:2:0:0:
218,250,64857,1,2,2:2:0:0:
228,275,64941,1,2,2:2:0:0:
223,303,65024,5,2,2:2:0:0:
135,282,65191,1,0,0:0:0:0:
160,368,65357,1,2,1:2:0:0:
462,296,65524,1,2,2:2:0:0:
396,375,65691,6,0,P|386:333|375:278,1,90.0000034332277,6|0,1:2|0:0,0:0:0:0:
360,206,65857,1,0,0:0:0:0:
49,254,66024,6,0,P|90:266|143:284,1,90.0000034332277,6|0,1:2|0:0,0:0:0:0:
213,307,66190,1,0,0:0:0:0:
327,13,66357,6,0,P|295:42|253:79,1,90.0000034332277,6|0,1:2|0:0,0:0:0:0:
294,177,66524,1,0,1:1:0:0:
262,210,66607,1,0,1:1:0:0:
219,202,66691,6,0,B|156:193|144:130|174:138|150:69|91:72,1,198.000001888275,6|2,1:2|2:2,0:0:0:0:
43,21,66941,1,0,0:0:0:0:
29,37,67024,2,0,B|12:50|-16:55|-16:55|5:64|24:89,1,99.0000009441376,10|0,2:2|0:0,0:0:0:0:
219,202,67191,6,0,B|258:151|318:172|296:195|367:209|395:156,1,198.000001888275,6|2,1:2|2:2,0:0:0:0:
463,140,67441,1,0,0:0:0:0:
455,119,67524,2,0,B|452:97|461:71|461:71|443:84|412:88,1,99.0000009441376,10|0,2:2|0:0,0:0:0:0:
219,202,67691,6,0,P|202:256|227:290,1,99.0000009441376,6|0,1:2|0:0,0:0:0:0:
319,381,67857,1,2,2:2:0:0:
357,344,67941,1,0,0:0:0:0:
406,364,68024,2,0,P|452:341|455:299,1,99.0000009441376,10|0,2:2|0:0,0:0:0:0:
414,52,68191,5,6,1:2:0:0:
239,125,68357,1,2,2:2:0:0:
366,263,68524,1,10,2:2:0:0:
510,132,68691,6,0,P|485:172|436:176,1,99.0000009441376,6|0,1:2|0:0,0:0:0:0:
319,72,68857,2,0,P|294:32|245:28,1,99.0000009441376,2|0,2:2|0:0,0:0:0:0:
109,264,69024,6,0,P|165:238|313:198,2,198.000001888275,4|0|8,1:2|0:0|2:2,0:0:0:0:
30,48,69524,1,2,2:2:0:0:
90,17,69607,1,2,2:2:0:0:
141,62,69691,2,0,P|126:114|119:165,1,99.0000009441376,2|0,2:2|0:0,0:0:0:0:
15,274,69857,2,0,P|22:329|66:348,1,99.0000009441376,10|0,2:2|0:0,0:0:0:0:
261,367,70024,6,0,B|271:301|171:268|176:321|107:305|98:239,1,227.999993911743,6|2,2:2|2:2,0:0:0:0:
261,367,70274,2,0,B|229:308|311:243|325:294|384:256|370:190,1,227.999993911743,2|0,1:2|0:0,0:0:0:0:
89,242,70524,5,2,2:2:0:0:
76,236,70607,1,0,1:1:0:0:
79,225,70691,2,0,P|75:170|130:146,1,113.999996955872,10|0,2:2|0:0,0:0:0:0:
382,186,70857,5,2,1:2:0:0:
383,171,70941,2,0,P|367:117|308:114,1,113.999996955872,8|2,2:2|2:2,0:0:0:0:
200,39,71107,1,0,1:1:0:0:
213,107,71191,1,10,2:2:0:0:
226,175,71274,1,0,1:1:0:0:
239,245,71357,6,0,P|292:260|343:283,1,107.999996704102,14|0,2:2|0:0,0:0:0:0:
501,127,71524,2,0,P|485:95|451:80,1,71.9999978027344,8|0,2:2|0:0,0:0:0:0:
420,10,71691,2,0,P|384:7|354:29,1,71.9999978027344,8|0,2:2|0:0,0:0:0:0:
447,280,71857,6,0,P|433:226|427:170,1,107.999996704102,12|0,2:2|0:0,0:0:0:0:
275,0,72024,2,0,P|255:29|259:66,1,71.9999978027344,8|0,2:2|0:0,0:0:0:0:
214,128,72191,2,0,P|229:159|263:174,1,71.9999978027344,8|0,2:2|0:0,0:0:0:0:
355,333,72357,6,0,P|301:345|245:363,1,107.999996704102,14|0,2:2|0:0,0:0:0:0:
54,371,72524,1,8,2:2:0:0:
2,346,72607,1,0,1:0:0:0:
1,290,72691,2,0,P|17:257|61:248,1,71.9999978027344,8|0,2:2|0:0,0:0:0:0:
214,128,72857,6,0,P|253:147|266:212,1,107.999996704102,14|0,2:2|0:0,0:0:0:0:
13,77,73024,2,0,P|22:43|31:-1,1,71.9999978027344,8|0,2:2|0:0,0:0:0:0:
112,23,73191,2,0,P|103:57|94:101,1,71.9999978027344,8|0,2:2|0:0,0:0:0:0:
190,270,73357,6,0,P|208:327|219:382,1,107.999996704102,12|0,2:2|0:0,0:0:0:0:
322,349,73524,2,0,P|304:292|293:237,1,107.999996704102,8|0,2:2|0:0,0:0:0:0:
491,91,73691,5,12,2:2:0:0:
463,57,73774,1,8,2:2:0:0:
420,53,73857,1,8,2:2:0:0:
385,80,73941,1,8,2:2:0:0:
365,118,74024,1,8,2:2:0:0:
327,138,74107,1,8,2:2:0:0:
279,129,74191,1,8,2:2:0:0:
252,88,74274,1,8,2:2:0:0:
262,43,74357,5,10,2:2:0:0:
325,17,74441,1,10,2:2:0:0:
379,55,74524,1,10,2:2:0:0:
389,120,74607,1,8,2:2:0:0:
347,175,74691,1,10,2:2:0:0:
329,239,74774,1,8,2:2:0:0:
352,302,74857,1,10,2:2:0:0:
417,328,74941,1,8,2:2:0:0:
478,299,75024,6,0,P|366:282|272:388,1,264.000008056641,12|0,2:2|1:1,0:0:0:0:
343,88,75274,2,0,P|231:105|137:-1,1,264.000008056641,12|0,2:2|1:1,0:0:0:0:
56,316,75524,6,0,P|118:282|305:202,1,264.000008056641,12|10,2:2|1:2,0:0:0:0:
377,194,75774,2,0,B|383:179|400:167|400:167|370:169|350:163,4,66.0000020141602,14|2|10|2|10,1:2|1:2|1:2|1:2|1:2,0:0:0:0:
96,246,76025,6,0,B|50:215|49:152|103:113|151:121|193:146|203:205|165:252|165:252|129:301|151:380|218:391|284:355|282:282|235:258,1,575.999982421876,6|0,1:2|0:0,0:0:0:0:
71,250,86691,6,0,B|130:264|155:224|148:214|180:172|233:194,2,180.000006866455,2|0|2,2:2|0:0|2:2,0:0:0:0:
71,250,87691,1,0,0:0:0:0:
25,172,87858,1,0,0:0:0:0:
91,111,88024,2,0,P|82:71|73:13,2,90.0000034332277,2|0|0,2:2|0:0|0:0,0:0:0:0:
91,111,88691,5,2,2:2:0:0:
169,129,88858,1,0,0:0:0:0:
211,238,89024,1,0,0:0:0:0:
289,217,89191,1,0,0:0:0:0:
394,77,89358,6,0,P|349:63|309:45,1,90.0000034332277,2|2,2:2|2:2,0:0:0:0:
460,145,89691,2,0,P|428:245|408:328,1,180.000006866455,2|0,2:2|0:0,0:0:0:0:
472,380,90191,1,0,0:0:0:0:
337,367,90358,2,0,P|311:335|323:289,1,90.0000034332277,2|0,2:2|0:0,0:0:0:0:
251,149,90691,5,2,2:2:0:0:
108,213,90858,1,0,0:0:0:0:
231,308,91024,1,0,0:0:0:0:
231,308,91358,2,0,P|213:269|198:220,1,90.0000034332277,2|0,2:2|0:0,0:0:0:0:
4,187,91691,2,0,P|21:225|37:275,1,90.0000034332277
142,13,92024,5,2,2:2:0:0:
122,20,92191,1,2,2:2:0:0:
99,43,92358,1,2,2:2:0:0:
90,92,92524,1,0,0:0:0:0:
128,160,92691,1,0,0:0:0:0:
216,181,92858,1,0,0:0:0:0:
305,133,93024,1,0,0:0:0:0:
401,170,93191,1,0,0:0:0:0:
409,268,93358,6,0,B|366:239|312:254|290:326|290:326|246:385|163:372|154:318|106:311|106:311|153:309|176:231|264:231|295:302|297:306|297:306|337:355|380:360|416:333,1,720.000027465821,2|2,2:2|2:2,0:0:0:0:
256,192,94774,12,0,95941,0:0:0:0:
429,56,96024,5,2,0:0:0:0:
434,50,96108,1,2,0:0:0:0:
422,50,96191,1,2,0:0:0:0:
423,63,96274,1,2,0:0:0:0:
433,62,96358,5,2,0:0:0:0:
380,83,96441,1,2,0:0:0:0:
364,140,96524,1,2,0:0:0:0:
383,195,96608,1,2,0:0:0:0:
450,216,96691,6,0,P|475:224|488:251,1,45.0000017166138,2|0,2:2|0:0,0:0:0:0:
495,254,96774,2,0,P|494:280|473:301,1,45.0000017166138,2|0,2:2|0:0,0:0:0:0:
472,309,96858,2,0,P|446:316|419:303,1,45.0000017166138,2|0,2:2|0:0,0:0:0:0:
412,303,96941,2,0,P|396:280|401:251,1,45.0000017166138,2|0,2:2|0:0,0:0:0:0:
383,195,97024,5,2,2:2:0:0:
9,379,97358,6,0,P|4:261|72:164,1,240,4|0,1:2|0:0,0:0:0:0:
9,379,97608,2,0,P|122:348|195:255,1,240,6|0,1:2|0:0,0:0:0:0:
12,116,97858,6,0,P|121:151|214:82,1,240,6|0,1:2|0:0,0:0:0:0:
263,280,98108,2,0,P|187:192|214:80,1,240,6|0,1:2|0:0,0:0:0:0:
278,47,98358,6,0,B|266:18|283:-8|283:-8|259:16|229:11,1,120,6|0,1:2|0:0,0:0:0:0:
115,227,98524,1,6,1:2:0:0:
445,210,98691,1,2,1:2:0:0:
439,196,98774,1,0,0:0:0:0:
412,133,98858,6,0,B|412:110|412:110|391:121|391:121|411:135,4,60,8|0|0|0|0,1:2|1:1|1:1|1:1|1:1,0:0:0:0:
311,270,99108,2,0,B|313:292|313:292|294:282|294:282|314:266,4,60,10|0|0|0|0,2:2|1:1|1:1|1:1|1:1,0:0:0:0:
238,94,99358,6,0,B|183:63|183:63|165:123,1,120,10|0,2:2|1:1,0:0:0:0:
120,324,99524,2,0,B|65:351|65:351|44:286,1,120,2|10,1:2|1:2,0:0:0:0:
11,157,99691,1,10,2:2:0:0:
70,165,99774,1,8,1:2:0:0:
111,209,99858,1,10,2:2:0:0:
171,215,99941,1,8,2:2:0:0:
208,257,100024,6,0,B|241:296|287:294|328:259|321:249|315:241|368:198|422:215|447:271,1,270.000010299683,4|0,1:2|0:0,0:0:0:0:
446,280,100358,1,8,2:2:0:0:
282,37,100524,1,2,2:2:0:0:
247,83,100608,1,2,2:2:0:0:
280,132,100691,2,0,P|324:122|389:113,1,90.0000034332277,2|0,2:2|0:0,0:0:0:0:
456,100,100858,1,0,1:1:0:0:
200,259,101024,6,0,P|167:251|147:198,1,90.0000034332277,8|0,2:2|0:0,0:0:0:0:
82,159,101191,2,0,P|72:126|108:82,1,90.0000034332277
257,0,101358,5,2,1:2:0:0:
263,14,101441,2,0,P|242:88|218:196,1,180.000006866455,2|2,2:2|2:2,0:0:0:0:
45,246,101691,1,10,2:2:0:0:
54,263,101774,1,2,2:2:0:0:
59,286,101858,1,2,2:2:0:0:
55,306,101941,1,2,2:2:0:0:
18,369,102024,5,2,2:2:0:0:
91,370,102108,2,0,L|191:356,2,90.0000034332277,2|2|2,2:2|1:2|2:2,0:0:0:0:
148,248,102358,1,10,2:2:0:0:
212,264,102441,1,2,2:2:0:0:
276,280,102524,1,2,2:2:0:0:
340,296,102608,1,2,2:2:0:0:
404,313,102691,6,0,B|395:255|432:242|436:248|487:218|463:152,1,180.000006866455,6|0,1:2|0:0,0:0:0:0:
483,73,102941,1,2,2:2:0:0:
473,89,103024,2,0,P|428:85|405:130,1,90.0000034332277,10|0,2:2|0:0,0:0:0:0:
404,313,103191,6,0,B|374:262|337:274|338:282|279:289|258:222,1,180.000006866455,2|0,2:2|0:0,0:0:0:0:
193,172,103441,1,2,2:2:0:0:
211,178,103524,2,0,P|243:147|289:168,1,90.0000034332277,2|0,1:2|0:0,0:0:0:0:
404,313,103691,6,0,P|402:360|362:384,1,90.0000034332277,8|0,2:2|0:0,0:0:0:0:
152,379,103858,1,2,2:2:0:0:
84,375,103941,1,2,2:2:0:0:
59,317,104024,5,6,1:2:0:0:
76,269,104108,1,2,2:2:0:0:
116,258,104191,1,2,2:2:0:0:
145,268,104274,1,2,2:2:0:0:
161,289,104358,1,10,2:2:0:0:
196,307,104441,1,2,2:2:0:0:
250,297,104524,1,2,2:2:0:0:
278,234,104608,1,2,2:2:0:0:
238,179,104691,2,0,P|212:148|218:99,1,90.0000034332277,2|2,2:2|2:2,0:0:0:0:
451,20,104858,5,2,1:2:0:0:
461,27,104941,1,2,2:2:0:0:
471,26,105024,1,10,2:2:0:0:
499,92,105108,1,2,2:2:0:0:
453,147,105191,1,2,2:2:0:0:
382,132,105274,1,2,2:2:0:0:
353,65,105358,5,4,1:2:0:0:
342,67,105441,2,0,P|352:28|366:-32,1,90.0000034332277,0|2,0:0|2:2,0:0:0:0:
292,309,105608,5,2,2:2:0:0:
299,300,105691,2,0,P|315:342|332:383,1,90.0000034332277,8|2,2:2|2:2,0:0:0:0:
204,69,105858,5,2,2:2:0:0:
203,80,105941,2,0,P|166:55|127:32,1,90.0000034332277,0|2,0:0|2:2,0:0:0:0:
416,212,106108,5,2,2:2:0:0:
410,202,106191,2,0,P|454:198|499:194,1,90.0000034332277,0|2,1:1|2:2,0:0:0:0:
171,224,106358,6,0,P|136:252|102:281,1,90.0000034332277,8|0,2:2|0:0,0:0:0:0:
279,110,106524,5,2,2:2:0:0:
334,159,106608,1,2,2:2:0:0:
289,221,106691,5,6,1:2:0:0:
287,227,106775,1,0,0:0:0:0:
282,230,106858,1,2,2:2:0:0:
276,229,106941,1,0,0:0:0:0:
272,224,107025,1,10,2:2:0:0:
273,218,107108,1,2,2:2:0:0:
277,214,107191,1,2,2:2:0:0:
284,214,107274,1,2,2:2:0:0:
283,219,107358,5,2,2:2:0:0:
248,247,107441,1,2,2:2:0:0:
205,258,107524,1,2,1:2:0:0:
175,294,107608,1,2,2:2:0:0:
133,306,107690,1,10,2:2:0:0:
108,344,107774,1,2,2:2:0:0:
69,365,107858,5,2,1:2:0:0:
14,321,107941,1,10,2:2:0:0:
41,253,108024,6,0,B|106:232|150:288|131:303|186:365|248:334,1,240,14|0,2:2|0:0,0:0:0:0:
41,253,108274,2,0,B|102:226|90:144|67:149|52:79|110:43,1,240,14|0,2:2|0:0,0:0:0:0:
161,201,108524,6,0,B|201:145|269:165|263:188|344:206|375:146,1,240,14|0,2:2|0:0,0:0:0:0:
161,201,108774,2,0,B|227:185|236:114|212:111|227:30|294:25,1,240,14|0,2:2|0:0,0:0:0:0:
367,9,109024,2,0,P|418:28|411:94,1,120,14|0,2:2|0:0,0:0:0:0:
504,254,109191,6,0,P|396:253|390:376,1,240,6|0,1:2|0:0,0:0:0:0:
395,372,109441,1,0,0:0:0:0:
404,364,109524,2,0,P|386:340|309:350,1,90.0000034332277,10|2,2:2|2:2,0:0:0:0:
62,262,109691,1,2,2:2:0:0:
41,286,109774,2,0,P|54:350|159:348,1,180.000006866455,10|2,2:2|2:2,0:0:0:0:
251,384,110024,2,0,P|240:345|229:291,1,90.0000034332277,10|2,2:2|2:2,0:0:0:0:
267,66,110191,5,14,1:2:0:0:
210,61,110274,1,2,1:2:0:0:
172,103,110358,1,10,2:2:0:0:
182,158,110441,1,10,2:2:0:0:
235,178,110524,5,10,2:2:0:0:
271,237,110608,1,10,2:2:0:0:
230,296,110691,6,0,B|159:305|125:242|140:223|120:168|40:170,1,240,14|0,2:2|0:0,0:0:0:0:
230,296,110941,2,0,B|243:225|313:212|327:232|385:230|408:154,1,240,14|0,2:2|0:0,0:0:0:0:
224,74,111191,6,0,B|268:132|236:180|212:180|181:244|230:296,1,240,14|0,2:2|0:0,0:0:0:0:
442,359,111441,2,0,B|372:383|336:337|344:314|293:265|228:295,1,240,14|0,2:2|0:0,0:0:0:0:
108,374,111691,2,0,P|69:365|56:293,1,120,14|0,2:2|0:0,0:0:0:0:
0,82,111858,6,0,P|117:123|245:152,1,240,6|0,1:2|0:0,0:0:0:0:
296,301,112108,1,2,0:0:0:0:
362,322,112191,1,2,2:2:0:0:
422,301,112274,1,2,2:2:0:0:
445,242,112358,1,10,2:2:0:0:
443,207,112441,1,2,2:2:0:0:
430,189,112524,1,2,1:2:0:0:
412,178,112608,1,2,2:2:0:0:
389,178,112691,5,2,2:2:0:0:
374,188,112774,1,2,2:2:0:0:
370,217,112858,1,10,2:2:0:0:
393,243,112941,1,2,2:2:0:0:
450,247,113024,1,10,2:2:0:0:
490,198,113108,1,10,2:2:0:0:
489,128,113191,1,10,2:2:0:0:
429,86,113274,1,10,2:2:0:0:
361,108,113358,6,0,P|298:117|269:73,1,120,6|0,1:2|0:0,0:0:0:0:
97,21,113524,2,0,P|34:12|5:56,1,120,8|0,2:2|0:0,0:0:0:0:
146,241,113691,5,10,2:2:0:0:
182,179,113774,1,2,2:2:0:0:
159,111,113858,2,0,P|176:62|205:-14,1,120,10|0,2:2|0:0,0:0:0:0:
54,262,114024,5,10,2:2:0:0:
44,321,114108,1,2,2:2:0:0:
83,365,114191,1,10,2:2:0:0:
142,365,114274,1,2,2:2:0:0:
184,322,114358,2,0,P|245:345|304:361,1,120,10|0,2:2|0:0,0:0:0:0:
488,302,114524,5,2,1:2:0:0:
470,233,114608,1,2,1:2:0:0:
399,235,114691,2,0,P|442:190|432:132,1,120,14|0,2:2|0:0,0:0:0:0:
323,180,114858,1,10,2:2:0:0:
319,192,114941,1,2,2:2:0:0:
326,206,115024,2,0,P|320:148|362:107,1,120,8|2,2:2|2:2,0:0:0:0:
500,0,115191,5,10,2:2:0:0:
434,44,115274,1,0,0:0:0:0:
370,65,115358,1,10,1:2:0:0:
319,74,115441,1,2,1:2:0:0:
276,70,115524,1,10,1:2:0:0:
248,62,115608,1,2,1:2:0:0:
228,49,115691,2,0,P|179:72|176:140,1,120,10|2,1:2|1:2,0:0:0:0:
289,227,115858,1,10,1:2:0:0:
352,196,115941,1,2,1:2:0:0:
412,232,116024,6,0,P|451:267|443:333,1,120,14|2,2:2|2:2,0:0:0:0:
279,213,116191,1,10,2:2:0:0:
272,194,116274,2,0,P|282:142|343:116,1,120,10|2,2:2|2:2,0:0:0:0:
341,371,116441,1,10,2:2:0:0:
275,336,116524,2,0,P|215:345|156:358,1,120,10|2,2:2|2:2,0:0:0:0:
111,122,116691,6,0,P|149:169|189:214,1,120,14|2,2:2|2:2,0:0:0:0:
82,348,116858,1,10,2:2:0:0:
38,335,116941,1,10,2:2:0:0:
1,367,117024,2,0,P|22:310|41:252,1,120,10|2,2:2|2:2,0:0:0:0:
170,52,117191,1,10,2:2:0:0:
236,73,117274,1,2,2:2:0:0:
230,144,117358,5,14,2:2:0:0:
212,155,117441,2,0,P|165:146|116:125,1,90.0000034332277,14|0,2:2|0:0,0:0:0:0:
280,317,117608,5,8,2:2:0:0:
251,294,117691,2,0,P|204:303|145:328,1,102.000001945496,14|0,2:2|0:0,0:0:0:0:
405,136,117858,5,8,2:2:0:0:
368,105,117941,2,0,P|343:60|328:-2,1,113.999996955872,14|0,2:2|0:0,0:0:0:0:
499,244,118108,5,8,2:2:0:0:
436,274,118191,2,0,P|411:319|396:381,1,113.999996955872,14|0,2:2|0:0,0:0:0:0:
83,248,118358,5,14,2:2:0:0:
158,222,118441,1,10,2:2:0:0:
237,226,118524,1,14,2:2:0:0:
313,202,118608,1,10,2:2:0:0:
