osu file format v14

[General]
AudioFilename: audio.mp3
AudioLeadIn: 0
PreviewTime: 35923
Countdown: 0
SampleSet: Soft
StackLeniency: 0.7
Mode: 0
LetterboxInBreaks: 0
WidescreenStoryboard: 0

[Editor]
Bookmarks: 6673,14673,36006,57339,76339,76464,76631,76756,76923,77048,77214,77381,77506,77673,77839,77964,78173,78298,78464,78589,78756,78881,79048,79214,79339,79506,79631,79798,79964,80089,80256,80423,80548,80756,80923,81048,81214,81381,81548,81714,81881,82048,82256,82381,82589,82714,82881,83048,83214,83381,83506,83673,83839,84006,84173,84339,84506,84673,84839,84964,85131,85298,85464,85631,85839,86006,86173,86339,86548,86673,97339
DistanceSpacing: 1.1
BeatDivisor: 8
GridSize: 16
TimelineZoom: 3.699999

[Metadata]
Title:Eeliaas
TitleUnicode:Eeliaas
Artist:Mitsuki
ArtistUnicode:ミツキ
Creator:Ascended
Version:Extravaganza
Source:Muse Dash
Tags:りにゃ Rinya Elias Eelias Eliaas Mitsuboshi Records ミツボシレコーズ 3rd EP Defeated Memorial Video Game Electronic Instrumental techno artcore -ascended- -_ascended_- Flask Down atlas- atlas aeniko osu! mappers guild mpg fa featured artist showcase
BeatmapID:3550482
BeatmapSetID:1737106

[Difficulty]
HPDrainRate:6
CircleSize:4
OverallDifficulty:9.2
ApproachRate:9.6
SliderMultiplier:3
SliderTickRate:1

[Events]
//Background and Video events
0,0,"homo.jpg",0,0
//Break Periods
2,76225,86152
//Storyboard Layer 0 (Background)
//Storyboard Layer 1 (Fail)
//Storyboard Layer 2 (Pass)
//Storyboard Layer 3 (Foreground)
//Storyboard Layer 4 (Overlay)
//Storyboard Sound Samples

[TimingPoints]
1025,333.333333333333,4,2,1,30,1,0
1025,-200,4,2,1,30,0,0
1359,333.333333333333,4,2,1,30,1,0
1359,-200,4,2,1,30,0,0
5858,-166.666666666667,4,2,1,30,0,0
6358,-200,4,2,1,40,0,0
6692,-133.333333333333,4,2,1,40,0,0
12025,-800,4,2,1,50,0,0
14025,-133.333333333333,4,2,1,50,0,0
14358,-100,4,2,1,50,0,0
14692,-60.6060606060606,4,2,1,70,0,1
14942,-83.3333333333333,4,2,1,70,0,1
15025,-71.4285714285714,4,2,1,70,0,1
15108,-62.5,4,2,1,70,0,1
15192,-55.5555555555556,4,2,1,70,0,1
15275,-50,4,2,1,70,0,1
15358,-50,4,2,1,70,0,1
15525,-66.6666666666667,4,2,1,70,0,1
15692,-52.6315789473684,4,2,1,70,0,1
16025,-45.4545454545455,4,2,1,70,0,1
16192,-200,4,2,1,70,0,1
16358,-66.6666666666667,4,2,1,70,0,1
16692,-52.6315789473684,4,2,1,70,0,1
16858,-76.9230769230769,4,2,1,70,0,1
17025,-58.8235294117647,4,2,1,70,0,1
17358,-58.8235294117647,4,2,1,70,0,1
17608,-90.9090909090909,4,2,1,70,0,1
17858,-58.8235294117647,4,2,1,70,0,1
18108,-90.9090909090909,4,2,1,70,0,1
18358,-52.6315789473684,4,2,1,70,0,1
18692,-62.5,4,2,1,70,0,1
19025,-76.9230769230769,4,2,1,70,0,1
19358,-76.9230769230769,4,2,1,70,0,1
19692,-66.6666666666667,4,2,1,70,0,1
20025,-45.4545454545455,4,2,1,70,0,1
20358,-100,4,2,1,70,0,1
20525,-100,4,2,1,70,0,1
20692,-55.5555555555556,4,2,1,70,0,1
20858,-71.4285714285714,4,2,1,70,0,1
21025,-66.6666666666667,4,2,1,70,0,1
21192,-62.5,4,2,1,70,0,1
21358,-50,4,2,1,70,0,1
21692,-50,4,2,1,70,0,1
22192,-200,4,2,1,70,0,1
22442,-45.4545454545455,4,2,1,70,0,1
22692,-50,4,2,1,70,0,1
23025,-55.5555555555556,4,2,1,70,0,1
23358,-100,4,2,1,70,0,1
23525,-100,4,2,1,70,0,1
23692,-66.6666666666667,4,2,1,70,0,1
24192,-200,4,2,1,70,0,1
25358,-58.8235294117647,4,2,1,70,0,1
25692,-71.4285714285714,4,2,1,70,0,1
25775,-62.5,4,2,1,70,0,1
25858,-55.5555555555556,4,2,1,70,0,1
25942,-50,4,2,1,70,0,1
26025,-50,4,2,1,70,0,1
26192,-66.6666666666667,4,2,1,70,0,1
26358,-58.8235294117647,4,2,1,70,0,1
26692,-47.6190476190476,4,2,1,70,0,1
26858,-200,4,2,1,70,0,1
27025,-55.5555555555556,4,2,1,70,0,1
27358,-66.6666666666667,4,2,1,70,0,1
27692,-52.6315789473684,4,2,1,70,0,1
27858,-76.9230769230769,4,2,1,70,0,1
28025,-50,4,2,1,70,0,1
28358,-76.9230769230769,4,2,1,70,0,1
28525,-47.6190476190476,4,2,1,70,0,1
28858,-90.9090909090909,4,2,1,70,0,1
29025,-50,4,2,1,70,0,1
29192,-66.6666666666667,4,2,1,70,0,1
29358,-55.5555555555556,4,2,1,70,0,1
29608,-71.4285714285714,4,2,1,70,0,1
30025,-76.9230769230769,4,2,1,70,0,1
30358,-58.8235294117647,4,2,1,70,0,1
30692,-50,4,2,1,70,0,1
30858,-83.3333333333333,4,2,1,70,0,1
31025,-50,4,2,1,70,0,1
31358,-62.5,4,2,1,70,0,1
31942,-100,4,2,1,70,0,1
32192,-100,4,2,1,70,0,1
32358,-66.6666666666667,4,2,1,70,0,1
33025,-71.4285714285714,4,2,1,70,0,1
33108,-62.5,4,2,1,70,0,1
33192,-55.5555555555556,4,2,1,70,0,1
33275,-50,4,2,1,70,0,1
33358,-66.6666666666667,4,2,1,70,0,1
34858,-100,4,2,1,70,0,1
36025,-83.3333333333333,4,2,1,55,0,0
36858,-133.333333333333,4,2,1,55,0,0
37025,-83.3333333333333,4,2,1,55,0,0
37358,-66.6666666666667,4,2,1,55,0,0
37692,-83.3333333333333,4,2,1,55,0,0
39692,-83.3333333333333,4,2,1,55,0,0
41692,-100,4,2,1,55,0,0
43692,-66.6666666666667,4,2,1,55,0,0
44025,-83.3333333333333,4,2,1,55,0,0
45192,-100,4,2,1,55,0,0
45858,-133.333333333333,4,2,1,55,0,0
46692,-83.3333333333333,4,2,1,55,0,0
49858,-100,4,2,1,55,0,0
50192,-133.333333333333,4,2,1,55,0,0
50358,-100,4,2,1,55,0,0
50692,-66.6666666666667,4,2,1,55,0,0
51025,-100,4,2,1,55,0,0
52025,-83.3333333333333,4,2,1,55,0,0
53358,-76.9230769230769,4,2,1,55,0,0
54692,-100,4,2,1,55,0,0
56025,-76.9230769230769,4,2,1,55,0,0
57358,333.333333333333,7,2,1,60,1,0
57358,-83.3333333333333,7,2,1,60,0,0
59358,-125,7,2,1,60,0,0
59692,-100,7,2,1,60,0,0
60192,-133.333333333333,7,2,1,60,0,0
62025,-83.3333333333333,7,2,1,60,0,0
64025,-125,7,2,1,60,0,0
64358,-100,7,2,1,60,0,0
64858,-133.333333333333,7,2,1,60,0,0
65692,-100,7,2,1,60,0,0
66525,-100,7,2,1,65,0,0
69025,-71.4285714285714,7,2,1,65,0,0
69525,-100,7,2,1,65,0,0
70025,-133.333333333333,7,2,1,65,0,0
70608,-100,7,2,1,65,0,0
75025,-83.3333333333333,7,2,1,65,0,0
76025,333.333333333333,4,2,1,65,1,0
86692,-153.846153846153,4,2,1,40,0,0
94692,-153.846153846153,4,2,1,50,0,0
96692,-66.6666666666667,4,2,1,70,0,0
97358,-76.9230769230769,4,2,1,60,0,0
97608,-133.333333333333,4,2,1,60,0,0
97858,-76.9230769230769,4,2,1,60,0,0
99025,-66.6666666666667,4,2,1,60,0,0
99108,-55.5555555555556,4,2,1,60,0,0
99358,-95.2380952380952,4,2,1,60,0,0
100024,-66.6666666666667,4,2,1,70,0,1
100317,-83.3333333333333,4,2,1,70,0,1
100525,-66.6666666666667,4,2,1,70,0,1
100858,-125,4,2,1,70,0,1
101025,-66.6666666666667,4,2,1,70,0,1
101358,-100,4,2,1,70,0,1
102692,-50,4,2,1,70,0,1
103025,-66.6666666666667,4,2,1,70,0,1
103192,-50,4,2,1,70,0,1
103442,-66.6666666666667,4,2,1,70,0,1
103692,-83.3333333333333,4,2,1,70,0,1
105358,-83.3333333333333,4,2,1,70,0,1
106692,-100,4,2,1,70,0,1
108025,-55.5555555555556,4,2,1,70,0,1
108275,-62.5,4,2,1,70,0,1
108775,-55.5555555555556,4,2,1,70,0,1
109025,-100,4,2,1,70,0,1
109192,-76.9230769230769,4,2,1,70,0,1
110692,-55.5555555555556,4,2,1,70,0,1
111692,-100,4,2,1,70,0,1
111858,-66.6666666666667,4,2,1,70,0,1
112192,-76.9230769230769,4,2,1,70,0,1
116192,-66.6666666666667,4,2,1,70,0,1
116692,-76.9230769230769,4,2,1,70,0,1
117358,-66.6666666666667,4,2,1,70,0,1
118608,-55.5555555555556,4,2,1,70,0,0

[Colours]
Combo1 : 149,149,255
Combo2 : 217,217,255

[HitObjects]
497,341,1025,5,0,0:0:0:0:
498,331,1108,1,0,0:0:0:0:
500,322,1191,1,0,0:0:0:0:
502,313,1274,1,0,0:0:0:0:
504,304,1358,1,2,2:2:0:0:
447,244,1525,1,2,2:2:0:0:
367,268,1692,1,2,2:2:0:0:
352,349,1858,1,2,2:2:0:0:
5,49,2525,5,0,0:0:0:0:
3,58,2608,1,0,0:0:0:0:
1,67,2692,1,2,2:2:0:0:
58,127,2858,1,2,2:2:0:0:
138,103,3025,1,2,2:2:0:0:
153,22,3192,1,2,2:2:0:0:
10,375,3692,5,0,0:0:0:0:
9,365,3775,1,0,0:0:0:0:
7,356,3858,1,0,0:0:0:0:
5,347,3942,1,0,0:0:0:0:
3,338,4025,1,2,2:2:0:0:
60,278,4192,1,2,2:2:0:0:
140,302,4358,1,2,2:2:0:0:
199,244,4525,1,2,2:2:0:0:
507,33,4858,5,2,2:2:0:0:
509,42,4942,1,2,2:2:0:0:
511,51,5025,1,2,2:2:0:0:
455,127,5192,1,2,2:2:0:0:
285,52,5525,1,2,2:2:0:0:
382,71,5858,6,0,P|296:90|209:127,1,179.999994506836,2|0,2:2|0:0,0:0:0:0:
53,85,6358,5,0,0:0:0:0:
52,75,6442,1,0,0:0:0:0:
51,66,6525,1,0,0:0:0:0:
50,57,6608,1,0,0:0:0:0:
49,45,6692,2,0,P|123:57|132:102,1,112.500004291535,2|2,2:2|2:2,0:0:0:0:
172,257,7025,6,0,P|177:221|182:190,1,56.2500021457673,2|0,2:3|0:0,0:0:0:0:
101,159,7192,2,0,P|91:231|81:293,1,112.500004291535,2|0,2:2|0:0,0:0:0:0:
17,362,7525,6,0,P|44:357|72:354,1,56.2500021457673,2|0,2:3|0:0,0:0:0:0:
257,265,7692,5,2,2:2:0:0:
259,254,7775,1,2,2:2:0:0:
260,245,7858,1,2,2:2:0:0:
261,236,7942,1,2,2:2:0:0:
263,226,8025,2,0,P|325:246|331:298,1,112.500004291535,2|2,2:2|2:2,0:0:0:0:
221,355,8358,6,0,P|248:350|276:347,1,56.2500021457673,2|0,2:3|0:0,0:0:0:0:
338,291,8525,2,0,P|393:300|449:306,1,112.500004291535,2|0,2:2|0:0,0:0:0:0:
399,132,8858,6,0,P|362:146|353:170,1,56.2500021457673,2|0,2:2|0:0,0:0:0:0:
472,182,9025,5,2,2:2:0:0:
481,181,9108,1,2,2:2:0:0:
490,180,9192,1,2,2:3:0:0:
501,178,9275,1,2,2:2:0:0:
512,176,9358,2,0,P|517:120|463:95,1,112.500004291535,2|2,2:2|2:2,0:0:0:0:
184,16,9692,6,0,P|186:44|189:72,1,56.2500021457673,2|0,2:3|0:0,0:0:0:0:
266,140,9858,2,0,P|270:83|276:27,1,112.500004291535,2|0,2:2|0:0,0:0:0:0:
179,155,10192,6,0,P|180:182|198:203,1,56.2500021457673,2|0,2:3|0:0,0:0:0:0:
308,227,10358,1,2,2:2:0:0:
175,151,10525,2,0,B|87:176|132:225|44:254,1,168.750006437302,2|0,2:2|0:0,0:0:0:0:
34,166,10858,6,0,P|41:133|47:105,1,56.2500021457673,2|0,2:2|0:0,0:0:0:0:
165,274,11025,2,0,P|179:340|191:396,1,112.500004291535,2|0,2:3|0:0,0:0:0:0:
60,372,11358,6,0,P|62:339|63:370,1,112.500004291535,2|0,2:2|0:0,0:0:0:0:
321,235,11692,6,0,P|304:209|322:231,1,112.500004291535,2|2,2:2|2:3,0:0:0:0:
482,29,12025,6,0,P|451:15|480:24,1,131.25,6|0,1:2|0:0,0:0:0:0:
35,71,13358,6,0,B|31:45|0:52|0:18,1,65.625,2|0,1:2|0:0,0:0:0:0:
8,8,14025,2,0,P|90:4|108:84,1,168.75,2|0,1:2|0:0,0:0:0:0:
269,319,14358,5,0,1:1:0:0:
191,299,14442,1,0,1:1:0:0:
113,281,14525,1,0,1:1:0:0:
35,263,14608,1,0,1:1:0:0:
0,254,14692,6,0,B|-11:290|4:392|112:337|43:268|80:250|45:267|-38:318|-28:184|19:105|98:141|92:154|121:174|152:147,1,371.250003540516,6|0,1:2|3:0,3:0:0:0:
326,112,15025,6,0,P|306:134|285:124,1,52.4999983978272,10|0,2:2|0:0,0:0:0:0:
280,128,15108,6,0,P|245:133|233:97,1,60,2|0,2:2|0:0,0:0:0:0:
234,110,15192,6,0,P|202:86|204:56,1,67.4999979400635,2|0,2:2|0:0,0:0:0:0:
206,54,15275,6,0,P|196:17|229:0,1,75,2|0,2:2|0:0,0:0:0:0:
289,39,15358,6,0,B|276:85|276:85|273:88|273:88|278:89|278:89|275:93|275:93|260:150|260:150|255:175|228:182|232:175|200:181|191:220,1,225,2|0,2:3|0:0,0:0:0:0:
194,224,15525,2,0,B|243:236|243:236|249:235|249:235|248:240|248:240|254:238|254:238|304:250,1,112.500004291535,2|0,1:2|0:0,0:0:0:0:
394,262,15692,6,0,B|427:249|427:249|439:223|475:212|475:212|387:240|387:240|385:236|385:236|387:240|387:240|304:264|304:264|306:272|306:272|304:264|304:264|255:280|255:280|242:335|193:349,1,427.499988584519,8|0,2:2|0:0,0:0:0:0:
117,262,16025,6,0,B|138:276|146:296|146:296|284:333|284:333|285:337|285:337|284:333|284:333|337:347,1,247.500007553101,0|2,1:1|2:2,0:0:0:0:
336,350,16192,2,0,L|384:335,1,37.5,2|0,2:3|0:0,0:0:0:0:
503,44,16358,6,0,P|472:40|484:69,1,75.000002861023,8|0,2:2|0:0,0:0:0:0:
431,69,16470,6,0,P|443:97|462:72,1,75.000002861023,2|0,2:2|0:0,0:0:0:0:
489,119,16581,6,0,P|507:94|476:90,1,75.000002861023,2|0,2:2|0:0,0:0:0:0:
469,89,16692,6,0,B|455:134|417:139|417:139|404:204|404:204|398:202|398:202|404:205|404:205|391:276,1,213.749994292259,2|0,2:3|0:0,0:0:0:0:
397,265,16858,2,0,B|443:288|443:288|475:253,1,97.4999955368044,2|0,1:2|0:0,0:0:0:0:
394,1,17025,6,0,B|429:194|429:194|434:199|434:199|426:200|426:200|431:205|431:205|459:379,1,382.500007295609,8|0,2:2|0:0,0:0:0:0:
318,178,17358,6,0,B|272:171|239:208|239:208|167:191|167:191|169:198|169:198|167:191|167:191|66:168,1,255.000004863739,2|0,1:3|0:0,0:0:0:0:
35,118,17608,1,2,2:2:0:0:
35,118,17692,2,0,B|52:46|52:46|60:41,1,82.5000025177003,10|0,2:2|0:0,0:0:0:0:
250,334,17858,6,0,B|201:326|188:278|188:278|116:261|116:261|120:256|120:256|116:261|116:261|15:238,1,255.000004863739,2|2,2:3|2:2,0:0:0:0:
24,361,18108,1,2,2:2:0:0:
24,361,18192,2,0,B|95:343|95:343|100:335,1,82.5000025177003,2|0,1:2|0:0,0:0:0:0:
301,255,18358,6,0,B|290:188|358:217|345:138|345:138|336:138|336:138|345:138|345:138|325:46,1,213.749994292259,8|0,2:2|0:0,0:0:0:0:
327,73,18525,2,0,B|317:25|317:25|319:51|303:68|303:68|315:114,1,142.49999619484,2|0,2:3|0:0,0:0:0:0:
380,290,18692,6,0,B|355:206|275:263|256:188|256:188|240:130|240:130|235:132|235:132|240:130|240:130|209:6,1,360,2|0,1:2|0:0,0:0:0:0:
438,188,19025,6,0,B|496:197|496:197|461:178,1,97.4999955368044,8|0,2:2|0:0,0:0:0:0:
415,106,19192,1,2,1:2:0:0:
240,328,19358,6,0,P|182:320|180:271,1,97.4999955368044,2|0,2:2|0:0,0:0:0:0:
157,149,19525,2,0,B|147:112|147:112|144:107|144:107|148:106|148:106|145:102|145:102|134:59,1,97.4999955368044,2|0,1:3|0:0,0:0:0:0:
71,224,19692,6,0,B|126:213|123:260|176:248|176:248|238:232|244:260|238:232|304:218|304:218|273:225|247:209|247:209|205:216,1,337.500012874604,10|0,2:2|0:0,0:0:0:0:
35,310,20025,6,0,B|154:285|82:196|123:125|227:107|227:107|225:100|225:100|226:107|226:107|315:89|315:89|278:101|262:128|262:128|244:131,1,495.000015106202,2|0,1:3|0:0,0:0:0:0:
17,151,20358,6,0,B|-6:100|-6:100|37:60,1,112.500004291535,8|0,2:2|0:0,0:0:0:0:
40,58,20525,2,0,B|32:87|32:87|29:91|29:91|32:92|32:92|30:95|30:95|21:129,1,75,2|0,2:2|0:0,0:0:0:0:
334,168,20692,6,0,B|346:175|346:175|392:166|392:166|402:169|402:169|400:161|400:161|408:165|408:165|512:145|512:145|503:132,1,202.499993820191,2|0,2:3|0:0,0:0:0:0:
503,135,20858,2,0,L|399:154,1,104.999996795654,2|0,1:2|0:0,0:0:0:0:
298,14,21025,6,0,B|299:4|299:4|343:-10|343:-10|377:20|377:20|375:30,1,112.500004291535,10|0,2:2|0:0,0:0:0:0:
124,142,21192,6,0,P|149:113|119:139,1,120,2|0,2:1|0:0,0:0:0:0:
72,215,21358,6,0,B|92:146|159:180|168:117|168:117|176:69|176:69|182:66|182:66|176:69|176:69|183:26|183:26|189:28|189:28|183:26|183:26|189:-3|155:-10|155:-10|130:139,1,450,2|0,1:1|0:0,0:0:0:0:
231,362,21692,6,0,B|201:248|100:307|89:243|89:243|69:119|69:119|63:119|63:119|69:118|69:118|61:78|61:78|55:79|55:79|61:78|61:78|52:16|106:1|106:1|149:278,1,750,10|0,2:1|0:0,0:0:0:0:
143,371,22192,6,0,B|136:370|136:370|133:368|133:368|129:368|129:368|126:365|126:365|121:366|121:366|119:363|119:363|114:364|114:364|111:361|111:361|106:363|106:363|104:359|104:359|99:360|99:360|97:356|97:356|93:358|93:358|90:355|90:355|86:358|86:358|84:353|84:353|80:356|80:356|78:353,1,75,2|8,1:1|2:2,0:0:0:0:
147,375,22442,6,0,B|137:297|214:231|310:256|310:256|275:247|258:221|258:221|225:217,1,330.000010070801,2|0,2:1|0:0,0:0:0:0:
398,326,22692,6,0,B|386:292|351:272|351:272|367:181|367:181|373:175|373:175|364:172|364:172|370:168|370:168|381:58|381:58|315:47|315:47|364:77|362:120,1,450,2|0,1:2|0:0,0:0:0:0:
312,352,23025,2,0,B|294:277|368:213|434:241|434:241|440:212|440:212|443:209|443:209|451:159|451:159|447:157|447:157|459:45,1,404.999987640381,10|0,2:2|0:0,0:0:0:0:
479,332,23358,6,0,P|506:363|493:327,1,112.500004291535,2|0,2:3|0:0,0:0:0:0:
492,361,23525,2,0,P|488:334|501:357,1,75,0|0,1:1|0:0,0:0:0:0:
248,146,23692,6,0,P|257:120|283:120,1,56.2500021457673,10|0,2:2|2:0,2:0:0:0:
209,154,23775,6,0,P|183:143|183:117,1,56.2500021457673,2|0,2:2|2:0,2:0:0:0:
200,182,23858,6,0,P|190:206|163:206,1,56.2500021457673,2|0,2:2|2:0,2:0:0:0:
220,214,23942,6,0,P|244:223|244:249,1,56.2500021457673,2|0,2:2|2:0,2:0:0:0:
174,291,24025,5,2,1:2:0:0:
100,261,24108,1,2,2:2:0:0:
86,182,24192,2,0,P|86:162|101:150,1,37.5,2|0,2:2|0:0,0:0:0:0:
321,199,24358,6,0,L|363:207,1,37.5,10|0,2:2|0:0,0:0:0:0:
436,219,24525,1,2,1:2:0:0:
257,363,24692,6,0,B|260:358|260:358|253:317,1,37.5,2|0,2:2|0:0,0:0:0:0:
344,344,24858,2,0,B|339:340|339:340|332:299,1,37.5,2|0,1:2|0:0,0:0:0:0:
229,53,25025,6,0,L|237:11,1,37.5,10|0,2:2|0:0,0:0:0:0:
310,44,25192,1,2,1:2:0:0:
413,298,25358,6,0,B|348:303|326:237|326:237|321:233|321:233|330:233|330:233|324:227|324:227|294:148|220:166|220:166|240:222|185:265,1,382.500007295609,4|0,1:2|0:0,0:0:0:0:
18,112,25692,6,0,P|38:134|59:124,1,52.4999983978272,10|0,2:2|0:0,0:0:0:0:
64,128,25775,6,0,P|99:133|111:97,1,60,2|0,2:2|0:0,0:0:0:0:
110,110,25858,6,0,P|142:86|140:55,1,67.4999979400635,2|0,2:2|0:0,0:0:0:0:
138,54,25942,6,0,P|148:17|115:0,1,75,2|0,2:2|0:0,0:0:0:0:
52,45,26025,6,0,B|60:97|60:97|64:103|64:103|58:104|58:104|62:108|62:108|80:213|80:213|111:228|119:262,1,225,2|0,2:3|0:0,0:0:0:0:
117,248,26192,2,0,B|105:297|105:297|106:303|106:303|101:302|101:302|103:308|103:308|91:358,1,112.500004291535,2|0,1:2|0:0,0:0:0:0:
5,288,26358,6,0,B|189:254|189:254|188:248|188:248|189:254|189:254|212:250|212:250|212:243|212:243|212:250|212:250|249:243|249:243|299:232|283:192|335:182,1,382.500007295609,10|0,2:2|0:0,0:0:0:0:
443,224,26692,6,0,B|444:207|444:207|308:156|346:28,1,236.249992790222,0|0,1:1|0:0,0:0:0:0:
347,34,26858,2,0,L|386:26,1,37.5,2|0,2:3|0:0,0:0:0:0:
479,355,27025,6,0,B|479:324|454:292|457:262|490:238|493:208|468:176|485:155|485:155|497:179|464:205|461:234|486:267|483:296|450:321|446:350,1,404.999987640381,8|0,2:2|0:0,0:0:0:0:
317,330,27358,6,0,P|323:355|356:356,1,56.2500021457673,2|0,2:2|0:0,0:0:0:0:
296,308,27442,6,0,P|270:314|269:347,1,56.2500021457673,2|0,2:2|0:0,0:0:0:0:
311,290,27525,6,0,P|304:264|271:263,1,56.2500021457673,2|0,1:2|0:0,0:0:0:0:
332,311,27608,6,0,P|357:304|358:271,1,56.2500021457673,2|0,2:2|0:0,0:0:0:0:
315,309,27692,6,0,B|307:275|271:266|271:266|243:118,1,213.749994292259,8|0,2:2|0:0,0:0:0:0:
247,115,27858,2,0,B|255:77|255:77|252:71|252:71|260:72|260:72|257:65|257:65|265:19,1,97.4999955368044
74,271,28025,6,0,B|47:263|47:263|33:238|-7:228|-7:228|104:256|104:256|109:255|109:255|114:259|114:259|199:283,1,300,2|0,1:3|0:0,0:0:0:0:
119,348,28275,1,2,2:2:0:0:
119,348,28358,2,0,B|42:362|42:362|37:343,1,97.4999955368044,10|0,2:2|0:0,0:0:0:0:
99,147,28525,5,2,2:2:0:0:
99,147,28608,2,8,B|71:140|71:140|47:155|10:147|10:147|90:165|90:165|90:170|90:170|94:166|94:166|222:198,1,314.999990386963,2|0,2:3|0:0,0:0:0:0:
167,29,28858,2,0,B|151:33|151:33|163:98,1,82.5000025177003,0|0,1:1|0:0,0:0:0:0:
277,259,29025,6,0,B|306:244|310:207|310:207|373:192|373:192|388:182|388:182|392:194|392:194|405:184|405:184|468:169,1,225,8|0,2:2|0:0,0:0:0:0:
454,179,29192,2,0,P|499:136|474:78,1,112.500004291535,2|0,2:3|0:0,0:0:0:0:
339,80,29358,6,0,B|326:141|326:141|374:179|374:179|391:182|391:182|386:192|386:192|408:196|408:196|445:228|445:228|435:279,1,269.999991760254,2|0,1:2|0:0,0:0:0:0:
369,325,29608,5,2,2:2:0:0:
369,325,29692,2,0,B|313:332|313:332|360:312,1,104.999996795654,10|0,2:2|0:0,0:0:0:0:
512,290,29858,1,2,1:2:0:0:
219,369,30025,6,0,B|209:332|209:332|206:327|206:327|210:326|210:326|207:322|207:322|196:279,1,97.4999955368044,2|0,1:2|0:0,0:0:0:0:
155,82,30192,2,0,P|207:74|241:120,1,97.4999955368044,2|0,1:3|0:0,0:0:0:0:
70,200,30358,6,0,B|65:165|34:150|34:150|45:91|45:91|43:87|43:87|47:85|47:85|59:26,1,191.250003647804,8|0,2:2|0:0,0:0:0:0:
58,28,30525,2,0,B|86:16|86:16|66:131,1,127.50000243187,2|0,1:2|0:0,0:0:0:0:
2,290,30692,6,0,B|26:295|26:295|55:170|181:200,1,225,4|0,2:2|0:0,0:0:0:0:
176,202,30858,2,0,B|210:192|210:192|215:189|215:189|216:193|216:193|220:190|220:190|260:180,1,89.9999972534181,2|0,1:2|0:0,0:0:0:0:
376,257,31025,6,0,B|352:214|308:206|308:206|286:118|286:118|280:115|280:115|284:108|284:108|274:60|274:60|262:10|310:-1|318:52|318:52|338:162,1,450,8|0,2:2|0:0,0:0:0:0:
287,359,31358,2,0,B|285:299|344:256|396:327|413:237|413:237|419:185|419:185|430:174|430:174|423:158|423:158|433:77,1,360,2|0,1:2|0:0,0:0:0:0:
498,379,31692,6,0,B|512:328|484:300|420:319|427:259|427:259|438:169,1,240,8|0,2:2|0:0,0:0:0:0:
498,4,31942,5,0,1:1:0:0:
498,4,32025,2,0,P|501:30|493:6,1,75,8|0,2:2|0:0,0:0:0:0:
328,147,32192,2,0,P|343:168|324:151,1,75,8|0,2:2|0:0,0:0:0:0:
131,138,32358,6,0,P|109:114|140:108,1,75.000002861023,2|0,1:3|0:2,0:2:0:0:
109,64,32470,6,0,P|138:57|129:87,1,75.000002861023,2|0,2:3|1:1,0:2:0:0:
184,83,32581,6,0,P|173:112|152:88,1,75.000002861023,2|0,2:3|0:2,0:2:0:0:
143,97,32692,5,0,1:1:0:0:
172,134,32775,1,0,1:1:0:0:
191,208,32858,1,0,1:1:0:0:
175,289,32942,1,0,1:1:0:0:
98,329,33025,6,0,P|72:339|47:329,1,52.4999983978272,2|2,1:2|1:2,0:0:0:0:
32,329,33108,6,0,P|6:302|7:277,1,60,2|2,1:2|1:2,0:0:0:0:
3,265,33192,6,0,P|11:231|39:214,1,67.4999979400635,2|2,1:2|1:2,0:0:0:0:
50,206,33275,6,0,P|90:211|107:248,1,75,2|2,1:2|1:2,0:0:0:0:
113,244,33358,6,0,B|132:259|132:259|249:246|249:246|255:241|255:241|257:248|257:248|263:244|263:244|327:235,1,225.000008583069,6|0,1:1|1:1,0:0:0:0:
462,298,33608,5,0,1:1:0:0:
458,258,33692,1,0,1:1:0:0:
408,215,33775,1,0,1:1:0:0:
328,240,33858,2,0,B|369:203|369:203|351:147,1,112.500004291535,6|0,1:1|0:0,0:0:0:0:
84,38,34025,5,0,1:1:0:0:
71,75,34108,1,0,1:1:0:0:
121,118,34192,1,0,1:1:0:0:
193,95,34275,1,0,1:1:0:0:
258,158,34358,2,0,B|275:189|264:218|210:213|213:261,1,112.500004291535,6|0,1:1|0:0,0:0:0:0:
102,360,34525,5,0,1:1:0:0:
135,346,34608,1,0,1:1:0:0:
185,330,34692,1,0,1:1:0:0:
263,310,34775,1,0,1:1:0:0:
332,362,34858,2,0,B|365:350|365:350|343:317,1,75,2|0,2:2|0:0,0:0:0:0:
122,225,35025,6,0,B|118:212|118:212|39:194,1,75,10|0,2:2|1:1,0:0:0:0:
0,260,35192,2,0,B|4:273|4:273|83:291,1,75,10|0,2:2|1:1,0:0:0:0:
439,338,35358,6,0,L|512:321,1,75,6|0,1:2|1:1,0:0:0:0:
492,241,35525,2,0,L|418:257,1,75,10|0,1:2|1:1,0:0:0:0:
248,384,35692,5,12,2:2:0:0:
263,310,35775,1,8,2:2:0:0:
277,232,35858,1,8,2:2:0:0:
292,153,35942,1,12,2:2:0:0:
309,73,36025,6,0,P|400:93|386:170,1,179.999994506836,6|2,1:2|2:2,0:0:0:0:
128,173,36358,2,0,P|124:132|115:84,1,89.9999972534181,10|0,2:2|0:0,0:0:0:0:
171,2,36525,2,0,P|22:45|32:144,1,269.999991760254,2|0,2:2|0:0,0:0:0:0:
102,284,36858,6,0,P|108:292|102:281,1,56.2500021457673,2|0,1:2|0:0,0:0:0:0:
30,215,37025,6,0,P|26:256|17:304,1,89.9999972534181,10|0,2:2|0:0,0:0:0:0:
190,365,37192,2,0,P|194:324|203:276,1,89.9999972534181,2|0,2:2|0:0,0:0:0:0:
1,384,37358,6,0,B|75:405|127:311|110:301|83:293|122:168|234:191,1,337.500012874604,2|0,1:2|0:0,0:0:0:0:
309,345,37692,2,0,P|300:300|296:256,1,89.9999972534181,8|0,2:2|0:0,0:0:0:0:
268,100,37858,6,0,P|294:220|423:215,1,269.999991760254,2|0,2:2|0:0,0:0:0:0:
367,64,38192,2,0,P|358:108|354:152,1,89.9999972534181,0|0,1:1|0:0,0:0:0:0:
470,309,38358,2,0,P|453:220|444:131,1,179.999994506836,8|0,2:2|0:0,0:0:0:0:
290,13,38692,6,0,P|117:34|102:198,1,359.999989013672,2|8,1:2|2:2,0:0:0:0:
241,384,39192,5,2,2:2:0:0:
241,384,39275,1,2,2:2:0:0:
241,384,39358,2,0,P|232:339|228:295,1,89.9999972534181,2|0,2:2|0:0,0:0:0:0:
195,134,39525,1,0,1:1:0:0:
149,318,39692,6,0,B|123:238|198:207|210:215|217:226|297:190|276:112,1,269.999991760254,10|0,2:2|0:3,0:3:0:0:
218,55,40025,5,0,1:1:0:0:
280,119,40192,1,2,2:2:0:0:
361,145,40358,1,10,2:2:0:0:
447,156,40525,1,2,2:2:0:0:
467,14,40692,5,2,2:2:0:0:
372,58,40858,1,2,1:2:0:0:
295,202,41025,1,10,2:2:0:0:
326,384,41192,1,2,2:2:0:0:
512,311,41358,6,0,P|423:294|334:285,1,179.999994506836,2|0,1:2|0:0,0:0:0:0:
123,223,41692,6,0,P|131:261|137:303,1,75,10|0,2:2|0:0,0:0:0:0:
104,384,41858,2,0,P|207:353|195:220,1,225,2|0,2:2|0:0,0:0:0:0:
205,89,42192,6,0,P|197:127|191:169,1,75,2|0,1:2|0:0,0:0:0:0:
44,317,42358,2,0,P|33:241|20:162,1,150,10|0,2:2|0:0,0:0:0:0:
0,35,42692,2,0,P|81:32|104:99,1,150,2|0,1:2|0:0,0:0:0:0:
290,124,43025,6,0,P|401:105|512:89,1,225,10|0,2:2|0:0,0:0:0:0:
499,12,43358,6,0,P|462:18|424:23,1,75,2|0,2:2|0:0,0:0:0:0:
305,201,43525,2,0,P|341:194|379:189,1,75,2|0,1:2|0:0,0:0:0:0:
346,22,43692,6,0,B|327:85|385:113|402:103|417:96|472:130|455:190,1,225.000008583069,10|0,2:2|0:3,3:3:0:0:
372,360,44025,6,0,P|225:319|228:205,1,269.999991760254,2|0,1:2|0:0,0:0:0:0:
111,107,44358,6,0,P|156:113|199:122,1,89.9999972534181,10|0,2:2|0:0,0:0:0:0:
98,21,44525,2,0,P|22:53|23:143,1,179.999994506836,2|0,2:2|0:0,0:0:0:0:
78,340,44858,6,0,P|117:315|113:261,1,89.9999972534181,0|0,1:1|0:0,0:0:0:0:
90,197,45025,1,8,2:2:0:0:
230,367,45192,5,2,2:2:0:0:
230,367,45275,1,2,2:2:0:0:
230,367,45358,2,0,B|146:398|103:322|116:298|123:278|73:207|-5:236,1,300,2|8,1:2|2:2,3:3:0:0:
342,108,45858,5,2,2:2:0:0:
342,108,45942,1,2,2:2:0:0:
342,108,46025,2,0,P|284:113|272:163,1,112.500004291535,2|0,2:2|1:1,0:0:0:0:
289,300,46275,5,2,2:2:0:0:
289,300,46358,2,0,P|296:266|302:239,1,56.2500021457673,8|0,2:2|0:0,0:0:0:0:
213,223,46525,2,0,P|208:250|202:278,1,56.2500021457673,2|0,2:2|0:0,0:0:0:0:
308,377,46692,5,6,1:2:0:0:
484,280,46858,1,2,2:2:0:0:
312,381,47025,1,10,2:2:0:0:
479,384,47192,2,0,P|450:251|426:119,1,269.999991760254,2|0,2:2|0:0,0:0:0:0:
359,19,47525,6,0,P|349:64|340:110,1,89.9999972534181,2|0,1:2|0:0,0:0:0:0:
213,223,47692,2,0,P|182:194|190:147,1,89.9999972534181,10|0,2:2|0:0,0:0:0:0:
247,65,47858,1,2,2:2:0:0:
225,329,48025,6,0,P|247:246|330:230,1,179.999994506836,2|2,1:2|2:2,0:0:0:0:
479,384,48358,2,0,P|433:374|387:365,1,89.9999972534181,8|0,2:2|0:0,0:0:0:0:
94,298,48525,5,2,2:2:0:0:
94,298,48608,1,2,2:2:0:0:
94,298,48692,1,2,2:2:0:0:
8,201,48858,1,2,1:2:0:0:
58,39,49025,1,10,2:2:0:0:
287,4,49192,1,2,2:2:0:0:
225,333,49358,6,0,P|216:288|207:244,1,89.9999972534181,6|0,1:2|0:0,0:0:0:0:
180,68,49525,1,2,2:2:0:0:
180,68,49692,1,10,2:2:0:0:
94,298,49858,6,0,P|106:191|207:161,1,225,2|0,2:2|0:0,0:0:0:0:
347,133,50192,6,0,P|344:116|349:131,1,56.2500021457673,2|0,1:2|0:0,0:0:0:0:
280,206,50358,6,0,P|315:212|353:221,1,75,10|0,2:2|0:0,0:0:0:0:
413,49,50525,2,0,P|376:41|338:32,1,75,2|0,2:2|0:0,0:0:0:0:
256,17,50692,6,0,B|232:88|322:146|333:130|343:104|465:152|427:260,1,337.500012874604,2|0,1:2|0:0,0:0:0:0:
512,280,51025,2,0,P|401:302|292:330,1,225,10|0,2:2|0:0,0:0:0:0:
219,384,51358,6,0,P|195:345|207:309,1,75,2|0,2:2|0:0,0:0:0:0:
280,206,51525,1,2,1:2:0:0:
110,377,51692,6,0,P|52:360|49:279,1,150,10|2,2:2|2:2,0:0:0:0:
69,5,52025,6,0,P|97:119|132:276,1,269.999991760254,6|0,1:2|0:0,0:0:0:0:
200,318,52358,5,10,2:2:0:0:
225,321,52441,1,2,2:2:0:0:
262,310,52524,1,2,2:2:0:0:
287,263,52608,1,2,2:2:0:0:
279,206,52692,1,2,2:2:0:0:
249,171,52775,1,2,2:2:0:0:
228,98,52858,1,2,1:2:0:0:
259,28,52942,1,2,2:2:0:0:
333,0,53025,1,10,2:2:0:0:
405,12,53108,1,2,2:2:0:0:
449,73,53192,1,2,2:2:0:0:
447,111,53275,1,2,2:2:0:0:
410,176,53358,6,0,P|266:140|120:111,1,292.499986610413,6|0,1:2|0:0,0:0:0:0:
90,7,53692,5,10,2:2:0:0:
64,9,53775,1,2,2:2:0:0:
35,26,53858,1,2,2:2:0:0:
9,62,53942,1,2,2:2:0:0:
0,109,54025,1,2,2:2:0:0:
4,150,54108,1,2,2:2:0:0:
47,210,54192,1,2,1:2:0:0:
118,238,54275,1,2,2:2:0:0:
194,227,54358,1,10,2:2:0:0:
271,245,54442,1,2,2:2:0:0:
299,277,54526,1,2,2:2:0:0:
299,307,54609,1,2,2:2:0:0:
213,315,54692,5,6,1:2:0:0:
213,315,54775,2,0,P|137:330|62:348,1,150,2|0,2:2|0:0,0:0:0:0:
152,135,55025,5,10,2:2:0:0:
152,135,55108,2,0,P|190:143|230:152,1,75,2|0,2:2|0:0,0:0:0:0:
379,266,55275,5,2,2:2:0:0:
379,266,55358,2,0,P|418:250|428:208,1,75,10|0,2:2|0:0,0:0:0:0:
512,227,55525,2,0,P|517:185|486:155,1,75,2|0,1:2|0:0,0:0:0:0:
297,19,55692,6,0,P|291:55|282:91,1,75,10|0,2:2|0:0,0:0:0:0:
512,384,55858,5,2,1:2:0:0:
512,384,55942,1,2,1:2:0:0:
512,384,56025,2,0,P|458:349|460:312,1,97.4999955368044,14|0,2:2|0:0,0:0:0:0:
331,184,56192,2,0,P|366:130|403:132,1,97.4999955368044,10|0,2:2|0:0,0:0:0:0:
347,341,56358,6,0,P|293:306|295:269,1,97.4999955368044,10|0,2:2|0:0,0:0:0:0:
384,40,56525,2,0,P|448:43|465:76,1,97.4999955368044,10|0,2:2|0:0,0:0:0:0:
189,232,56692,5,2,1:2:0:0:
146,220,56775,1,2,1:2:0:0:
104,210,56858,1,2,1:2:0:0:
62,202,56942,1,2,1:2:0:0:
38,208,57025,5,10,2:2:0:0:
0,142,57108,1,10,2:2:0:0:
22,69,57191,1,10,2:2:0:0:
95,39,57275,1,10,2:2:0:0:
168,59,57358,6,0,P|175:106|181:153,1,89.9999972534181,6|0,1:2|0:0,0:0:0:0:
204,319,57525,1,2,2:2:0:0:
204,319,57692,1,2,2:2:0:0:
18,306,57858,6,0,P|65:299|112:293,1,89.9999972534181,6|0,1:2|0:0,0:0:0:0:
380,268,58025,1,2,2:2:0:0:
380,268,58192,1,2,2:2:0:0:
280,368,58358,6,0,P|287:321|293:274,1,89.9999972534181,6|0,1:2|0:0,0:0:0:0:
319,96,58525,1,2,2:2:0:0:
319,96,58692,1,2,2:2:0:0:
439,188,58858,6,0,P|392:181|345:175,1,89.9999972534181,6|0,1:2|0:0,0:0:0:0:
89,140,59025,1,2,2:2:0:0:
89,140,59192,1,2,2:2:0:0:
218,3,59358,6,0,P|208:63|201:124,1,120,6|0,1:2|0:0,0:0:0:0:
0,384,59692,6,0,P|33:248|172:247,1,300,6|8,1:2|2:2,0:0:0:0:
303,373,60192,5,2,1:2:0:0:
303,373,60275,1,2,2:2:0:0:
303,373,60358,2,0,P|246:364|240:311,1,112.500004291535,2|0,2:2|0:0,0:0:0:0:
274,217,60692,1,2,1:2:0:0:
274,217,60858,1,2,2:2:0:0:
512,262,61025,6,0,P|510:317|472:356,1,112.500004291535,2|2,2:2|1:2,0:0:0:0:
416,216,61358,2,0,P|378:256|377:311,1,112.500004291535,2|2,2:2|2:2,0:0:0:0:
401,105,61692,6,0,P|425:172|513:173,1,168.750006437302,6|0,1:2|0:0,0:0:0:0:
508,0,62025,6,0,P|498:43|489:88,1,89.9999972534181,6|0,1:2|0:0,0:0:0:0:
302,134,62192,1,2,2:2:0:0:
302,134,62357,1,2,2:2:0:0:
140,6,62525,6,0,P|184:15|228:24,1,89.9999972534181,6|0,1:2|0:0,0:0:0:0:
257,271,62692,1,2,2:2:0:0:
257,271,62857,1,2,2:2:0:0:
148,376,63025,6,0,P|140:331|130:287,1,89.9999972534181,6|0,1:2|0:0,0:0:0:0:
216,117,63192,1,2,2:2:0:0:
216,117,63357,1,2,2:2:0:0:
421,364,63525,6,0,P|376:354|332:345,1,89.9999972534181,6|0,1:2|0:0,0:0:0:0:
103,164,63692,1,2,2:2:0:0:
103,164,63857,1,2,2:2:0:0:
366,0,64025,6,0,P|378:58|390:117,1,120,6|0,1:2|0:0,0:0:0:0:
489,298,64358,6,0,P|438:157|305:166,1,300,6|8,1:2|2:2,0:0:0:0:
118,367,64858,5,2,2:2:0:0:
118,367,64941,1,2,2:2:0:0:
118,367,65024,2,0,P|176:354|236:345,1,112.500004291535,2|0,2:2|0:0,0:0:0:0:
356,238,65358,1,2,1:2:0:0:
308,163,65524,1,2,2:2:0:0:
406,384,65692,6,0,P|414:341|423:298,1,75,6|0,1:2|0:0,0:0:0:0:
443,218,65858,1,0,0:0:0:0:
96,279,66025,6,0,P|88:242|80:205,1,75,6|0,1:2|0:0,0:0:0:0:
60,112,66191,1,0,0:0:0:0:
399,0,66358,6,0,P|391:36|383:73,1,75,6|0,1:2|0:0,0:0:0:0:
179,272,66525,5,0,1:1:0:0:
179,272,66608,1,0,1:1:0:0:
179,272,66692,2,0,P|216:264|253:256,1,75,6|0,1:2|0:0,0:0:0:0:
443,218,66858,1,2,2:2:0:0:
426,141,67025,1,10,2:2:0:0:
316,365,67192,6,0,P|324:328|332:291,1,75,6|0,1:2|0:0,0:0:0:0:
157,188,67358,1,2,2:2:0:0:
80,205,67525,1,10,2:2:0:0:
203,25,67692,6,0,P|211:62|219:99,1,75,6|0,1:2|0:0,0:0:0:0:
95,293,67858,1,2,2:2:0:0:
18,276,68025,1,10,2:2:0:0:
263,166,68192,6,0,P|300:174|337:182,1,75,6|0,1:2|0:0,0:0:0:0:
479,363,68358,1,2,2:2:0:0:
496,286,68525,1,10,2:2:0:0:
151,360,68692,6,0,P|188:352|225:344,1,75,6|0,1:2|0:0,0:0:0:0:
426,204,68858,1,2,2:2:0:0:
125,68,69025,6,0,P|34:77|5:194,2,209.999993591309,4|0|8,1:2|0:0|2:2,0:0:0:0:
345,371,69525,5,2,2:2:0:0:
345,371,69608,1,2,2:2:0:0:
345,371,69692,2,0,P|329:297|313:223,1,150,2|10,2:2|2:2,0:0:0:0:
237,28,70025,6,2,P|223:93|209:153,1,112.500004291535,6|2,2:2|2:2,0:0:0:0:
417,201,70275,1,2,1:2:0:0:
417,201,70358,2,0,P|401:137|387:74,1,112.500004291535,10|2,2:2|2:2,0:0:0:0:
200,214,70608,5,0,1:1:0:0:
200,214,70692,2,0,P|191:251|182:288,1,75,10|0,2:2|0:0,0:0:0:0:
460,381,70858,1,2,1:2:0:0:
460,381,70942,2,0,P|451:344|443:307,1,75,8|2,2:2|2:2,0:0:0:0:
319,27,71108,5,0,1:1:0:0:
319,27,71192,1,10,2:2:0:0:
311,67,71275,1,0,1:1:0:0:
306,99,71358,2,0,P|297:135|290:172,1,75,14|0,2:2|0:0,0:0:0:0:
147,369,71525,6,0,P|112:356|99:322,1,75,8|0,2:2|0:0,0:0:0:0:
21,286,71692,2,0,P|34:251|68:238,1,75,8|0,2:2|0:0,0:0:0:0:
192,15,71858,6,0,P|201:51|208:88,1,75,12|0,2:2|0:0,0:0:0:0:
326,293,72024,6,0,P|361:280|374:246,1,75,8|0,2:2|0:0,0:0:0:0:
456,206,72191,2,0,P|443:171|409:158,1,75,8|0,2:2|0:0,0:0:0:0:
230,332,72358,6,0,P|220:295|213:258,1,75,14|0,2:2|0:0,0:0:0:0:
192,15,72525,6,0,P|154:19|134:49,1,75,8|0,2:2|0:0,0:0:0:0:
50,67,72692,2,0,P|54:104|84:124,1,75,8|0,2:2|0:0,0:0:0:0:
311,367,72858,6,0,P|317:330|327:293,1,75,14|0,2:2|0:0,0:0:0:0:
348,7,73025,6,0,P|387:16|400:50,1,75,8|0,2:2|0:0,0:0:0:0:
456,111,73191,2,0,P|443:146|409:159,1,75,8|0,2:2|0:0,0:0:0:0:
28,198,73358,6,0,P|65:204|102:214,1,75,12|0,2:2|0:0,0:0:0:0:
265,0,73525,2,0,P|229:9|192:16,1,75,8|0,2:2|0:0,0:0:0:0:
289,284,73691,5,12,2:2:0:0:
302,287,73775,1,8,2:2:0:0:
314,289,73858,1,8,2:2:0:0:
326,293,73941,1,8,2:2:0:0:
392,250,74024,5,8,2:2:0:0:
398,217,74108,1,8,2:2:0:0:
402,187,74191,1,8,2:2:0:0:
409,158,74274,1,8,2:2:0:0:
352,112,74358,5,10,2:2:0:0:
289,116,74441,1,10,2:2:0:0:
236,154,74524,1,10,2:2:0:0:
221,212,74607,1,8,2:2:0:0:
182,279,74692,5,10,2:2:0:0:
106,287,74775,1,8,2:2:0:0:
43,237,74858,1,10,2:2:0:0:
40,161,74941,1,8,2:2:0:0:
115,118,75025,6,0,P|122:163|130:217,1,89.9999972534181,12|0,2:2|0:0,0:0:0:0:
309,374,75192,5,0,1:1:0:0:
378,339,75275,2,0,P|384:294|391:250,1,89.9999972534181,12|0,2:2|0:0,0:0:0:0:
37,341,75442,5,0,1:1:0:0:
101,383,75525,2,0,P|145:376|189:369,1,89.9999972534181,12|0,2:2|0:0,0:0:0:0:
398,47,75692,5,10,1:2:0:0:
393,38,75775,6,0,P|366:24|343:39,1,44.999998626709,14|2,1:2|1:2,0:0:0:0:
311,32,75858,6,0,P|285:48|287:76,1,44.999998626709,10|2,1:2|1:2,0:0:0:0:
268,85,75942,6,0,P|269:115|293:127,1,44.999998626709,10|2,1:2|1:2,0:0:0:0:
289,155,76025,5,6,1:2:0:0:
412,359,86692,6,0,P|482:369|520:376,1,97.4999955368044,2|0,2:2|0:0,0:0:0:0:
437,274,87025,2,0,P|332:315|332:396,1,194.999991073609,0|2,0:0|2:2,0:0:0:0:
313,279,87525,2,0,P|273:260|270:201,1,97.4999955368044
348,198,87858,1,0,0:0:0:0:
230,343,88025,6,0,P|182:334|133:327,1,97.4999955368044,2|0,2:2|0:0,0:0:0:0:
100,146,88358,2,0,P|147:154|196:161,1,97.4999955368044
55,255,88692,5,2,2:2:0:0:
50,244,88858,1,0,0:0:0:0:
60,239,89025,1,0,0:0:0:0:
65,248,89192,1,0,0:0:0:0:
57,246,89358,5,2,2:2:0:0:
256,101,89525,1,2,2:2:0:0:
25,38,89692,1,2,2:2:0:0:
153,218,90025,6,0,P|146:169|137:121,1,97.4999955368044
245,241,90358,2,0,P|176:256|158:325,1,146.249993305207,2|0,2:2|0:0,0:0:0:0:
242,333,90692,6,0,P|290:339|338:348,1,97.4999955368044,2|0,2:2|0:0,0:0:0:0:
369,171,91025,2,0,P|320:164|272:155,1,97.4999955368044
418,282,91358,5,2,2:2:0:0:
423,271,91524,1,0,0:0:0:0:
413,266,91691,1,0,0:0:0:0:
408,275,91858,1,0,0:0:0:0:
416,273,92024,5,2,2:2:0:0:
288,73,92191,1,2,2:2:0:0:
498,186,92358,1,2,2:2:0:0:
152,249,92692,6,0,P|103:256|55:265,1,97.4999955368044
95,166,93025,1,0,0:0:0:0:
95,166,93192,1,0,0:0:0:0:
126,352,93358,5,2,2:2:0:0:
161,358,93525,1,0,0:0:0:0:
207,344,93692,1,0,0:0:0:0:
246,284,93858,1,0,0:0:0:0:
244,209,94025,1,0,0:0:0:0:
278,137,94192,1,0,0:0:0:0:
345,89,94358,1,0,0:0:0:0:
429,98,94525,1,0,0:0:0:0:
496,188,94692,5,2,2:2:0:0:
496,188,96025,6,0,P|378:207|162:268,1,341.249984378815
54,307,96692,6,0,P|53:280|86:273,1,56.2500021457673,2|0,2:2|0:0,0:0:0:0:
37,332,96774,6,0,P|9:331|2:299,1,56.2500021457673,2|0,2:2|0:0,0:0:0:0:
55,346,96859,6,0,P|53:371|21:380,1,56.2500021457673,2|0,2:2|0:0,0:0:0:0:
72,322,96942,6,0,P|97:322|105:355,1,56.2500021457673,2|0,2:2|0:0,0:0:0:0:
55,328,97025,5,2,2:2:0:0:
330,25,97358,6,0,P|227:43|208:128,1,194.999991073609,4|0,1:2|0:0,0:0:0:0:
389,185,97608,2,0,P|367:115|320:115,1,112.500004291535,6|0,1:2|0:0,0:0:0:0:
101,142,97858,6,0,P|198:159|294:185,1,194.999991073609,6|0,1:2|0:0,0:0:0:0:
501,238,98108,2,0,P|403:255|307:281,1,194.999991073609,6|0,1:2|0:0,0:0:0:0:
180,314,98358,6,0,P|146:267|161:232,1,97.4999955368044,6|0,1:2|0:0,0:0:0:0:
502,59,98525,2,0,P|489:105|480:153,1,97.4999955368044,6|0,1:2|0:0,0:0:0:0:
430,339,98692,5,2,1:2:0:0:
89,36,98858,6,2,P|74:41|91:39,4,48.7499977684022,8|0|0|0|0,1:2|1:1|1:1|1:1|1:1,0:0:0:0:
105,132,99108,6,0,P|91:147|109:134,4,67.4999979400635,10|0|0|0|0,2:2|1:1|1:1|1:1|1:1,0:0:0:0:
154,222,99358,6,0,P|149:245|159:221,2,78.7499975967408,10|0|2,2:2|1:1|1:2,0:0:0:0:
367,46,99608,5,10,1:2:0:0:
367,46,99692,1,10,2:2:0:0:
444,37,99775,1,8,1:2:0:0:
505,94,99858,1,10,2:2:0:0:
505,173,99941,1,8,2:2:0:0:
461,241,100025,6,0,B|374:277|319:183|333:162|350:137|284:43|204:91,1,337.500012874604,4|0,1:2|0:0,0:0:0:0:
264,257,100358,6,0,P|257:212|244:169,1,89.9999972534181,8|0,2:2|0:3,0:3:0:0:
159,28,100525,5,2,2:2:0:0:
159,28,100608,1,2,2:2:0:0:
158,28,100692,2,0,P|116:60|127:112,1,112.500004291535,2|0,2:2|0:0,0:0:0:0:
426,165,100858,6,0,P|416:133|411:101,1,60,0|0,1:1|0:3,0:3:0:0:
350,21,101025,6,0,P|307:187|285:354,1,337.500012874604,8|0,2:2|0:3,0:3:0:0:
125,249,101358,5,2,1:2:0:0:
125,249,101442,2,0,P|136:316|211:307,1,150,2|2,2:2|2:2,0:0:0:0:
365,363,101692,5,10,2:2:0:0:
394,364,101775,1,2,2:2:0:0:
420,342,101858,1,2,2:2:0:0:
424,313,101942,1,2,2:2:0:0:
394,242,102025,5,2,2:2:0:0:
342,220,102108,1,2,2:2:0:0:
290,205,102192,1,2,1:2:0:0:
232,197,102275,1,2,2:2:0:0:
196,121,102358,5,10,2:2:0:0:
227,51,102442,1,2,2:2:0:0:
305,25,102525,1,2,2:2:0:0:
375,62,102608,1,2,2:2:0:0:
402,138,102692,6,0,P|243:156|96:194,1,300,6|0,1:2|0:3,0:3:0:0:
2,51,102942,1,2,2:2:0:0:
2,51,103025,2,0,P|59:70|112:80,1,112.500004291535,10|0,2:2|0:3,0:3:0:0:
180,273,103192,6,0,P|22:257|38:120,1,300,2|0,2:2|0:0,0:0:0:0:
156,0,103442,1,2,2:2:0:0:
156,0,103525,2,0,P|214:6|219:69,1,112.500004291535,2|0,1:2|0:0,0:0:0:0:
279,220,103692,6,0,P|283:175|293:131,1,89.9999972534181,8|0,2:2|0:3,0:3:0:0:
325,10,103858,5,2,2:2:0:0:
325,10,103942,1,2,2:2:0:0:
325,10,104025,1,6,1:2:0:0:
400,0,104108,1,2,2:2:0:0:
458,53,104192,1,2,2:2:0:0:
461,128,104275,1,2,2:2:0:0:
499,197,104358,5,10,2:2:0:0:
511,231,104442,1,2,2:2:0:0:
498,265,104525,1,2,2:2:0:0:
465,280,104608,1,2,2:2:0:0:
406,338,104692,5,2,2:2:0:0:
368,344,104775,1,2,2:2:0:0:
324,333,104858,1,2,1:2:0:0:
290,272,104942,1,2,2:2:0:0:
292,200,105025,1,10,2:2:0:0:
260,132,105108,1,2,2:2:0:0:
199,78,105192,1,2,2:2:0:0:
116,90,105275,1,2,2:2:0:0:
54,157,105358,6,0,P|62:201|69:245,1,89.9999972534181,4|0,1:2|0:0,0:0:0:0:
343,98,105525,5,2,2:2:0:0:
343,98,105608,2,0,P|350:53|358:9,1,89.9999972534181,2|8,2:2|2:2,0:0:0:0:
149,296,105775,5,2,2:2:0:0:
149,296,105858,2,0,P|157:340|164:384,1,89.9999972534181,2|0,2:2|0:0,0:0:0:0:
381,261,106025,5,2,2:2:0:0:
381,261,106108,2,0,P|388:216|396:172,1,89.9999972534181,2|0,2:2|1:1,0:0:0:0:
95,1,106275,5,2,2:2:0:0:
95,1,106358,2,0,P|104:45|110:89,1,89.9999972534181,8|0,2:2|0:0,0:0:0:0:
370,354,106525,5,2,2:2:0:0:
370,354,106608,1,2,2:2:0:0:
370,354,106692,2,0,P|406:357|435:323,1,75,6|0,1:2|0:0,0:0:0:0:
508,300,106858,2,0,P|511:263|477:234,1,75,2|0,2:2|0:0,0:0:0:0:
186,326,107025,5,10,2:2:0:0:
200,326,107108,1,2,2:2:0:0:
215,328,107192,1,2,2:2:0:0:
230,331,107275,1,2,2:2:0:0:
246,335,107358,5,2,2:2:0:0:
261,305,107442,1,2,2:2:0:0:
238,271,107525,1,2,1:2:0:0:
267,232,107608,1,2,2:2:0:0:
228,185,107692,1,10,2:2:0:0:
274,148,107775,1,2,2:2:0:0:
213,94,107858,1,2,1:2:0:0:
282,45,107942,1,10,2:2:0:0:
200,4,108025,6,0,P|47:27|33:145,1,269.999991760254,14|0,2:2|0:0,0:0:0:0:
93,329,108275,6,0,P|106:211|121:91,1,240,14|0,2:2|0:0,0:0:0:0:
357,133,108525,6,0,P|370:251|385:371,1,240,14|0,2:2|0:0,0:0:0:0:
457,163,108775,6,0,P|409:45|281:45,1,269.999991760254,14|0,2:2|0:0,0:0:0:0:
470,324,109025,6,0,P|474:283|479:242,1,75,14|0,2:2|0:0,0:0:0:0:
195,11,109192,6,0,P|213:161|230:312,1,292.499986610413,6|0,1:2|0:0,0:0:0:0:
171,363,109525,5,10,2:2:0:0:
171,363,109608,1,2,2:2:0:0:
171,363,109692,1,2,2:2:0:0:
138,373,109775,1,10,2:2:0:0:
102,363,109858,1,2,2:2:0:0:
83,334,109941,1,2,2:2:0:0:
22,283,110025,5,10,2:2:0:0:
22,221,110108,1,2,2:2:0:0:
70,180,110191,1,14,1:2:0:0:
130,182,110274,1,2,1:2:0:0:
194,225,110358,5,10,2:2:0:0:
274,218,110441,1,10,2:2:0:0:
331,162,110524,1,10,2:2:0:0:
329,78,110607,1,10,2:2:0:0:
255,41,110692,6,0,P|238:176|223:313,1,269.999991760254,14|0,2:2|0:0,0:0:0:0:
446,381,110942,6,0,P|430:246|414:112,1,269.999991760254,14|0,2:2|0:0,0:0:0:0:
194,225,111192,6,0,P|61:178|69:48,1,269.999991760254,14|0,2:2|0:0,0:0:0:0:
369,282,111442,6,0,P|493:268|502:144,1,269.999991760254,14|0,2:2|0:0,0:0:0:0:
337,3,111692,6,0,P|333:43|328:85,1,75,14|0,2:2|0:0,0:0:0:0:
121,384,111858,6,0,B|97:285|203:259|218:270|234:281|334:266|315:152,1,337.500012874604,6|0,1:2|0:3,0:3:0:0:
223,87,112192,5,2,2:2:0:0:
223,87,112275,1,2,2:2:0:0:
223,87,112358,1,10,2:2:0:0:
183,81,112441,1,2,2:2:0:0:
156,110,112524,1,2,1:2:0:0:
153,143,112607,1,2,2:2:0:0:
91,185,112692,5,2,2:2:0:0:
81,239,112775,1,2,2:2:0:0:
114,282,112858,1,10,2:2:0:0:
166,292,112941,1,2,2:2:0:0:
226,350,113024,5,10,2:2:0:0:
293,298,113107,1,10,2:2:0:0:
367,266,113190,1,10,2:2:0:0:
446,259,113273,1,10,2:2:0:0:
511,319,113358,6,0,P|482:353|427:341,1,97.4999955368044,6|0,1:2|0:0,0:0:0:0:
289,294,113524,2,0,P|255:265|267:210,1,97.4999955368044,8|0,2:2|0:0,0:0:0:0:
463,25,113692,5,10,2:2:0:0:
495,98,113775,1,2,2:2:0:0:
437,151,113858,2,0,P|390:141|341:132,1,97.4999955368044,10|0,2:2|0:0,0:0:0:0:
184,9,114025,5,10,2:2:0:0:
109,0,114108,1,2,2:2:0:0:
44,39,114191,1,10,2:2:0:0:
26,112,114274,1,2,2:2:0:0:
63,181,114358,2,0,P|110:171|159:162,1,97.4999955368044,10|0,2:2|0:0,0:0:0:0:
348,36,114525,5,2,1:2:0:0:
313,7,114608,1,2,1:2:0:0:
269,25,114692,2,0,P|259:72|250:121,1,97.4999955368044,14|0,2:2|0:0,0:0:0:0:
123,350,114858,5,10,2:2:0:0:
123,350,114942,2,0,P|133:303|142:254,1,97.4999955368044,2|8,2:2|2:2,0:0:0:0:
361,228,115108,5,2,2:2:0:0:
361,228,115192,2,0,P|351:181|342:132,1,97.4999955368044,10|0,2:2|0:0,0:0:0:0:
348,346,115358,5,10,1:2:0:0:
421,370,115441,1,2,1:2:0:0:
492,337,115524,1,10,1:2:0:0:
507,260,115607,1,2,1:2:0:0:
456,200,115692,5,10,1:2:0:0:
460,174,115775,1,2,1:2:0:0:
465,148,115858,1,10,1:2:0:0:
471,123,115941,1,2,1:2:0:0:
483,38,116025,6,0,P|421:43|410:74,1,97.4999955368044,14|2,2:2|2:2,0:0:0:0:
273,194,116192,1,10,2:2:0:0:
273,194,116275,2,0,P|218:170|227:112,1,112.500004291535,10|2,2:2|2:2,0:0:0:0:
317,7,116442,6,0,P|341:120|362:234,1,225.000008583069,10|2,2:2|2:2,0:0:0:0:
289,299,116692,6,0,P|235:284|183:278,1,97.4999955368044,14|2,2:2|2:2,0:0:0:0:
60,74,116858,1,10,2:2:0:0:
60,74,116942,2,0,P|112:65|164:53,1,97.4999955368044,10|10,2:2|2:2,0:0:0:0:
146,350,117108,5,2,2:2:0:0:
66,340,117191,1,10,2:2:0:0:
24,272,117274,1,2,2:2:0:0:
45,195,117357,1,14,2:2:0:0:
107,146,117442,2,0,P|169:135|232:120,1,112.500004291535,14|0,2:2|0:0,0:0:0:0:
382,332,117608,5,8,2:2:0:0:
462,309,117692,2,0,P|472:250|484:189,1,112.500004291535,14|0,2:2|0:0,0:0:0:0:
396,15,117858,5,8,2:2:0:0:
316,32,117942,2,0,P|306:91|294:152,1,112.500004291535,14|0,2:2|0:0,0:0:0:0:
308,380,118108,5,8,2:2:0:0:
231,348,118192,2,0,P|221:289|209:228,1,112.500004291535,14|0,2:2|0:0,0:0:0:0:
475,119,118358,5,14,2:2:0:0:
397,105,118441,1,10,2:2:0:0:
480,109,118525,5,14,2:2:0:0:
394,94,118608,1,10,2:2:0:0:
