osu file format v14

[General]
AudioFilename: audio.mp3
AudioLeadIn: 0
PreviewTime: 35923
Countdown: 0
SampleSet: Soft
StackLeniency: 0.7
Mode: 0
LetterboxInBreaks: 0
WidescreenStoryboard: 1

[Editor]
Bookmarks: 6673,14673,36006,37339,57339,63005,76339,76464,76631,76756,76923,77048,77214,77381,77506,77673,77839,77964,78173,78298,78464,78589,78756,78881,79048,79214,79339,79506,79631,79798,79964,80089,80256,80423,80548,80756,80923,81048,81214,81381,81548,81714,81881,82048,82256,82381,82589,82714,82881,83048,83214,83381,83506,83673,83839,84006,84173,84339,84506,84673,84839,84964,85131,85298,85464,85631,85839,86006,86173,86339,86548,86673,97339,104672
DistanceSpacing: 1
BeatDivisor: 12
GridSize: 16
TimelineZoom: 3.699999

[Metadata]
Title:Eeliaas
TitleUnicode:Eeliaas
Artist:Mitsuki
ArtistUnicode:ミツキ
Creator:Ascended
Version:Easy
Source:Muse Dash
Tags:りにゃ Rinya Elias Eelias Eliaas Mitsuboshi Records ミツボシレコーズ 3rd EP Defeated Memorial Video Game Electronic Instrumental techno artcore -ascended- -_ascended_- Flask Down atlas- atlas aeniko osu! mappers guild mpg fa featured artist showcase
BeatmapID:3562313
BeatmapSetID:1737106

[Difficulty]
HPDrainRate:3.4
CircleSize:2.7
OverallDifficulty:3
ApproachRate:4
SliderMultiplier:0.9
SliderTickRate:1

[Events]
//Background and Video events
0,0,"homo.jpg",0,0
//Break Periods
2,76223,85371
//Storyboard Layer 0 (Background)
//Storyboard Layer 1 (Fail)
//Storyboard Layer 2 (Pass)
//Storyboard Layer 3 (Foreground)
//Storyboard Layer 4 (Overlay)
//Storyboard Sound Samples

[TimingPoints]
1025,333.333333333333,4,2,1,30,1,0
1025,-100,4,2,1,30,0,0
1359,333.333333333333,4,2,1,30,1,0
1359,-100,4,2,1,30,0,0
6358,-100,4,2,1,40,0,0
6692,-100,4,2,1,40,0,0
12025,-100,4,2,1,50,0,0
13358,-100,4,2,1,50,0,0
14692,-100,4,2,1,70,0,1
15025,-100,4,2,1,70,0,1
15358,-100,4,2,1,70,0,1
21358,-100,4,2,1,70,0,1
22692,-100,4,2,1,70,0,1
25358,-100,4,2,1,70,0,1
25692,-100,4,2,1,70,0,1
36025,-100,4,2,1,55,0,0
57358,333.333333333333,7,2,1,60,1,0
57358,-100,4,2,1,60,0,0
60191,-100,4,2,1,60,0,0
62024,-100,4,2,1,60,0,0
65024,-100,4,2,1,60,0,0
65691,-100,4,2,1,60,0,0
66525,-100,4,2,1,65,0,0
66691,-100,4,2,1,65,0,0
69524,-100,4,2,1,65,0,0
71357,-100,4,2,1,65,0,0
75024,-100,4,2,1,65,0,0
75524,-100,4,2,1,65,0,0
76025,333.333333333333,4,2,1,65,1,0
86690,-100,4,2,1,40,0,0
94692,-100,4,2,1,50,0,0
96692,-100,4,2,1,70,0,0
97358,-100,4,2,1,60,0,0
97858,-100,4,2,1,60,0,0
100023,-100,4,2,1,70,0,1
108024,-100,4,2,1,70,0,1
109191,-100,4,2,1,70,0,1
110691,-100,4,2,1,70,0,1
111858,-100,4,2,1,70,0,1
116024,-100,4,2,1,70,0,1
118608,-100,4,2,1,70,0,0

[Colours]
Combo1 : 149,149,255
Combo2 : 217,217,255

[HitObjects]
26,370,6692,6,0,P|51:310|116:298,1,135,2|2,0:0|0:0,0:0:0:0:
243,341,7692,1,2,0:0:0:0:
298,270,8025,2,0,P|272:210|207:208,1,135,2|2,0:0|0:0,0:0:0:0:
79,169,9025,1,2,0:0:0:0:
111,85,9358,6,0,P|173:76|248:63,1,135,2|2,0:0|0:0,0:0:0:0:
325,102,10192,1,2,0:0:0:0:
394,45,10525,2,0,P|463:49|479:107,1,135,2|2,0:0|0:2,0:0:0:0:
492,193,11358,2,0,P|446:199|401:206,1,90,2|2,0:0|0:0,0:0:0:0:
314,222,12025,1,6,1:2:0:0:
166,26,13358,6,0,P|77:56|71:146,1,180,2|2,1:2|1:2,0:0:0:0:
79,315,14692,6,0,B|111:306|111:306|126:289|126:289|164:279,1,90,6|10,1:2|0:0,3:0:0:0:
244,308,15358,1,2,0:3:0:0:
306,242,15692,1,8,0:0:0:0:
287,154,16025,2,0,L|276:108,2,45,0|2|8,1:0|0:3|0:2,0:0:0:0:
374,175,16692,2,0,B|412:159|412:159|454:189,1,90,2|8,0:3|0:2,0:0:0:0:
483,272,17358,6,0,B|475:278|475:278|390:262,1,90,2|10,1:3|0:0,0:0:0:0:
357,286,17858,2,0,B|346:276|346:276|227:298,1,135,2|8,0:3|0:2,0:0:0:0:
153,352,18692,1,2,1:2:0:0:
79,300,19025,1,8,0:0:0:0:
105,214,19358,2,0,L|114:168,2,45,2|2|10,0:2|1:3|0:2,0:0:0:0:
195,214,20025,6,0,B|225:181|225:181|210:133,1,90,2|8,1:3|0:2,0:0:0:0:
187,51,20692,1,2,0:3:0:0:
272,24,21025,1,10,0:0:0:0:
350,67,21358,2,0,B|395:54|395:54|420:14,2,90,2|10|2,1:1|0:1|0:0,0:0:0:0:
371,154,22358,1,10,0:1:0:0:
301,211,22692,6,0,B|288:188|288:188|247:179|247:179|223:189,1,90,2|10,1:2|0:0,0:0:0:0:
146,228,23358,1,2,0:3:0:0:
90,157,23692,2,0,L|44:145,2,45,10|2|2,2:0|2:0|1:2,2:0:0:0:
116,70,24358,1,10,0:0:0:0:
199,38,24692,2,0,L|288:56,1,90,2|10,0:0|0:0,0:0:0:0:
375,36,25358,6,0,B|383:68|383:68|399:83|399:83|410:121,1,90,4|10,1:2|0:0,0:0:0:0:
447,197,26024,1,2,0:3:0:0:
368,240,26358,1,10,0:2:0:0:
285,204,26692,2,0,B|241:193|241:193|201:222,1,90,0|8,1:0|0:0,0:0:0:0:
261,290,27358,2,0,L|252:337,2,45,2|2|8,0:0|1:2|0:0,0:0:0:0:
341,329,28025,6,0,B|348:335|348:335|433:319,1,90,2|10,1:3|0:0,0:0:0:0:
470,307,28525,2,0,B|460:296|460:296|474:168,1,135,2|8,0:3|0:2,0:0:0:0:
483,86,29358,1,2,1:2:0:0:
411,32,29691,1,10,0:0:0:0:
331,72,30024,2,0,L|320:26,2,45,2|2|8,1:2|1:3|0:2,0:0:0:0:
344,161,30692,5,4,0:0:0:0:
255,144,31025,1,8,0:2:0:0:
167,125,31358,2,0,L|67:106,1,90,2|8,1:2|0:0,0:0:0:0:
36,187,32025,2,0,L|54:286,1,90,8|2,0:0|1:3,0:0:0:0:
136,306,32692,1,0,1:0:0:0:
201,244,33025,1,2,1:2:0:0:
288,261,33358,6,0,B|333:273|333:273|358:313,1,90,6|0,1:1|1:0,0:0:0:0:
380,347,33858,2,0,B|433:313|433:313|452:244,1,135,6|6,1:1|1:1,0:0:0:0:
421,68,35025,1,10,0:0:0:0:
339,104,35358,2,0,L|243:85,1,90,6|12,1:2|0:0,0:0:0:0:
180,30,36025,6,0,P|111:45|93:101,1,135,6|2,1:2|0:0,0:0:0:0:
42,225,37025,1,10,0:0:0:0:
60,313,37358,2,0,P|103:301|151:290,1,90,2|8,1:2|0:0,0:0:0:0:
237,290,38025,2,0,P|225:246|214:198,1,90,2|8,0:0|0:0,0:0:0:0:
195,114,38692,5,2,1:2:0:0:
353,29,39358,2,0,P|429:39|462:136,1,180,2|0,0:0|1:2,0:0:0:0:
434,211,40358,1,10,0:0:0:0:
353,171,40692,2,0,P|349:148|344:126,2,45,2|2|10,0:0|1:2|0:0,0:0:0:0:
285,229,41358,6,0,P|218:215|151:204,2,135,2|2|10,1:2|0:0|0:2,0:0:0:0:
360,277,42692,2,0,P|337:323|295:333,1,90,2|10,1:2|0:2,0:0:0:0:
220,300,43358,1,2,0:2:0:0:
140,342,43692,1,10,3:2:0:0:
64,291,44025,6,0,P|53:223|39:157,1,135,2|2,1:2|0:2,0:0:0:0:
117,47,45025,1,8,0:0:0:0:
205,33,45358,2,0,P|250:50|264:100,1,90,2|8,1:2|0:2,3:3:0:0:
230,168,46025,2,0,P|218:222|210:256,1,90,2|8,0:0|0:0,0:0:0:0:
148,321,46692,6,0,P|93:300|92:227,2,135,6|2|10,1:2|0:0|0:0,0:0:0:0:
235,343,48025,1,2,1:2:0:0:
313,297,48358,1,8,0:2:0:0:
399,319,48692,2,0,P|425:324|443:328,2,45,2|2|10,0:0|1:2|0:0,0:0:0:0:
421,232,49358,6,0,P|477:218|474:148,1,135,6|2,1:2|0:0,0:0:0:0:
405,38,50358,1,10,0:2:0:0:
324,77,50692,2,0,P|276:63|232:51,1,90,2|10,1:2|0:2,0:0:0:0:
200,135,51358,2,0,P|206:158|212:180,2,45,2|2|10,0:0|1:2|0:2,0:0:0:0:
118,96,52025,5,6,1:2:0:0:
58,163,52358,1,10,0:2:0:0:
90,246,52692,2,0,P|137:252|181:261,1,90,2|10,0:2|0:2,0:0:0:0:
261,294,53358,5,6,1:2:0:0:
340,251,53691,1,10,0:0:0:0:
291,175,54025,2,0,P|284:127|275:83,1,90,2|10,0:0|0:0,0:0:0:0:
333,17,54692,6,0,P|381:27|406:65,1,90,6|10,1:2|0:0,0:0:0:0:
466,122,55358,2,0,P|481:168|460:209,1,90,10|10,0:0|0:2,0:0:0:0:
457,294,56025,5,14,0:0:0:0:
367,281,56358,1,10,0:0:0:0:
276,279,56692,1,2,1:2:0:0:
186,288,57025,1,10,0:0:0:0:
104,325,57358,6,0,B|71:313|71:313|56:213,1,135,6|6,1:2|1:2,0:0:0:0:
184,172,58358,2,0,B|217:160|217:160|232:60,1,135,6|6,1:2|1:2,0:0:0:0:
108,5,59358,1,6,1:2:0:0:
37,60,59691,1,6,1:2:0:0:
58,238,60358,6,0,P|108:245|152:254,1,90,2|2,0:0|1:2,0:0:0:0:
225,295,61024,2,0,P|216:339|210:383,2,90,2|2|6,0:0|0:0|1:2,0:0:0:0:
304,252,62024,6,0,B|329:237|329:237|444:265,1,135,6|6,1:2|1:2,0:0:0:0:
456,129,63024,2,0,B|431:114|431:114|316:142,1,135,6|6,1:2|1:2,0:0:0:0:
197,103,64024,1,6,1:2:0:0:
202,13,64357,1,6,1:2:0:0:
328,139,65024,6,0,P|319:192|310:240,1,90,2|2,0:0|1:2,0:0:0:0:
331,315,65691,1,6,1:2:0:0:
417,340,66024,1,6,1:2:0:0:
489,286,66357,1,6,1:2:0:0:
485,195,66691,6,0,B|474:132|474:132|476:129|476:129|464:62,1,135,6|6,1:2|1:2,0:0:0:0:
339,11,67691,1,6,1:2:0:0:
228,88,68191,1,6,1:2:0:0:
121,171,68691,1,6,1:2:0:0:
195,222,69024,6,0,P|188:273|183:319,1,90,4|8,1:2|0:0,0:0:0:0:
98,339,69691,2,0,P|101:364|104:387,2,45,2|10|6,0:2|0:0|0:0,0:0:0:0:
24,287,70357,2,0,P|31:236|36:190,1,90,10|10,0:0|0:0,0:0:0:0:
121,171,71024,1,2,0:0:0:0:
94,84,71357,6,0,B|110:64|110:64|174:46,1,90,14|8,0:2|0:0,0:0:0:0:
234,111,72024,2,0,B|250:131|250:131|314:149,1,90,8|14,0:0|0:0,0:0:0:0:
388,101,72691,1,8,0:0:0:0:
472,130,73024,1,8,0:0:0:0:
499,215,73357,1,12,0:0:0:0:
445,287,73691,6,0,L|352:306,1,90,12|8,0:2|0:2,0:0:0:0:
269,324,74357,1,10,0:2:0:0:
252,235,74691,1,10,0:2:0:0:
234,146,75024,6,0,B|205:139|205:139|203:135|203:135|171:127,1,67.5,12|14,0:0|0:0,0:0:0:0:
105,109,75524,2,0,B|91:169|91:169|82:174|82:174|65:243,1,135,12|6,0:0|1:2,0:0:0:0:
371,358,86691,6,0,P|438:346|468:245,2,180,2|2|2,0:0|0:0|0:0,0:0:0:0:
233,241,88691,1,2,0:0:0:0:
85,345,89358,2,0,P|62:204|31:76,1,270,2|2,0:2|0:0,0:0:0:0:
93,13,90691,6,0,P|160:24|190:125,2,180,2|2|2,0:0|0:0|0:2,0:0:0:0:
50,370,93358,2,0,B|26:304|130:242|183:275|176:280|167:284|228:312|319:252|283:180,1,360,2|2,0:0|0:0,0:0:0:0:
464,366,96691,6,0,L|512:373,2,45,2|2|2,0:0|0:0|0:0,0:0:0:0:
412,291,97358,6,0,B|390:270|390:270|282:306,2,135,4|6|6,1:2|1:2|1:2,0:0:0:0:
486,178,98858,2,2,L|470:80,1,90,8|8,1:2|1:2,0:0:0:0:
464,44,99358,2,0,L|366:60,1,90,10|8,0:0|0:2,0:0:0:0:
290,27,100024,6,0,P|246:39|225:85,1,90,4|8,1:2|0:2,0:0:0:0:
280,148,100691,2,0,P|323:160|344:206,1,90,2|8,0:0|0:2,0:0:0:0:
333,287,101358,1,2,1:2:0:0:
243,275,101691,1,10,0:0:0:0:
155,297,102024,1,2,0:0:0:0:
79,346,102358,1,10,0:0:0:0:
10,287,102691,6,0,P|18:240|23:198,1,90,6|10,1:2|0:2,0:3:0:0:
24,152,103191,2,0,P|94:164|157:171,1,135,2|8,0:0|0:2,0:0:0:0:
224,110,104024,1,6,1:2:0:0:
310,134,104358,1,10,0:0:0:0:
381,79,104691,2,0,P|425:73|469:65,1,90,2|10,0:0|0:0,0:0:0:0:
503,148,105358,6,0,P|494:198|489:238,1,90,4|8,1:2|0:0,0:0:0:0:
479,280,105858,2,0,P|398:262|392:212,1,135,2|8,0:0|0:0,0:0:0:0:
317,167,106691,1,6,1:2:0:0:
228,183,107024,1,10,0:0:0:0:
175,256,107358,2,0,P|183:306|188:346,1,90,2|10,0:0|0:0,0:0:0:0:
276,332,108024,6,0,B|345:318|345:318|397:359,1,135,14|14,0:0|0:0,0:0:0:0:
464,191,109191,2,0,P|473:126|479:94,1,90,6|10,1:2|0:0,0:0:0:0:
480,57,109691,2,0,P|422:22|362:102,1,180,2|14,0:0|1:2,0:0:0:0:
275,125,110691,6,0,B|261:194|261:194|302:246,1,135,14|14,0:0|0:0,0:0:0:0:
175,372,111858,2,0,P|126:352|86:344,1,90,6|2,1:2|0:0,0:3:0:0:
45,352,112358,2,0,P|22:308|112:242,1,180,10|10,0:0|0:0,0:0:0:0:
192,209,113358,5,6,1:2:0:0:
255,272,113691,1,10,0:0:0:0:
322,330,114024,2,0,P|371:319|414:311,1,90,10|10,0:0|0:0,0:0:0:0:
486,264,114691,6,0,P|503:222|485:181,1,90,14|8,0:0|0:0,0:0:0:0:
456,97,115358,1,10,1:2:0:0:
377,140,115691,1,10,1:2:0:0:
293,106,116024,6,0,B|285:57|285:57|281:56|281:56|274:18,2,90,14|10|14,0:0|0:0|0:0,0:0:0:0:
203,99,117024,1,10,0:0:0:0:
256,192,117191,12,10,118608,0:0:0:0:
