osu file format v14

[General]
AudioFilename: audio.mp3
AudioLeadIn: 0
PreviewTime: 43623
Countdown: 0
SampleSet: Soft
StackLeniency: 0.5
Mode: 0
LetterboxInBreaks: 0
WidescreenStoryboard: 0

[Editor]
DistanceSpacing: 0.8
BeatDivisor: 4
GridSize: 4
TimelineZoom: 1

[Metadata]
Title:PERFECT GIRL (Short Ver.)
TitleUnicode:PERFECT GIRL (Short Ver.)
Artist:Mitsukasa Ayase (CV: Sawasawa Sawa)
ArtistUnicode:三司あやせ(CV:沢澤砂羽)
Creator:No Dap
Version:Insane
Source:RIDDLE JOKER
Tags:yuzusoft ゆずソフト リドルジョーカー japanese vn visual novel character song Atsumi Tanezaki 種﨑 敦美 frobe scanter anais midorijeon kowari pop j-pop jpop eroge
BeatmapID:3233849
BeatmapSetID:1583401

[Difficulty]
HPDrainRate:6
CircleSize:4
OverallDifficulty:7
ApproachRate:7.7
SliderMultiplier:1.9
SliderTickRate:1

[Events]
//Background and Video events
0,0,"bg1.jpg",0,0
//Break Periods
//Storyboard Layer 0 (Background)
//Storyboard Layer 1 (Fail)
//Storyboard Layer 2 (Pass)
//Storyboard Layer 3 (Foreground)
//Storyboard Layer 4 (Overlay)
//Storyboard Sound Samples

[TimingPoints]
499,441.176470588235,4,2,1,60,1,0
1601,-100,4,2,1,70,0,0
1822,-66.6666666666667,4,2,5,70,0,0
2263,-100,4,2,1,75,0,0
2704,-55.5555555555556,4,2,8,75,0,0
2815,-55.5555555555556,4,2,1,75,0,0
2925,-100,4,2,1,75,0,0
3807,-100,4,2,2,75,0,0
3918,-100,4,2,1,75,0,0
4248,-100,4,2,2,75,0,0
4359,-100,4,2,1,75,0,0
4690,-100,4,2,2,75,0,0
4801,-100,4,2,1,75,0,0
5572,-100,4,2,4,75,0,0
5793,-100,4,2,1,75,0,0
6234,-55.5555555555556,4,2,8,75,0,0
6344,-55.5555555555556,4,2,1,75,0,0
6675,-100,4,2,1,75,0,0
7337,-100,4,2,2,75,0,0
7448,-100,4,2,1,75,0,0
7778,-100,4,2,2,75,0,0
7889,-100,4,2,1,75,0,0
8219,-100,4,2,2,75,0,0
8330,-100,4,2,1,75,0,0
8440,-66.6666666666667,4,2,1,75,0,0
8660,-60.6060606060606,4,2,2,75,0,0
8881,-55.5555555555556,4,2,1,75,0,0
9101,-100,4,2,3,75,0,0
9322,-100,4,2,2,75,0,0
9543,-100,4,2,1,75,0,0
9763,-55.5555555555556,4,2,8,75,0,0
9873,-55.5555555555556,4,2,1,75,0,0
10204,-100,4,2,1,75,0,0
10866,-100,4,2,2,75,0,0
10977,-100,4,2,1,75,0,0
11307,-100,4,2,2,75,0,0
11418,-100,4,2,1,75,0,0
11748,-100,4,2,2,75,0,0
11859,-100,4,2,1,75,0,0
12631,-100,4,2,1,75,0,0
14175,-100,4,2,2,75,0,0
14396,-133.333333333333,4,2,2,70,0,0
14837,-133.333333333333,4,2,1,40,0,0
16160,-133.333333333333,4,2,3,40,0,0
16271,-133.333333333333,4,2,1,40,0,0
16381,-100,4,2,1,70,0,0
28513,-100,4,2,5,70,0,0
29616,-100,4,2,1,70,0,0
29837,-100,4,2,2,70,0,0
30498,-100,4,2,1,70,0,0
30940,-55.5555555555556,4,2,1,70,0,0
31381,-100,4,2,1,70,0,0
37337,-66.6666666666667,4,2,1,70,0,0
37778,-66.6666666666667,4,2,2,70,0,0
37998,-66.6666666666667,4,2,1,70,0,0
38440,-200,4,2,1,70,0,0
39101,-100,4,2,1,70,0,0
39212,-66.6666666666667,4,2,1,70,0,0
39543,-66.6666666666667,4,2,2,70,0,0
39763,-100,4,2,1,70,0,0
40866,-66.6666666666667,4,2,2,70,0,0
41307,-100,4,2,2,70,0,0
43072,-100,4,2,5,70,0,0
43734,-100,4,2,1,70,0,0
44175,-43.4782608695652,4,2,5,70,0,0
44616,-90.9090909090909,4,2,1,80,0,1
45057,-55.5555555555556,4,2,1,80,0,1
45498,-90.9090909090909,4,2,1,80,0,1
45719,-90.9090909090909,4,2,2,80,0,1
45829,-90.9090909090909,4,2,1,80,0,1
46160,-90.9090909090909,4,2,2,80,0,1
46270,-90.9090909090909,4,2,1,80,0,1
48587,-55.5555555555556,4,2,1,80,0,1
49028,-90.9090909090909,4,2,1,80,0,1
49248,-90.9090909090909,4,2,2,80,0,1
49358,-90.9090909090909,4,2,1,80,0,1
49690,-90.9090909090909,4,2,2,80,0,1
49800,-90.9090909090909,4,2,1,80,0,1
50131,-90.9090909090909,4,2,2,80,0,1
50241,-90.9090909090909,4,2,1,80,0,1
50572,-90.9090909090909,4,2,2,80,0,1
50682,-90.9090909090909,4,2,1,80,0,1
51013,-90.9090909090909,4,2,3,80,0,1
51234,-90.9090909090909,4,2,1,80,0,1
51454,-90.9090909090909,4,2,3,80,0,1
51675,-90.9090909090909,4,2,2,80,0,1
51896,-90.9090909090909,4,2,2,80,0,1
52006,-90.9090909090909,4,2,1,80,0,1
52116,-55.5555555555556,4,2,1,80,0,1
52337,-55.5555555555556,4,2,2,80,0,1
52447,-55.5555555555556,4,2,1,80,0,1
52557,-90.9090909090909,4,2,1,80,0,1
52778,-90.9090909090909,4,2,5,80,0,1
53219,-125,4,2,2,80,0,1
53329,-125,4,2,1,80,0,1
53660,-125,4,2,2,80,0,1
53770,-125,4,2,1,80,0,1
54101,-125,4,2,2,80,0,1
54211,-125,4,2,1,80,0,1
54543,-125,4,2,5,80,0,1
54984,-125,4,2,1,80,0,1
55204,-90.9090909090909,4,2,1,80,0,1
55425,-90.9090909090909,4,2,2,80,0,1
55866,-90.9090909090909,4,2,1,80,0,1
56307,-90.9090909090909,4,2,2,80,0,1
56748,-90.9090909090909,4,2,1,80,0,1
57631,-90.9090909090909,4,2,2,80,0,1
58734,-90.9090909090909,4,2,1,80,0,1
59175,-55.5555555555556,4,2,1,80,0,1
59616,-90.9090909090909,4,2,1,80,0,1
59837,-90.9090909090909,4,2,2,80,0,1
59947,-90.9090909090909,4,2,1,80,0,1
60278,-90.9090909090909,4,2,2,80,0,1
60388,-90.9090909090909,4,2,1,80,0,1
63366,-90.9090909090909,4,2,2,80,0,1
63476,-90.9090909090909,4,2,1,80,0,1
63807,-90.9090909090909,4,2,2,80,0,1
63917,-90.9090909090909,4,2,1,80,0,1
64248,-90.9090909090909,4,2,2,80,0,1
64358,-90.9090909090909,4,2,1,80,0,1
64690,-90.9090909090909,4,2,2,80,0,1
64800,-90.9090909090909,4,2,1,80,0,1
65131,-90.9090909090909,4,2,4,80,0,1
65351,-90.9090909090909,4,2,1,80,0,1
65572,-90.9090909090909,4,2,3,80,0,1
65793,-90.9090909090909,4,2,1,80,0,1
66013,-90.9090909090909,4,2,2,80,0,1
66123,-90.9090909090909,4,2,1,80,0,1
66234,-55.5555555555556,4,2,1,80,0,1
66454,-55.5555555555556,4,2,2,80,0,1
66564,-55.5555555555556,4,2,1,80,0,1
66675,-90.9090909090909,4,2,1,80,0,1
66896,-90.9090909090909,4,2,5,80,0,1
67337,-125,4,2,2,80,0,1
67447,-125,4,2,1,80,0,1
67778,-125,4,2,2,80,0,1
67888,-125,4,2,1,80,0,1
68219,-125,4,2,2,80,0,1
68329,-125,4,2,1,80,0,1
68660,-90.9090909090909,4,2,5,80,0,1
69101,-90.9090909090909,4,2,4,80,0,1
69322,-90.9090909090909,4,2,1,80,0,1
69543,-90.9090909090909,4,2,4,80,0,1
69763,-90.9090909090909,4,2,2,80,0,1
69984,-90.9090909090909,4,2,4,80,0,1
70204,-90.9090909090909,4,2,1,80,0,1
70425,-90.9090909090909,4,2,4,80,0,1
70646,-90.9090909090909,4,2,2,80,0,1
70866,-90.9090909090909,4,2,4,80,0,1
71087,-166.666666666667,4,2,1,80,0,0
71969,-166.666666666667,4,2,2,80,0,0
72851,-100,4,2,1,75,0,0
73293,-55.5555555555556,4,2,8,75,0,0
73403,-55.5555555555556,4,2,1,75,0,0
73734,-100,4,2,1,75,0,0
74396,-100,4,2,2,75,0,0
74506,-100,4,2,1,75,0,0
74837,-100,4,2,2,75,0,0
74947,-100,4,2,1,75,0,0
75278,-100,4,2,2,75,0,0
75388,-100,4,2,1,75,0,0
76160,-100,4,2,4,75,0,0
76381,-100,4,2,1,75,0,0
76822,-55.5555555555556,4,2,8,75,0,0
76932,-55.5555555555556,4,2,1,75,0,0
77263,-100,4,2,1,75,0,0
77925,-100,4,2,2,75,0,0
78035,-100,4,2,1,75,0,0
78366,-100,4,2,2,75,0,0
78476,-100,4,2,1,75,0,0
78807,-100,4,2,2,75,0,0
78917,-100,4,2,1,75,0,0
79028,-66.6666666666667,4,2,1,75,0,0
79248,-60.6060606060606,4,2,2,75,0,0
79469,-55.5555555555556,4,2,1,75,0,0
79690,-100,4,2,4,75,0,0
79910,-100,4,2,2,75,0,0
80131,-100,4,2,1,75,0,0
80351,-55.5555555555556,4,2,8,75,0,0
80461,-55.5555555555556,4,2,1,75,0,0
80793,-100,4,2,1,75,0,0
81454,-100,4,2,2,75,0,0
81564,-100,4,2,1,75,0,0
81896,-100,4,2,2,75,0,0
82006,-100,4,2,1,75,0,0
82337,-100,4,2,2,75,0,0
82447,-100,4,2,1,75,0,0
83440,-100,4,2,1,75,0,0
84763,-100,4,2,2,75,0,0
84984,-100,4,2,2,70,0,0
85425,-100,4,2,1,70,0,0
86748,-100,4,2,2,70,0,0
86969,-100,4,2,1,70,0,0
87079,-100,4,2,1,70,0,0
87851,-100,4,2,1,60,0,0
88734,-100,4,2,1,50,0,0
89616,-100,4,2,1,40,0,0
90498,-100,4,2,1,35,0,0
91381,-100,4,2,1,25,0,0
92263,-100,4,2,1,20,0,0
93146,-100,4,2,1,10,0,0
94028,-100,4,2,1,5,0,0

[Colours]
Combo1 : 149,255,149
Combo2 : 255,128,255
Combo3 : 255,128,64
Combo4 : 255,255,0

[HitObjects]
332,160,1602,5,8,0:1:0:0:
332,160,1712,1,8,0:1:0:0:
332,160,1822,2,0,B|377:122|433:145|433:145|415:206|353:218,1,213.750008153916,14|0,0:0|0:0,0:0:0:0:
289,229,2263,6,0,P|241:231|190:169,1,95,14|2,0:1|0:3,0:0:0:0:
95,76,2704,2,0,P|30:76|84:110,1,170.999994781494,10|2,0:2|0:3,0:0:0:0:
92,327,3146,2,0,L|106:218,1,95,10|2,0:1|0:3,0:0:0:0:
105,233,3476,1,2,0:0:0:0:
105,233,3587,1,8,0:2:0:0:
261,310,3807,1,2,0:3:0:0:
211,214,4028,5,8,0:1:0:0:
165,331,4248,1,2,0:3:0:0:
365,285,4469,1,10,0:2:0:0:
365,285,4579,1,2,0:0:0:0:
365,285,4690,1,2,0:3:0:0:
250,147,4910,2,0,L|264:262,1,95,10|2,0:1|0:3,0:0:0:0:
265,276,5241,1,2,0:0:0:0:
265,276,5351,1,8,0:2:0:0:
340,189,5572,1,10,0:1:0:0:
210,78,5793,6,0,P|177:111|169:157,1,95,10|2,0:1|0:3,0:0:0:0:
190,311,6234,2,0,P|137:347|161:288,1,170.999994781494,10|2,0:2|0:3,0:0:0:0:
321,189,6675,2,0,L|222:204,1,95,10|2,0:1|0:3,0:0:0:0:
227,204,7006,1,2,0:0:0:0:
227,204,7116,1,8,0:2:0:0:
307,99,7337,1,2,0:3:0:0:
373,266,7557,5,8,0:1:0:0:
402,137,7778,1,2,0:3:0:0:
268,294,7998,1,10,0:2:0:0:
268,294,8109,1,2,0:0:0:0:
268,294,8219,1,2,0:3:0:0:
99,224,8440,6,0,P|111:184|118:136,1,71.2500027179719,14|0,0:1|0:0,0:0:0:0:
180,53,8660,6,0,P|184:88|201:134,1,78.3750007474423,14|0,0:1|0:0,0:0:0:0:
351,185,8881,6,0,P|314:181|267:163,1,85.4999973907472,14|0,0:1|0:0,0:0:0:0:
211,261,9101,5,10,0:1:0:0:
211,261,9212,1,0,0:0:0:0:
211,261,9322,2,0,P|194:320|197:372,1,95,14|2,0:1|0:3,0:0:0:0:
400,282,9763,2,0,P|363:229|365:293,1,170.999994781494,10|2,0:2|0:3,0:0:0:0:
293,127,10204,1,10,0:1:0:0:
384,60,10425,1,2,0:3:0:0:
384,60,10535,1,2,0:0:0:0:
384,60,10646,1,8,0:2:0:0:
347,216,10866,1,2,0:3:0:0:
210,189,11087,5,8,0:1:0:0:
297,285,11307,1,2,0:3:0:0:
318,120,11528,1,10,0:2:0:0:
318,120,11638,1,2,0:0:0:0:
318,120,11748,1,2,0:3:0:0:
185,213,11969,2,0,P|133:209|90:177,1,95,10|2,0:1|0:3,0:0:0:0:
81,156,12300,1,2,0:0:0:0:
81,156,12410,1,8,0:2:0:0:
186,26,12631,6,0,P|283:72|277:151,1,190,6|2,0:2|0:3,0:0:0:0:
299,310,13293,1,8,0:2:0:0:
212,220,13513,1,2,0:3:0:0:
212,220,13623,1,0,0:0:0:0:
212,220,13734,1,10,0:1:0:0:
344,194,13954,1,2,0:3:0:0:
148,325,14175,1,8,0:2:0:0:
148,325,14285,1,8,0:0:0:0:
148,325,14396,6,0,P|95:275|113:182,1,142.500005435944,14|6,0:1|0:3,0:0:0:0:
155,128,15057,1,8,0:3:0:0:
212,220,15278,2,0,L|217:266,2,35.625001358986,6|4|4,0:3|0:3|0:3,0:0:0:0:
304,163,15719,1,6,0:3:0:0:
247,71,15940,1,8,0:3:0:0:
212,220,16160,1,10,0:1:0:0:
212,220,16271,1,8,0:1:0:0:
212,220,16381,5,14,0:1:0:0:
200,349,16601,1,2,0:0:0:0:
329,298,16822,1,10,0:2:0:0:
293,184,17043,1,2,0:0:0:0:
329,298,17263,2,0,P|376:300|423:292,1,95,10|2,0:1|0:0,0:0:0:0:
229,339,17704,1,10,0:2:0:0:
293,184,17925,6,0,P|202:172|139:239,1,190,2|2,0:0|0:0,0:0:0:0:
293,184,18587,1,10,0:2:0:0:
214,82,18807,2,0,P|166:100|98:104,1,95,2|8,0:0|0:1,0:0:0:0:
223,269,19248,1,2,0:0:0:0:
223,269,19359,1,2,0:0:0:0:
223,269,19469,2,0,P|267:251|314:245,1,95,10|2,0:2|0:0,0:0:0:0:
136,335,19910,6,0,P|118:291|111:244,1,95,10|0,0:1|0:0,0:0:0:0:
202,182,20351,1,10,0:2:0:0:
202,182,20462,1,2,0:0:0:0:
202,182,20572,1,2,0:0:0:0:
132,46,20793,2,0,L|113:173,1,95,10|0,0:1|0:0,0:0:0:0:
117,139,21123,1,2,0:0:0:0:
117,139,21234,1,10,0:2:0:0:
297,240,21454,2,0,L|282:146,1,95,2|8,0:0|0:1,0:0:0:0:
142,308,21896,5,2,0:0:0:0:
163,335,22006,1,2,0:0:0:0:
194,353,22116,1,10,0:2:0:0:
229,357,22226,1,2,0:0:0:0:
263,348,22337,1,0,0:0:0:0:
419,281,22557,1,10,0:1:0:0:
397,253,22667,1,2,0:0:0:0:
366,235,22777,1,2,0:0:0:0:
331,231,22887,1,2,0:0:0:0:
297,240,22998,1,8,0:2:0:0:
377,123,23219,1,8,0:1:0:0:
251,40,23440,6,0,P|238:85|238:133,1,95,8|2,0:1|0:0,0:0:0:0:
364,216,23881,2,0,P|376:170|376:122,1,95,10|2,0:2|0:0,0:0:0:0:
294,266,24322,1,10,0:1:0:0:
456,210,24543,1,2,0:0:0:0:
456,210,24653,1,2,0:0:0:0:
456,210,24763,1,10,0:2:0:0:
390,323,24984,1,2,0:0:0:0:
294,266,25204,6,0,P|244:277|194:262,1,95,8|2,0:1|0:0,0:0:0:0:
106,313,25646,1,10,0:2:0:0:
106,313,25756,1,2,0:0:0:0:
106,313,25866,1,2,0:0:0:0:
153,194,26087,2,0,P|146:147|130:102,1,95,8|2,0:1|0:0,0:0:0:0:
113,78,26418,1,2,0:0:0:0:
113,78,26528,1,10,0:2:0:0:
277,177,26748,1,2,0:0:0:0:
248,21,26969,6,0,P|231:65|225:112,1,95,10|0,0:1|0:0,0:0:0:0:
319,249,27410,1,10,0:2:0:0:
366,110,27631,1,2,0:0:0:0:
214,207,27851,1,10,0:1:0:0:
418,283,28072,1,0,0:0:0:0:
418,283,28182,1,2,0:0:0:0:
418,283,28293,1,8,0:2:0:0:
156,336,28513,5,14,0:1:0:0:
315,315,28954,5,14,0:1:0:0:
131,316,29396,5,14,0:1:0:0:
340,295,29837,5,14,0:1:0:0:
213,132,30057,1,10,0:1:0:0:
215,155,30167,1,8,0:1:0:0:
218,179,30277,1,8,0:1:0:0:
221,202,30387,1,8,0:1:0:0:
224,226,30498,6,0,P|275:226|348:196,1,95,14|0,0:1|0:0,0:0:0:0:
87,218,30940,6,0,P|22:218|76:252,1,170.999994781494,8|0,0:2|0:0,0:0:0:0:
199,353,31381,5,10,0:1:0:0:
164,212,31601,1,2,0:0:0:0:
199,353,31822,1,10,0:2:0:0:
344,250,32043,1,2,0:0:0:0:
344,250,32153,1,2,0:0:0:0:
344,250,32263,5,8,0:1:0:0:
301,350,32484,1,2,0:0:0:0:
432,236,32704,1,10,0:2:0:0:
494,342,32925,1,2,0:0:0:0:
344,250,33146,2,0,P|347:203|372:163,1,95,10|0,0:1|0:0,0:0:0:0:
401,140,33476,1,2,0:0:0:0:
401,140,33587,1,8,0:2:0:0:
422,299,33807,1,2,0:0:0:0:
263,207,34028,6,0,P|216:212|173:233,1,95,10|0,0:1|0:0,0:0:0:0:
239,300,34469,1,10,0:2:0:0:
294,134,34690,1,0,0:0:0:0:
294,134,34800,1,2,0:0:0:0:
294,134,34910,1,10,0:1:0:0:
350,250,35131,1,2,0:0:0:0:
397,87,35351,1,10,0:2:0:0:
223,188,35572,1,2,0:0:0:0:
223,188,35682,1,2,0:0:0:0:
223,188,35793,5,8,0:1:0:0:
334,148,36013,1,2,0:0:0:0:
299,298,36234,1,10,0:2:0:0:
136,239,36454,2,0,P|126:189|131:145,1,95,2|8,0:0|0:1,0:0:0:0:
232,77,36896,1,0,0:0:0:0:
255,73,37006,1,0,0:0:0:0:
278,69,37116,1,8,0:2:0:0:
302,65,37226,1,0,0:0:0:0:
325,62,37337,6,0,B|363:166|247:137|306:282,1,213.750008153916,14|0,0:1|0:0,0:0:0:0:
321,332,37778,1,14,0:1:0:0:
443,94,37998,1,14,0:1:0:0:
425,186,38219,5,2,0:0:0:0:
425,186,38329,1,2,0:0:0:0:
425,186,38440,2,0,L|447:235,2,47.5,2|2|2,0:0|0:0|0:0,0:0:0:0:
271,164,39101,5,0,0:0:0:0:
271,164,39212,2,0,L|107:141,1,142.500005435944,12|0,0:1|0:0,0:0:0:0:
60,133,39542,1,12,0:1:0:0:
222,339,39763,1,12,0:1:0:0:
298,274,39984,5,2,0:0:0:0:
298,274,40094,1,2,0:0:0:0:
298,274,40204,1,2,0:0:0:0:
233,198,40425,1,2,0:0:0:0:
157,263,40646,1,2,0:0:0:0:
351,350,40866,6,0,B|374:307|427:267|427:267|412:215|362:194,1,213.750008153916,14|0,0:1|0:0,0:0:0:0:
306,145,41307,1,8,0:1:0:0:
351,350,41528,1,8,0:1:0:0:
174,244,41748,1,10,0:1:0:0:
174,244,41859,1,8,0:1:0:0:
174,244,41969,5,14,0:1:0:0:
445,160,42190,1,14,0:1:0:0:
351,350,42410,1,14,0:1:0:0:
263,111,42631,1,14,0:1:0:0:
284,89,43072,5,14,0:1:0:0:
205,313,43293,1,14,0:1:0:0:
183,344,43734,6,0,P|173:264|153:180,1,142.5,2|0,0:2|0:0,0:0:0:0:
245,205,44175,2,0,B|256:176|279:166|328:168|342:214|339:238|324:264|310:286|285:302|261:325|261:325|311:307|377:322,1,327.750006251335,10|0,0:2|0:0,0:0:0:0:
416,356,44616,6,0,P|424:299|431:246,1,104.500003189087,14|2,0:1|0:3,0:0:0:0:
434,100,45057,2,0,P|410:33|360:84,1,170.999994781494,10|2,0:2|0:3,0:0:0:0:
377,160,45388,1,2,0:0:0:0:
377,160,45498,2,0,L|259:132,1,104.500003189087,10|2,0:1|0:3,0:0:0:0:
192,55,45940,1,8,0:2:0:0:
239,218,46160,1,2,0:3:0:0:
239,218,46271,1,2,0:0:0:0:
239,218,46381,5,8,0:1:0:0:
71,140,46601,2,0,P|63:209|95:260,1,104.500003189087,2|10,0:3|0:2,0:0:0:0:
106,266,46932,2,0,L|96:334,1,52.2500015945435,0|2,0:0|0:3,0:0:0:0:
215,138,47263,2,0,P|200:87|193:36,1,104.500003189087,10|2,0:1|0:3,0:0:0:0:
315,80,47704,1,10,0:2:0:0:
282,276,47925,1,2,0:3:0:0:
282,276,48035,1,2,0:0:0:0:
282,276,48146,6,0,P|301:227|313:176,1,104.500003189087,10|2,0:1|0:3,0:0:0:0:
146,149,48587,2,0,P|169:216|219:165,1,170.999994781494,10|2,0:2|0:3,0:0:0:0:
207,89,48918,1,2,0:0:0:0:
207,89,49028,2,0,L|344:108,1,104.500003189087,10|2,0:1|0:3,0:0:0:0:
378,48,49469,1,10,0:2:0:0:
279,206,49690,1,2,0:3:0:0:
279,206,49800,1,2,0:0:0:0:
279,206,49910,5,8,0:1:0:0:
354,315,50131,1,2,0:3:0:0:
321,337,50241,1,0,0:0:0:0:
284,345,50351,1,10,0:2:0:0:
245,340,50462,1,0,0:0:0:0:
211,321,50572,1,2,0:3:0:0:
193,205,50793,2,0,P|201:153|216:103,1,104.500003189087,10|10,0:1|0:1,0:0:0:0:
108,307,51234,2,0,P|89:258|77:207,1,104.500003189087,10|10,0:2|0:1,0:0:0:0:
50,136,51565,1,2,0:0:0:0:
50,136,51675,6,0,P|102:131|159:120,1,104.500003189087,14|2,0:1|0:3,0:0:0:0:
195,187,52006,1,2,0:0:0:0:
195,187,52116,2,0,P|215:254|267:205,1,170.999994781494,10|2,0:2|0:3,0:0:0:0:
252,131,52447,1,2,0:0:0:0:
252,131,52557,1,10,0:1:0:0:
195,291,52778,5,10,0:3:0:0:
415,183,52998,1,10,0:2:0:0:
326,46,53219,6,0,P|318:87|311:137,1,76,2|8,0:3|0:1,0:0:0:0:
298,260,53660,1,2,0:3:0:0:
298,260,53771,1,2,0:0:0:0:
298,260,53881,2,0,P|255:252|208:237,1,76,10|2,0:2|0:3,0:0:0:0:
188,229,54212,1,2,0:0:0:0:
188,229,54322,1,10,0:1:0:0:
333,335,54543,5,10,0:3:0:0:
271,102,54763,1,10,0:2:0:0:
328,204,54984,5,2,0:3:0:0:
328,204,55094,1,2,0:0:0:0:
328,204,55204,1,14,0:1:0:0:
86,131,55425,2,0,L|69:13,1,104.500003189087,14|0,0:1|0:0,0:0:0:0:
244,255,55866,2,0,L|229:358,1,104.500003189087,14|0,0:1|0:0,0:0:0:0:
127,304,56307,1,14,0:1:0:0:
328,204,56528,1,0,0:0:0:0:
199,73,56748,6,0,P|97:121|129:231,1,209.000006378174,14|8,0:1|0:1,0:0:0:0:
232,321,57410,1,8,0:1:0:0:
193,218,57631,1,12,0:1:0:0:
334,341,57851,1,10,0:1:0:0:
434,240,58072,1,8,0:1:0:0:
386,107,58293,1,10,0:1:0:0:
318,204,58513,1,8,0:1:0:0:
318,204,58623,1,8,0:1:0:0:
318,204,58734,6,0,L|197:191,1,104.500003189087,14|2,0:1|0:3,0:0:0:0:
64,98,59175,2,0,P|112:45|136:112,1,170.999994781494,10|2,0:2|0:3,0:0:0:0:
90,177,59506,1,2,0:0:0:0:
90,177,59616,1,10,0:1:0:0:
231,116,59837,2,0,P|244:65|248:13,1,104.500003189087,2|8,0:3|0:2,0:0:0:0:
180,200,60278,1,2,0:3:0:0:
339,120,60498,5,8,0:1:0:0:
290,331,60719,2,0,L|269:205,1,104.500003189087,2|10,0:3|0:2,0:0:0:0:
253,189,61050,2,0,L|318:187,1,52.2500015945435,0|2,0:0|0:3,0:0:0:0:
139,82,61381,2,0,L|118:208,1,104.500003189087,10|2,0:1|0:3,0:0:0:0:
125,231,61712,2,0,L|73:217,1,52.2500015945435,0|10,0:0|0:2,0:0:0:0:
224,135,62043,1,2,0:3:0:0:
163,310,62263,6,0,P|221:334|290:314,1,104.500003189087,10|2,0:1|0:3,0:0:0:0:
359,230,62704,1,10,0:2:0:0:
275,103,62925,1,2,0:3:0:0:
275,103,63035,1,2,0:0:0:0:
275,103,63146,2,0,L|260:225,1,104.500003189087,10|2,0:1|0:3,0:0:0:0:
347,55,63587,1,10,0:2:0:0:
136,221,63807,6,0,P|80:164|126:46,1,209.000006378174,2|2,0:3|0:3,0:0:0:0:
325,121,64469,1,10,0:2:0:0:
208,31,64690,1,2,0:3:0:0:
218,210,64910,2,0,P|242:164|246:112,1,104.500003189087,8|10,0:1|0:1,0:0:0:0:
147,297,65351,1,8,0:2:0:0:
297,252,65572,1,10,0:1:0:0:
147,297,65793,6,0,P|122:251|118:199,1,104.500003189087,14|2,0:1|0:3,0:0:0:0:
148,135,66123,1,2,0:0:0:0:
148,135,66234,2,0,P|183:73|112:70,1,170.999994781494,10|2,0:2|0:3,0:0:0:0:
67,139,66565,1,2,0:0:0:0:
67,139,66675,1,10,0:1:0:0:
208,234,66896,5,10,0:3:0:0:
262,22,67116,1,10,0:2:0:0:
336,121,67337,6,0,P|374:133|416:130,1,76,2|8,0:3|0:1,0:0:0:0:
377,36,67778,1,2,0:3:0:0:
377,36,67888,1,2,0:0:0:0:
377,36,67998,1,10,0:2:0:0:
258,168,68219,1,2,0:3:0:0:
258,168,68329,1,2,0:0:0:0:
258,168,68440,1,10,0:1:0:0:
193,75,68660,5,10,0:3:0:0:
362,119,68881,1,10,0:2:0:0:
329,285,69101,1,10,0:1:0:0:
362,118,69322,6,0,P|384:75|430:39,1,104.500003189087,14|10,0:1|0:1,0:0:0:0:
149,118,69763,2,0,P|128:75|82:39,1,104.500003189087,14|10,0:1|0:1,0:0:0:0:
149,265,70204,2,0,P|128:309|82:345,1,104.500003189087,14|10,0:1|0:1,0:0:0:0:
362,265,70646,2,0,P|384:309|430:345,1,104.500003189087,14|10,0:1|0:1,0:0:0:0:
256,192,71087,6,0,P|245:126|240:70,1,113.999996520996,14|0,0:1|0:0,0:0:0:0:
462,98,71969,2,0,P|405:107|349:113,1,113.999996520996,14|8,0:1|0:1,0:0:0:0:
139,120,72631,1,2,0:2:0:0:
139,120,72741,1,2,0:2:0:0:
139,120,72851,6,0,L|154:227,1,95,12|2,0:1|0:3,0:0:0:0:
302,311,73293,2,0,P|366:317|316:278,1,170.999994781494,10|2,0:2|0:3,0:0:0:0:
98,324,73734,2,0,L|190:294,1,95,10|2,0:1|0:3,0:0:0:0:
188,295,74065,1,2,0:0:0:0:
188,295,74175,1,8,0:2:0:0:
17,214,74396,1,2,0:3:0:0:
167,205,74616,5,8,0:1:0:0:
33,113,74837,1,2,0:3:0:0:
96,243,75057,1,10,0:2:0:0:
96,243,75168,1,2,0:0:0:0:
96,243,75278,1,2,0:3:0:0:
220,110,75498,2,0,P|174:129|114:134,1,95,10|2,0:1|0:3,0:0:0:0:
101,121,75829,1,2,0:0:0:0:
101,121,75940,1,8,0:2:0:0:
178,276,76160,1,10,0:1:0:0:
275,190,76381,6,0,P|322:197|378:216,1,95,8|2,0:1|0:3,0:0:0:0:
435,73,76822,2,0,P|429:137|468:87,1,170.999994781494,10|2,0:2|0:3,0:0:0:0:
309,18,77263,2,0,L|328:125,1,95,10|2,0:1|0:3,0:0:0:0:
325,111,77594,1,2,0:0:0:0:
325,111,77704,1,8,0:2:0:0:
227,199,77925,1,2,0:3:0:0:
420,177,78146,5,8,0:1:0:0:
338,305,78366,1,2,0:3:0:0:
227,199,78587,1,10,0:2:0:0:
227,199,78697,1,2,0:0:0:0:
227,199,78807,1,2,0:3:0:0:
315,89,79028,6,0,P|327:55|334:20,1,71.2500027179719,14|0,0:1|0:0,0:0:0:0:
194,79,79248,6,0,P|188:43|172:1,1,78.3750007474423,14|0,0:1|0:0,0:0:0:0:
94,140,79469,6,0,P|71:112|20:74,1,85.4999973907472,14|0,0:1|0:0,0:0:0:0:
42,274,79690,5,10,0:1:0:0:
42,274,79800,1,0,0:0:0:0:
42,274,79910,2,0,P|99:266|179:245,1,95,12|2,0:1|0:3,0:0:0:0:
270,295,80351,2,0,P|220:335|240:274,1,170.999994781494,10|2,0:2|0:3,0:0:0:0:
307,165,80793,2,0,P|302:114|289:55,1,95,10|2,0:1|0:3,0:0:0:0:
284,42,81123,1,2,0:0:0:0:
284,42,81234,1,8,0:2:0:0:
220,187,81454,1,2,0:3:0:0:
394,111,81675,5,8,0:1:0:0:
367,285,81896,1,2,0:3:0:0:
307,165,82116,1,10,0:2:0:0:
307,165,82226,1,2,0:0:0:0:
307,165,82337,1,2,0:3:0:0:
152,266,82557,2,0,P|199:262|245:251,1,95,10|2,0:1|0:3,0:0:0:0:
245,251,82888,1,2,0:0:0:0:
245,251,82998,1,8,0:2:0:0:
177,23,83219,6,0,P|138:100|213:185,1,190,6|2,0:2|0:3,0:0:0:0:
348,260,83881,2,0,L|337:165,1,95,8|2,0:2|0:3,0:0:0:0:
337,165,84212,1,2,0:0:0:0:
337,165,84322,1,10,0:1:0:0:
263,294,84543,1,2,0:3:0:0:
447,176,84763,1,8,0:2:0:0:
447,176,84873,1,8,0:0:0:0:
447,176,84984,1,14,0:1:0:0:
77,55,86087,5,8,0:2:0:0:
181,155,86307,1,8,0:1:0:0:
267,35,86528,1,8,0:1:0:0:
204,270,86748,1,8,0:2:0:0:
204,270,86859,1,8,0:2:0:0:
204,270,86969,5,14,0:1:0:0:
256,192,87079,12,0,94028,0:0:0:0:
