osu file format v14

[General]
AudioFilename: audio.mp3
AudioLeadIn: 0
PreviewTime: 43672
Countdown: 0
SampleSet: Soft
StackLeniency: 0.5
Mode: 0
LetterboxInBreaks: 0
WidescreenStoryboard: 1

[Editor]
DistanceSpacing: 0.8
BeatDivisor: 4
GridSize: 32
TimelineZoom: 1

[Metadata]
Title:PERFECT GIRL
TitleUnicode:PERFECT GIRL
Artist:Mitsukasa Ayase (CV: Sawasawa Sawa)
ArtistUnicode:三司あやせ (CV: 沢澤砂羽)
Creator:Deppyforce
Version:INSANE
Source:RIDDLE JOKER
Tags:リドルジョーカー galgame eroge yuzusoft ゆずソフト visual novel vn character song full version japanese pop jpop j-pop tanezaki atsumi 種﨑 敦美 shizuku- kazato asa shikibe mayu dogerinoo
BeatmapID:2890071
BeatmapSetID:1358125

[Difficulty]
HPDrainRate:5.5
CircleSize:3
OverallDifficulty:7.5
ApproachRate:8.5
SliderMultiplier:2.49999990463257
SliderTickRate:1

[Events]
//Background and Video events
0,0,"1.6x.png",0,0
//Break Periods
2,74815,79235
//Storyboard Layer 0 (Background)
//Storyboard Layer 1 (Fail)
//Storyboard Layer 2 (Pass)
//Storyboard Layer 3 (Foreground)
//Storyboard Layer 4 (Overlay)
//Storyboard Sound Samples

[TimingPoints]
2263,441.176470588235,4,2,1,55,1,0
2263,-133.333333333333,4,2,1,55,0,0
2704,-80,4,2,1,75,0,0
3145,-100,4,2,1,75,0,0
5792,-133.333333333333,4,2,1,75,0,0
6233,-80,4,2,1,75,0,0
6674,-100,4,2,1,75,0,0
8660,-66.6666666666667,4,2,1,75,0,0
8880,-50,4,2,1,75,0,0
9321,-133.333333333333,4,2,1,75,0,0
9762,-80,4,2,1,75,0,0
10204,-100,4,2,1,75,0,0
12630,-100,4,2,1,70,0,0
14395,-200,4,2,2,70,0,0
14615,-200,4,2,2,55,0,0
16380,-100,4,2,1,65,0,0
28512,-100,4,2,1,70,0,0
30057,-100,4,2,1,65,0,0
30939,-80,4,2,1,65,0,0
31380,-100,4,2,1,65,0,0
37336,-100,4,2,1,75,0,1
37998,-100,4,2,1,75,0,0
38218,-100,4,3,2,50,0,0
39211,-100,4,2,1,75,0,1
39762,-100,4,2,1,75,0,0
39983,-100,4,3,2,50,0,0
40865,-133.333333333333,4,2,1,65,0,0
41968,-100,4,2,1,65,0,0
42189,-80,4,2,1,65,0,0
42410,-66.6666666666667,4,2,1,65,0,0
42630,-100,4,2,1,65,0,0
43733,-100,4,2,1,40,0,0
44174,-100,4,2,1,55,0,0
44615,-200,4,2,1,75,0,0
45057,-66.6666666666667,4,2,1,75,0,0
45498,-100,4,2,1,75,0,0
48145,-200,4,2,1,75,0,0
48586,-66.6666666666667,4,2,1,75,0,0
49027,-100,4,2,1,75,0,0
51012,-80,4,2,1,75,0,0
51233,-66.6666666666667,4,2,1,75,0,0
51454,-57.1428571428571,4,2,1,75,0,0
51674,-100,4,2,1,75,0,0
52777,-100,4,2,3,75,0,0
53218,-100,4,2,1,60,0,0
54542,-100,4,2,3,60,0,0
54762,-200,4,2,3,60,0,0
54983,-200,4,2,1,60,0,0
55204,-100,4,2,1,75,0,0
57189,-100,4,2,1,70,0,0
58733,-200,4,2,1,75,0,0
59174,-66.6666666666667,4,2,1,75,0,0
59615,-100,4,2,1,75,0,0
65130,-80,4,2,1,75,0,0
65351,-66.6666666666667,4,2,1,75,0,0
65571,-57.1428571428571,4,2,1,75,0,0
65792,-100,4,2,1,75,0,0
66895,-100,4,2,3,75,0,0
67336,-100,4,2,1,60,0,0
68660,-100,4,2,3,60,0,0
69101,-100,4,2,1,60,0,0
69321,-100,4,2,1,75,0,0
71086,-200,4,2,1,75,0,0
71307,-200,4,2,2,55,0,0
72851,-100,4,2,1,75,0,0
79248,-100,4,2,1,40,0,0
79910,-100,4,2,1,65,0,0
92042,-100,4,2,1,70,0,0
93586,-100,4,2,1,65,0,0
94468,-80,4,2,1,65,0,0
94910,-100,4,2,1,65,0,0
100865,-100,4,2,1,75,0,1
101527,-100,4,2,1,75,0,0
101748,-100,4,3,2,50,0,0
102740,-100,4,2,1,75,0,1
103292,-100,4,2,1,75,0,0
103512,-100,4,3,2,50,0,0
104395,-133.333333333333,4,2,1,65,0,0
105498,-100,4,2,1,65,0,0
105718,-80,4,2,1,65,0,0
105939,-66.6666666666667,4,2,1,65,0,0
106160,-100,4,2,1,65,0,0
107262,-100,4,2,1,40,0,0
107704,-100,4,2,1,55,0,0
108145,-200,4,2,1,75,0,0
108586,-66.6666666666667,4,2,1,75,0,0
109027,-100,4,2,1,75,0,0
111674,-200,4,2,1,75,0,0
112115,-66.6666666666667,4,2,1,75,0,0
112557,-100,4,2,1,75,0,0
114542,-80,4,2,1,75,0,0
114762,-66.6666666666667,4,2,1,75,0,0
114983,-57.1428571428571,4,2,1,75,0,0
115204,-100,4,2,1,75,0,0
116307,-100,4,2,3,75,0,0
116748,-100,4,2,1,60,0,0
118071,-100,4,2,3,60,0,0
118292,-200,4,2,3,60,0,0
118512,-200,4,2,1,60,0,0
118733,-100,4,2,1,75,0,0
120718,-100,4,2,1,70,0,0
122262,-200,4,2,1,75,0,0
122704,-66.6666666666667,4,2,1,75,0,0
123145,-100,4,2,1,75,0,0
128660,-80,4,2,1,75,0,0
128880,-66.6666666666667,4,2,1,75,0,0
129101,-57.1428571428571,4,2,1,75,0,0
129321,-100,4,2,1,75,0,0
130424,-100,4,2,3,75,0,0
130865,-100,4,2,1,60,0,0
132189,-100,4,2,3,60,0,0
132630,-100,4,2,1,60,0,0
132851,-100,4,2,1,75,0,0
134615,-200,4,2,1,75,0,0
134836,-200,4,2,2,55,0,0
136160,-200,4,2,1,60,0,0
136380,-133.333333333333,4,2,1,75,0,0
138145,-100,4,2,1,75,0,0
148733,-434.782608695652,4,2,1,70,0,0
150498,-434.782608695652,4,2,2,60,0,0
150939,-133.333333333333,4,2,2,60,0,0
156674,-133.333333333333,4,2,1,65,0,0
156895,-100,4,2,1,65,0,0
157115,-80,4,2,1,65,0,0
157336,-66.6666666666667,4,2,1,65,0,0
157557,-133.333333333333,4,2,1,70,0,0
158660,-133.333333333333,4,2,3,70,0,0
159101,-133.333333333333,4,2,1,55,0,0
160424,-133.333333333333,4,2,3,55,0,0
160645,-270.27027027027,4,2,3,55,0,0
160865,-270.27027027027,4,2,1,55,0,0
161086,-133.333333333333,4,2,1,75,0,0
163071,-133.333333333333,4,2,1,70,0,0
164615,-133.333333333333,4,2,1,55,0,0
165057,-66.6666666666667,4,2,1,75,0,0
165498,-100,4,2,1,75,0,0
171012,-80,4,2,1,75,0,0
171233,-66.6666666666667,4,2,1,75,0,0
171454,-57.1428571428571,4,2,1,75,0,0
171674,-100,4,2,1,75,0,0
172777,-100,4,2,3,75,0,0
173218,-100,4,2,1,60,0,0
174542,-100,4,2,3,60,0,0
174983,-100,4,2,1,60,0,0
175204,-100,4,2,1,75,0,0
176968,-200,4,2,1,75,0,0
177189,-200,4,2,2,55,0,0
178733,-133.333333333333,4,2,1,75,0,0
179174,-80,4,2,1,75,0,0
179615,-100,4,2,1,75,0,0
182262,-133.333333333333,4,2,1,75,0,0
182704,-80,4,2,1,75,0,0
183145,-100,4,2,1,75,0,0
185130,-66.6666666666667,4,2,1,75,0,0
185351,-50,4,2,1,75,0,0
185792,-133.333333333333,4,2,1,75,0,0
186233,-80,4,2,1,75,0,0
186674,-100,4,2,1,75,0,0
190865,-200,4,2,1,70,0,0
191086,-200,4,2,1,50,0,0
191968,-200,4,2,1,60,0,0
192410,-200,4,2,1,65,0,0
194395,-200,4,2,1,55,0,0
196160,-200,4,2,1,40,0,0
197924,-200,4,2,1,25,0,0
199910,-200,4,2,1,5,0,0

[Colours]
Combo1 : 236,224,202
Combo2 : 247,187,208
Combo3 : 150,167,205

[HitObjects]
287,156,1821,6,0,L|259:183,6,31.2499988079071,2|2|2|2|2|2|2,1:2|0:0|0:0|0:0|0:0|0:0|0:0,0:0:0:0:
287,156,2263,2,0,L|203:204,1,93.7500000000001,4|0,1:0|3:0,0:0:0:0:
114,29,2704,6,0,P|45:159|141:270,1,312.499988079071,14|2,0:0|1:3,0:0:0:0:
258,338,3365,1,0,3:0:0:0:
303,360,3476,1,2,0:3:0:0:
346,336,3586,2,0,L|362:206,1,124.999995231629,8|2,0:0|3:0,0:0:0:0:
484,165,4027,2,0,L|474:36,1,124.999995231629,0|2,1:0|3:2,0:0:0:0:
361,211,4468,5,10,0:0:0:0:
280,195,4579,1,2,0:0:0:0:
227,261,4689,1,2,0:0:0:0:
227,261,4910,6,0,L|46:307,1,187.499992847443,2|2,1:2|0:0,0:0:0:0:
74,204,5351,2,0,L|48:82,1,124.999995231629,8|2,0:0|3:2,0:0:0:0:
89,53,5682,1,0,3:0:0:0:
131,25,5792,2,0,L|225:42,1,93.7500000000001,0|0,1:0|3:0,0:0:0:0:
266,222,6233,6,0,P|380:135|311:10,1,312.499988079071,14|2,0:0|1:3,0:0:0:0:
200,88,6895,1,0,3:0:0:0:
166,124,7005,1,2,0:3:0:0:
176,172,7115,2,0,L|157:296,1,124.999995231629,8|2,0:0|3:0,0:0:0:0:
276,353,7557,2,0,L|435:341,1,124.999995231629,0|2,1:0|3:2,0:0:0:0:
490,160,7998,5,10,0:0:0:0:
412,130,8108,1,2,0:0:0:0:
397,212,8218,1,2,0:0:0:0:
283,39,8439,6,0,P|239:94|239:127,1,62.4999976158143,4|0,1:2|0:0,0:0:0:0:
148,92,8660,2,0,P|142:139|155:183,1,93.7500000000001,4|0,3:2|0:0,0:0:0:0:
2,183,8880,2,0,P|130:281|237:265,1,249.999990463257,12|0,0:2|3:0,0:0:0:0:
211,275,9211,1,0,3:0:0:0:
211,275,9321,2,0,L|245:375,1,93.7500000000001,4|0,1:2|3:0,0:0:0:0:
411,129,9762,6,0,P|439:277|333:384,1,312.499988079071,14|2,0:0|1:3,0:0:0:0:
257,273,10424,1,0,3:0:0:0:
230,230,10535,1,2,0:3:0:0:
261,191,10645,2,0,L|252:65,1,124.999995231629,8|2,0:0|3:0,0:0:0:0:
130,15,11086,2,0,L|17:69,1,124.999995231629,0|2,1:0|3:2,0:0:0:0:
0,269,11527,5,10,0:0:0:0:
80,295,11637,1,2,0:0:0:0:
164,325,11748,1,2,0:0:0:0:
164,325,11968,6,0,L|350:311,1,187.499992847443,2|2,1:2|0:0,0:0:0:0:
380,351,12410,1,8,0:0:0:0:
499,196,12630,6,0,B|507:157|480:126|439:119|405:167|374:184|374:184|326:212|291:204|270:174|270:174|264:158|269:135|286:126|277:93|230:103,1,374.999985694885,6|8,3:2|0:0,0:0:0:0:
145,124,13512,1,0,0:0:0:0:
80,295,13733,6,0,P|175:357|257:273,1,249.999990463257,2|8,1:2|1:3,0:0:0:0:
230,230,14285,1,8,1:3:0:0:
261,191,14395,1,6,1:2:0:0:
261,191,14836,6,0,L|345:183,1,62.4999976158143,0|8,3:0|0:3,0:0:0:0:
406,143,15277,2,0,L|456:147,2,31.2499988079071,0|0|0,3:0|3:0|1:0,0:0:0:0:
406,143,15718,1,0,3:0:0:0:
353,67,15939,2,0,L|282:41,1,62.4999976158143,10|0,0:3|3:0,0:0:0:0:
269,37,16270,1,0,3:0:0:0:
269,37,16380,1,4,1:0:0:0:
98,54,16601,5,0,0:0:0:0:
98,54,16821,2,0,L|80:177,1,124.999995231629,8|0,3:2|0:0,0:0:0:0:
174,213,17262,2,0,L|182:341,1,124.999995231629,2|0,1:1|3:0,0:0:0:0:
151,377,17593,1,2,0:1:0:0:
151,377,17704,1,8,3:2:0:0:
291,288,17924,6,0,L|368:37,1,249.999990463257,2|2,0:1|3:2,0:0:0:0:
390,155,18586,1,8,3:2:0:0:
390,155,18696,1,0,0:0:0:0:
390,155,18807,2,0,L|497:87,1,124.999995231629,0|2,0:0|1:2,0:0:0:0:
364,48,19248,2,0,L|294:41,1,62.4999976158143,0|2,0:0|1:2,0:0:0:0:
265,9,19468,2,0,L|130:29,1,124.999995231629,8|2,3:2|1:2,0:0:0:0:
5,133,19910,6,0,L|59:377,1,249.999990463257,0|8,1:0|3:2,0:0:0:0:
160,339,20571,1,0,0:0:0:0:
160,339,20792,2,0,L|192:112,1,187.499992847443,2|2,1:1|0:1,0:0:0:0:
235,147,21233,1,8,3:2:0:0:
235,147,21454,2,0,L|302:40,1,124.999995231629,2|0,0:1|1:0,0:0:0:0:
458,87,21895,5,2,3:2:0:0:
392,152,22005,1,2,0:2:0:0:
458,87,22115,1,10,3:2:0:0:
392,152,22226,1,2,0:2:0:0:
499,273,22557,5,2,1:2:0:0:
512,365,22667,1,2,0:0:0:0:
499,273,22777,1,2,3:2:0:0:
512,365,22887,1,2,0:2:0:0:
499,273,22998,2,0,L|375:286,1,124.999995231629,8|2,3:2|1:2,0:0:0:0:
280,257,23439,1,6,1:2:0:0:
312,99,23660,5,2,1:2:0:0:
312,99,23880,2,0,L|175:119,1,124.999995231629,8|0,3:2|0:0,0:0:0:0:
56,95,24321,2,0,L|128:198,1,124.999995231629,2|0,1:1|3:0,0:0:0:0:
115,248,24652,1,2,0:1:0:0:
115,248,24762,1,8,3:2:0:0:
29,370,24983,6,0,L|268:300,1,249.999990463257,2|2,0:1|3:2,0:0:0:0:
335,221,25645,1,8,3:2:0:0:
335,221,25755,1,0,0:0:0:0:
335,221,25865,2,0,L|311:93,1,124.999995231629,0|2,0:0|1:2,0:0:0:0:
410,71,26307,2,0,L|421:6,1,62.4999976158143,0|2,0:0|1:2,0:0:0:0:
471,0,26527,2,0,L|431:121,1,124.999995231629,8|2,3:2|1:2,0:0:0:0:
437,298,26968,5,0,1:0:0:0:
437,298,27410,1,8,3:2:0:0:
350,250,27630,2,0,L|286:253,1,62.4999976158143,0|0,0:0|3:0,0:0:0:0:
268,299,27851,2,0,L|180:198,1,124.999995231629,2|0,1:1|3:0,0:0:0:0:
208,162,28182,1,2,0:1:0:0:
208,162,28292,1,8,3:2:0:0:
140,82,28512,5,4,1:2:0:0:
116,82,28954,1,4,1:2:0:0:
92,82,29395,1,4,1:2:0:0:
68,82,29836,1,4,1:2:0:0:
0,155,30057,6,0,L|19:221,1,62.4999976158143,0|0,1:0|1:0,0:0:0:0:
72,219,30277,2,0,L|32:270,1,62.4999976158143,0|0,3:0|3:0,0:0:0:0:
0,306,30498,2,0,L|179:319,1,124.999995231629,2|0,1:2|3:0,0:0:0:0:
285,161,30939,6,0,P|326:300|200:370,1,312.499988079071,4|0,1:0|1:0,0:0:0:0:
164,282,31601,1,0,3:0:0:0:
164,282,31711,1,0,0:0:0:0:
164,282,31821,2,0,L|149:156,1,124.999995231629,8|2,3:2|3:2,0:0:0:0:
199,183,32152,1,0,3:0:0:0:
199,183,32262,2,0,L|214:57,1,124.999995231629,0|0,1:0|3:0,0:0:0:0:
308,24,32704,1,8,3:2:0:0:
383,90,32924,2,0,L|444:100,1,62.4999976158143,0|0,3:0|3:0,0:0:0:0:
506,69,33145,6,0,L|383:90,1,124.999995231629,2|0,1:3|0:0,0:0:0:0:
342,117,33476,2,0,L|219:138,1,124.999995231629,2|0,0:3|0:0,0:0:0:0:
199,183,33807,1,0,3:0:0:0:
279,322,34027,6,0,P|298:260|348:215,1,124.999995231629,0|0,1:0|3:0,0:0:0:0:
342,117,34468,2,0,L|411:10,1,124.999995231629,8|2,3:2|3:2,0:0:0:0:
442,57,34799,1,0,3:0:0:0:
442,57,34910,1,0,1:0:0:0:
482,152,35130,2,0,L|473:218,1,62.4999976158143,0|2,3:0|0:0,0:0:0:0:
483,263,35351,1,8,3:2:0:0:
340,219,35571,1,2,3:2:0:0:
340,219,35682,1,0,3:0:0:0:
340,219,35792,6,0,L|214:237,1,124.999995231629,0|0,1:0|3:0,0:0:0:0:
123,273,36233,2,0,L|55:167,1,124.999995231629,8|0,3:2|3:0,0:0:0:0:
70,68,36674,1,2,1:1:0:0:
173,84,36895,2,0,L|226:40,1,62.4999976158143,2|2,0:1|0:1,0:0:0:0:
269,58,37115,1,8,3:2:0:0:
319,55,37226,1,8,3:2:0:0:
369,52,37336,5,6,0:2:0:0:
402,222,37777,1,6,3:2:0:0:
512,152,37998,1,6,1:2:0:0:
512,152,39211,5,6,0:2:0:0:
402,222,39542,1,6,3:2:0:0:
369,52,39762,1,6,1:2:0:0:
512,152,40865,6,0,L|316:130,1,187.5,4|0,0:1|1:0,0:0:0:0:
249,197,41527,1,8,3:2:0:0:
357,316,41748,1,0,3:2:0:0:
357,316,41858,1,0,3:2:0:0:
357,316,41968,6,0,L|331:258,1,62.4999976158143,6|0,1:3|0:0,0:0:0:0:
249,197,42189,2,0,L|275:100,1,78.1249970197678,6|0,1:3|0:0,0:0:0:0:
192,285,42410,2,0,L|83:316,1,93.7500000000001,6|0,1:3|0:0,0:0:0:0:
0,177,42630,2,0,L|249:197,1,249.999990463257,6|6,1:3|1:3,0:0:0:0:
249,197,43292,1,6,1:3:0:0:
307,87,43733,5,0,0:0:0:0:
257,351,44174,1,2,0:0:0:0:
307,87,44615,6,0,L|319:197,1,62.4999976158143,4|0,1:0|3:0,0:0:0:0:
415,371,45057,6,0,P|435:284|366:227,1,187.5,14|0,1:2|3:0,0:0:0:0:
313,149,45387,1,0,3:0:0:0:
223,176,45498,1,0,1:0:0:0:
81,131,45718,2,0,L|113:10,1,124.999995231629,0|8,0:0|1:2,0:0:0:0:
82,224,46160,1,0,3:0:0:0:
101,271,46270,1,0,3:0:0:0:
120,318,46380,2,0,L|-8:309,1,124.999995231629,0|2,1:0|3:1,0:0:0:0:
82,224,46821,5,8,1:2:0:0:
82,224,46932,2,0,L|149:218,1,62.4999976158143,2|0,0:1|3:0,0:0:0:0:
208,82,47262,2,0,L|313:149,1,124.999995231629,2|0,1:1|0:0,0:0:0:0:
404,135,47593,1,2,0:1:0:0:
404,135,47704,2,0,L|456:248,1,124.999995231629,8|0,1:2|3:0,0:0:0:0:
337,363,48145,6,0,L|325:298,1,62.4999976158143,0|0,1:0|3:0,0:0:0:0:
217,140,48586,6,0,P|179:221|233:291,1,187.5,14|0,1:2|3:0,0:0:0:0:
325,301,48917,1,0,3:0:0:0:
369,220,49027,1,0,1:0:0:0:
512,157,49248,2,0,L|503:32,1,124.999995231629,0|8,0:0|1:2,0:0:0:0:
293,62,49689,1,0,3:0:0:0:
341,79,49799,1,0,3:0:0:0:
389,96,49910,6,0,L|369:220,1,124.999995231629,0|2,1:0|0:0,0:0:0:0:
325,301,50240,1,2,0:0:0:0:
407,345,50351,1,10,1:2:0:0:
451,263,50461,1,2,0:0:0:0:
451,263,50792,6,0,L|513:250,1,62.4999976158143,6|0,1:2|0:0,0:0:0:0:
369,219,51012,2,0,L|458:232,1,78.1249970197678,0|0,3:0|0:0,0:0:0:0:
232,307,51233,2,0,L|325:301,1,93.7500000000001,14|0,1:2|0:0,0:0:0:0:
169,181,51454,2,0,L|274:208,1,109.374996870756,0|0,3:0|3:0,0:0:0:0:
98,241,51674,5,4,3:2:0:0:
51,97,51895,5,0,0:0:0:0:
129,47,52005,1,0,0:0:0:0:
208,97,52115,1,14,3:2:0:0:
67,116,52336,5,0,0:0:0:0:
129,47,52446,1,0,0:0:0:0:
218,75,52556,1,0,1:0:0:0:
332,17,52777,6,0,L|340:78,1,62.4999976158143,10|0,0:1|0:0,0:0:0:0:
389,96,52997,2,0,L|375:156,1,62.4999976158143,10|0,0:1|0:0,0:0:0:0:
342,196,53218,2,0,L|479:170,1,124.999995231629,0|0,3:0|1:0,0:0:0:0:
342,196,53660,5,0,0:0:0:0:
385,222,53770,1,0,0:0:0:0:
381,273,53880,1,8,3:2:0:0:
291,318,54101,5,0,0:0:0:0:
255,352,54211,1,0,0:0:0:0:
206,343,54321,1,0,1:0:0:0:
109,335,54542,5,10,0:1:0:0:
109,335,54762,2,0,L|72:283,1,62.4999976158143,10|0,0:1|3:0,0:0:0:0:
3,125,55204,5,4,1:2:0:0:
88,178,55424,2,0,L|223:193,1,124.999995231629,6|0,0:0|3:2,0:0:0:0:
262,306,55865,2,0,L|207:181,1,124.999995231629,6|0,0:0|0:0,0:0:0:0:
285,90,56307,2,0,L|211:191,1,124.999995231629,6|0,0:0|3:2,0:0:0:0:
262,306,56748,6,0,P|359:230|495:207,1,249.999990463257,4|0,0:1|3:0,0:0:0:0:
479,54,57410,1,8,1:2:0:0:
332,84,57630,1,4,0:0:0:0:
332,84,57851,2,0,L|215:22,1,124.999995231629,0|0,1:0|3:0,0:0:0:0:
201,149,58292,2,0,L|168:280,1,124.999995231629,8|0,1:2|3:0,0:0:0:0:
133,303,58622,1,0,3:0:0:0:
133,303,58733,6,0,L|193:319,1,62.4999976158143,4|0,1:0|3:0,0:0:0:0:
378,370,59174,6,0,P|355:284|268:264,1,187.5,14|0,1:2|3:0,0:0:0:0:
170,270,59505,1,0,3:0:0:0:
92,209,59615,1,0,1:0:0:0:
0,90,59836,2,0,L|130:69,1,124.999995231629,0|8,0:0|1:2,0:0:0:0:
323,116,60277,1,0,3:0:0:0:
300,161,60387,1,0,3:0:0:0:
277,205,60498,2,0,L|170:270,1,124.999995231629,0|2,1:0|3:1,0:0:0:0:
323,116,60939,5,8,1:2:0:0:
323,116,61049,2,0,L|309:49,1,62.4999976158143,2|0,0:1|3:0,0:0:0:0:
456,12,61380,2,0,L|447:144,1,124.999995231629,2|0,1:1|0:0,0:0:0:0:
501,216,61711,1,2,0:1:0:0:
501,216,61821,2,0,L|381:268,1,124.999995231629,8|0,1:2|3:0,0:0:0:0:
243,361,62262,6,0,L|367:376,1,124.999995231629,0|0,1:0|3:0,0:0:0:0:
281,202,62704,2,0,P|214:234|217:327,1,124.999995231629,10|0,1:2|3:0,0:0:0:0:
114,318,63035,1,0,3:0:0:0:
57,244,63145,1,2,1:2:0:0:
109,101,63365,2,0,L|-20:94,1,124.999995231629,0|10,0:0|1:2,0:0:0:0:
170,31,63807,1,2,3:2:0:0:
219,26,63917,1,0,3:0:0:0:
268,21,64027,6,0,L|192:140,1,124.999995231629,0|0,1:0|0:0,0:0:0:0:
308,230,64468,1,10,1:2:0:0:
294,378,64689,1,0,0:0:0:0:
294,378,64910,6,0,L|274:318,1,62.4999976158143,6|0,1:2|0:0,0:0:0:0:
308,230,65130,2,0,L|211:213,1,78.1249970197678,0|0,3:0|0:0,0:0:0:0:
200,126,65351,2,0,L|113:162,1,93.7500000000001,14|0,1:2|0:0,0:0:0:0:
30,109,65571,2,0,L|-4:258,1,109.374996870756,0|0,3:0|3:0,0:0:0:0:
0,21,65792,5,4,3:2:0:0:
151,7,66012,5,0,0:0:0:0:
237,41,66123,1,0,0:0:0:0:
200,126,66233,1,14,3:2:0:0:
145,28,66454,5,0,0:0:0:0:
237,41,66565,1,0,0:0:0:0:
221,133,66675,1,0,1:0:0:0:
258,265,66895,6,0,L|313:296,1,62.4999976158143,10|0,0:1|0:0,0:0:0:0:
306,346,67115,2,0,L|363:314,1,62.4999976158143,10|0,0:1|0:0,0:0:0:0:
406,347,67336,2,0,L|530:361,1,124.999995231629,0|0,3:0|1:0,0:0:0:0:
406,347,67777,5,0,0:0:0:0:
398,297,67887,1,0,0:0:0:0:
438,266,67998,1,8,3:2:0:0:
416,169,68218,5,0,0:0:0:0:
466,176,68329,1,0,0:0:0:0:
504,144,68439,1,0,1:0:0:0:
512,47,68660,5,10,0:1:0:0:
364,23,68880,2,0,L|241:7,1,124.999995231629,10|0,0:1|3:0,0:0:0:0:
76,71,69321,5,4,1:0:0:0:
110,157,69542,1,0,3:0:0:0:
284,141,69762,5,12,1:2:0:0:
265,232,69983,1,0,3:0:0:0:
142,357,70204,5,4,1:0:0:0:
49,355,70424,1,0,3:0:0:0:
20,182,70645,5,12,1:2:0:0:
110,157,70865,1,0,3:0:0:0:
265,232,71086,6,0,L|381:299,1,124.999995231629,4|8,1:0|1:3,0:0:0:0:
489,199,71968,2,0,L|496:74,1,124.999995231629,6|8,1:2|1:3,0:0:0:0:
375,118,72630,2,0,L|344:121,1,31.2499988079071
302,93,72851,6,0,P|220:106|243:186,1,187.499992847443,4|0,1:0|0:0,0:0:0:0:
265,232,73292,2,0,L|131:271,1,124.999995231629,10|0,3:2|3:0,0:0:0:0:
19,187,73733,2,0,L|2:325,1,124.999995231629,2|0,1:2|3:0,0:0:0:0:
31,359,74064,1,2,0:0:0:0:
31,359,74174,1,8,3:2:0:0:
144,266,74395,2,0,L|216:306,2,62.4999976158143,0|0|0,3:0|3:0|1:0,0:0:0:0:
390,189,79910,5,4,1:0:0:0:
225,178,80130,1,0,0:0:0:0:
225,178,80351,2,0,L|98:169,1,124.999995231629,8|0,3:2|0:0,0:0:0:0:
33,93,80792,2,0,L|138:25,1,124.999995231629,2|0,1:1|3:0,0:0:0:0:
174,67,81123,1,2,0:1:0:0:
174,67,81233,1,8,3:2:0:0:
328,23,81454,6,0,L|262:264,1,249.999990463257,2|2,0:1|3:2,0:0:0:0:
323,354,82115,1,8,3:2:0:0:
323,354,82226,1,0,0:0:0:0:
323,354,82336,2,0,L|451:341,1,124.999995231629,0|2,0:0|1:2,0:0:0:0:
261,264,82777,2,0,L|321:224,1,62.4999976158143,0|2,0:0|1:2,0:0:0:0:
328,181,82998,2,0,L|448:247,1,124.999995231629,8|2,3:2|1:2,0:0:0:0:
512,84,83439,6,0,L|262:40,1,249.999990463257,0|8,1:0|3:2,0:0:0:0:
173,94,84101,1,0,0:0:0:0:
173,94,84321,2,0,L|73:293,1,187.499992847443,2|2,1:1|0:1,0:0:0:0:
49,229,84762,1,8,3:2:0:0:
49,229,84983,2,0,L|56:363,1,124.999995231629,2|0,0:1|1:0,0:0:0:0:
214,319,85424,5,2,3:2:0:0:
304,345,85535,1,2,0:2:0:0:
214,319,85645,1,10,3:2:0:0:
304,345,85756,1,2,0:2:0:0:
339,198,86086,5,2,1:2:0:0:
295,113,86196,1,2,0:0:0:0:
339,198,86307,1,2,3:2:0:0:
295,113,86417,1,2,0:2:0:0:
339,198,86527,2,0,L|436:284,1,124.999995231629,8|2,3:2|1:2,0:0:0:0:
452,380,86968,1,6,1:2:0:0:
512,217,87189,5,2,1:2:0:0:
512,217,87410,2,0,L|532:94,1,124.999995231629,8|0,3:2|0:0,0:0:0:0:
467,14,87851,2,0,L|313:25,1,124.999995231629,2|0,1:1|3:0,0:0:0:0:
312,66,88182,1,2,0:1:0:0:
312,66,88292,1,8,3:2:0:0:
136,51,88512,6,0,L|339:198,1,249.999990463257,2|2,0:1|3:2,0:0:0:0:
240,193,89174,1,8,3:2:0:0:
240,193,89285,1,0,0:0:0:0:
240,193,89395,2,0,L|258:316,1,124.999995231629,0|2,0:0|1:2,0:0:0:0:
172,375,89836,2,0,L|124:329,1,62.4999976158143,0|2,0:0|1:2,0:0:0:0:
77,335,90057,2,0,L|2:232,1,124.999995231629,8|2,3:2|1:2,0:0:0:0:
33,59,90498,5,0,1:0:0:0:
33,59,90939,1,8,3:2:0:0:
65,154,91160,2,0,L|5:186,1,62.4999976158143,0|0,0:0|3:0,0:0:0:0:
4,234,91380,2,0,L|161:247,1,124.999995231629,2|0,1:1|3:0,0:0:0:0:
178,270,91711,1,2,0:1:0:0:
178,270,91821,1,8,3:2:0:0:
240,193,92041,5,4,1:2:0:0:
264,193,92483,1,4,1:2:0:0:
288,193,92924,1,4,1:2:0:0:
312,193,93365,1,4,1:2:0:0:
383,122,93586,6,0,L|375:58,1,62.4999976158143,0|0,1:0|1:0,0:0:0:0:
416,31,93807,2,0,L|475:63,1,62.4999976158143,0|0,3:0|3:0,0:0:0:0:
503,98,94027,2,0,L|489:245,1,124.999995231629,2|0,1:2|3:0,0:0:0:0:
378,384,94468,6,0,P|313:284|436:314,1,312.499988079071,4|0,1:0|1:0,0:0:0:0:
491,222,95130,1,0,3:0:0:0:
491,222,95240,1,0,0:0:0:0:
491,222,95351,2,0,L|431:106,1,124.999995231629,8|2,3:2|3:2,0:0:0:0:
383,122,95682,1,0,3:0:0:0:
383,122,95792,2,0,L|253:101,1,124.999995231629,0|0,1:0|3:0,0:0:0:0:
183,173,96233,1,8,3:2:0:0:
241,254,96454,2,0,L|226:328,1,62.4999976158143,0|0,3:0|3:0,0:0:0:0:
265,376,96674,6,0,L|241:254,1,124.999995231629,2|0,1:3|0:0,0:0:0:0:
283,224,97005,2,0,L|259:102,1,124.999995231629,2|0,0:3|0:0,0:0:0:0:
270,52,97336,1,0,3:0:0:0:
112,23,97557,6,0,P|41:32|3:100,1,124.999995231629,0|0,1:0|3:0,0:0:0:0:
31,171,97998,2,0,L|157:212,1,124.999995231629,8|2,3:2|3:2,0:0:0:0:
183,173,98329,1,0,3:0:0:0:
183,173,98439,1,0,1:0:0:0:
280,139,98660,2,0,L|350:160,1,62.4999976158143,0|2,3:0|0:0,0:0:0:0:
387,142,98880,1,8,3:2:0:0:
403,313,99101,1,2,3:2:0:0:
403,313,99211,1,0,3:0:0:0:
403,313,99321,6,0,L|269:233,1,124.999995231629,0|0,1:0|3:0,0:0:0:0:
207,305,99762,2,0,L|80:289,1,124.999995231629,8|0,3:2|3:0,0:0:0:0:
14,215,100204,1,2,1:1:0:0:
1,116,100424,2,0,L|34:33,1,62.4999976158143,2|2,0:1|0:1,0:0:0:0:
74,54,100645,1,8,3:2:0:0:
120,71,100755,1,8,3:2:0:0:
166,88,100865,5,6,0:2:0:0:
298,201,101307,1,6,3:2:0:0:
175,259,101527,1,6,1:2:0:0:
175,259,102740,5,6,0:2:0:0:
298,201,103071,1,6,3:2:0:0:
166,88,103292,1,6,1:2:0:0:
175,259,104395,6,0,L|372:326,1,187.5,4|0,0:1|1:0,0:0:0:0:
425,248,105057,1,8,3:2:0:0:
505,368,105277,1,0,3:2:0:0:
505,368,105387,1,0,3:2:0:0:
505,368,105498,6,0,L|508:306,1,62.4999976158143,6|0,1:3|0:0,0:0:0:0:
465,181,105718,2,0,L|425:248,1,78.1249970197678,6|0,1:3|0:0,0:0:0:0:
278,209,105939,2,0,L|361:165,1,93.7500000000001,6|0,1:3|0:0,0:0:0:0:
504,80,106160,2,0,L|243:56,1,249.999990463257,6|6,1:3|1:3,0:0:0:0:
255,57,106821,1,6,1:3:0:0:
88,96,107262,5,0,0:0:0:0:
360,165,107704,1,2,0:0:0:0:
88,96,108145,6,0,L|127:166,1,62.4999976158143,4|0,1:0|3:0,0:0:0:0:
22,356,108586,6,0,P|-8:274|63:225,1,187.5,14|0,1:2|3:0,0:0:0:0:
118,150,108917,1,0,3:0:0:0:
206,181,109027,1,0,1:0:0:0:
290,309,109248,2,0,L|378:220,1,124.999995231629,0|8,0:0|1:2,0:0:0:0:
406,64,109689,1,0,3:0:0:0:
359,48,109800,1,0,3:0:0:0:
312,33,109910,2,0,L|303:157,1,124.999995231629,0|2,1:0|3:1,0:0:0:0:
406,64,110351,5,8,1:2:0:0:
406,64,110461,2,0,L|486:31,1,62.4999976158143,2|0,0:1|3:0,0:0:0:0:
512,185,110792,2,0,L|448:352,1,124.999995231629,2|0,1:1|0:0,0:0:0:0:
398,366,111123,1,2,0:1:0:0:
398,366,111233,2,0,L|227:385,1,124.999995231629,8|0,1:2|3:0,0:0:0:0:
135,301,111674,6,0,L|205:269,1,62.4999976158143,0|0,1:0|3:0,0:0:0:0:
360,236,112115,6,0,P|296:172|206:180,1,187.5,14|0,1:2|3:0,0:0:0:0:
191,275,112446,1,0,3:0:0:0:
120,338,112557,1,0,1:0:0:0:
11,236,112777,2,0,L|107:157,1,124.999995231629,0|8,0:0|1:2,0:0:0:0:
305,89,113218,1,0,3:0:0:0:
255,84,113329,1,0,3:0:0:0:
205,79,113440,6,0,L|82:59,1,124.999995231629,0|2,1:0|0:0,0:0:0:0:
18,127,113770,1,2,0:0:0:0:
107,157,113880,1,10,1:2:0:0:
42,224,113990,1,2,0:0:0:0:
42,224,114321,6,0,L|51:285,1,62.4999976158143,6|0,1:2|0:0,0:0:0:0:
151,277,114542,2,0,L|128:351,1,78.1249970197678,0|0,3:0|0:0,0:0:0:0:
233,214,114762,2,0,L|251:307,1,93.7500000000001,14|0,1:2|0:0,0:0:0:0:
345,131,114983,2,0,L|332:239,1,109.374996870756,0|0,3:0|3:0,0:0:0:0:
262,88,115204,5,4,3:2:0:0:
417,30,115424,5,0,0:0:0:0:
473,104,115535,1,0,0:0:0:0:
433,188,115645,1,14,3:2:0:0:
401,45,115865,5,0,0:0:0:0:
473,104,115976,1,0,0:0:0:0:
455,195,116086,1,0,1:0:0:0:
507,314,116307,6,0,L|445:305,1,62.4999976158143,10|0,0:1|0:0,0:0:0:0:
411,342,116527,2,0,L|347:325,1,62.4999976158143,10|0,0:1|0:0,0:0:0:0:
304,304,116748,2,0,L|396:387,1,124.999995231629,0|0,3:0|1:0,0:0:0:0:
304,304,117189,5,0,0:0:0:0:
255,293,117299,1,0,0:0:0:0:
218,327,117410,1,8,3:2:0:0:
126,287,117630,5,0,0:0:0:0:
113,238,117740,1,0,0:0:0:0:
143,197,117851,1,0,1:0:0:0:
243,193,118071,5,10,0:1:0:0:
243,193,118292,2,0,L|251:125,1,62.4999976158143,10|0,0:1|3:0,0:0:0:0:
108,33,118733,5,4,1:2:0:0:
48,116,118954,2,0,L|143:197,1,124.999995231629,6|0,0:0|3:2,0:0:0:0:
260,155,119395,2,0,L|142:196,1,124.999995231629,6|0,0:0|0:0,0:0:0:0:
120,320,119836,2,0,L|142:197,1,124.999995231629,6|0,0:0|3:2,0:0:0:0:
48,116,120277,6,0,P|136:25|292:20,1,249.999990463257,4|0,0:1|3:0,0:0:0:0:
373,102,120939,1,8,1:2:0:0:
511,39,121160,1,4,0:0:0:0:
511,39,121380,2,0,L|495:164,1,124.999995231629,0|0,1:0|3:0,0:0:0:0:
507,314,121821,2,0,L|395:258,1,124.999995231629,8|0,1:2|3:0,0:0:0:0:
349,271,122152,1,0,3:0:0:0:
349,271,122262,6,0,L|369:212,1,62.4999976158143,4|0,1:0|3:0,0:0:0:0:
173,167,122704,6,0,P|237:105|324:130,1,187.5,14|0,1:2|3:0,0:0:0:0:
369,211,123035,1,0,3:0:0:0:
460,190,123145,1,0,1:0:0:0:
508,48,123365,2,0,L|367:4,1,124.999995231629,0|8,0:0|1:2,0:0:0:0:
369,211,123807,1,0,3:0:0:0:
324,232,123917,1,0,3:0:0:0:
279,254,124027,6,0,L|235:377,1,124.999995231629,0|2,1:0|3:1,0:0:0:0:
369,211,124468,1,8,1:2:0:0:
369,211,124579,2,0,L|355:149,1,62.4999976158143,2|0,0:1|3:0,0:0:0:0:
276,23,124910,2,0,L|162:75,1,124.999995231629,2|0,1:1|0:0,0:0:0:0:
173,167,125240,1,2,0:1:0:0:
173,167,125351,2,0,L|46:161,1,124.999995231629,8|0,1:2|3:0,0:0:0:0:
221,304,125792,6,0,L|266:186,1,124.999995231629,0|0,1:0|3:0,0:0:0:0:
88,256,126233,2,0,P|108:336|189:342,1,124.999995231629,10|0,1:2|3:0,0:0:0:0:
221,304,126564,1,0,3:0:0:0:
275,380,126674,1,2,1:2:0:0:
407,301,126895,2,0,L|501:215,1,124.999995231629,0|10,0:0|1:2,0:0:0:0:
309,163,127336,1,2,3:2:0:0:
265,187,127446,1,0,3:0:0:0:
221,211,127557,6,0,L|136:115,1,124.999995231629,0|0,1:0|0:0,0:0:0:0:
266,35,127998,1,10,1:2:0:0:
415,55,128218,1,0,0:0:0:0:
415,55,128439,6,0,L|344:86,1,62.4999976158143,6|0,1:2|0:0,0:0:0:0:
309,163,128660,2,0,L|276:234,1,78.1249970197678,0|0,3:0|0:0,0:0:0:0:
323,339,128880,2,0,L|216:317,1,93.7500000000001,14|0,1:2|0:0,0:0:0:0:
149,268,129101,2,0,L|46:302,1,109.374996870756,0|0,3:0|3:0,0:0:0:0:
132,176,129321,5,4,3:2:0:0:
276,234,129542,5,0,0:0:0:0:
346,174,129652,1,0,0:0:0:0:
437,192,129762,1,14,3:2:0:0:
263,215,129983,5,0,0:0:0:0:
346,174,130093,1,0,0:0:0:0:
430,213,130203,1,0,1:0:0:0:
505,57,130424,6,0,L|442:79,1,62.4999976158143,10|0,0:1|0:0,0:0:0:0:
395,77,130645,2,0,L|422:21,1,62.4999976158143,10|0,0:1|0:0,0:0:0:0:
375,0,130865,2,0,L|251:-3,1,124.999995231629,0|0,3:0|1:0,0:0:0:0:
375,0,131307,5,0,0:0:0:0:
377,49,131417,1,0,0:0:0:0:
339,81,131527,1,8,3:2:0:0:
343,181,131748,5,0,0:0:0:0:
294,171,131858,1,0,0:0:0:0:
260,206,131968,1,0,1:0:0:0:
185,138,132189,5,10,0:1:0:0:
54,213,132410,2,0,L|105:334,1,124.999995231629,10|0,0:1|3:0,0:0:0:0:
273,370,132851,5,4,1:0:0:0:
310,285,133071,1,0,3:0:0:0:
463,197,133292,5,12,1:2:0:0:
389,141,133512,1,0,3:0:0:0:
238,54,133733,5,4,1:0:0:0:
258,145,133954,1,0,3:0:0:0:
151,284,134174,5,12,1:2:0:0:
67,244,134395,1,0,3:0:0:0:
113,65,134615,6,0,L|265:51,1,124.999995231629,4|8,1:0|1:3,0:0:0:0:
343,160,135498,2,0,L|463:197,1,124.999995231629,4|8,1:2|1:3,0:0:0:0:
507,320,136160,2,0,L|466:328,1,31.2499988079071,0|0,3:0|3:0,0:0:0:0:
401,380,136380,6,0,B|340:398|283:365|292:319|342:296|321:264|321:264|293:211|279:244|233:230|208:230|189:264|218:376|131:290|52:371|-29:212|97:98|188:213|189:249,1,656.25,6|2,1:0|3:2,0:0:0:0:
208,330,138035,1,2,3:2:0:0:
208,330,138145,2,0,L|228:130,2,187.499992847443,2|2|2,1:2|0:0|0:0,0:0:0:0:
334,247,139027,2,0,L|507:320,2,187.499992847443,2|2|2,1:1|0:1|3:2,0:0:0:0:
226,143,139910,5,2,1:2:0:0:
89,85,140130,1,0,3:0:0:0:
0,203,140351,1,8,3:2:0:0:
137,261,140571,2,0,L|146:195,1,62.4999976158143,2|0,0:0|0:0,0:0:0:0:
104,169,140792,2,0,L|226:143,1,124.999995231629,0|0,1:0|3:0,0:0:0:0:
402,31,141233,6,0,L|279:249,1,249.999990463257,10|0,3:2|1:0,0:0:0:0:
418,193,141895,2,0,L|396:322,1,124.999995231629,2|8,3:2|3:2,0:0:0:0:
315,362,142226,1,0,0:0:0:0:
223,378,142336,1,2,3:2:0:0:
152,319,142446,1,2,3:2:0:0:
156,225,142557,2,0,L|279:248,1,124.999995231629,2|0,1:2|3:0,0:0:0:0:
359,121,142998,2,0,L|236:144,1,124.999995231629,10|0,3:2|3:0,0:0:0:0:
153,6,143439,6,0,L|412:32,1,249.999990463257,6|8,1:2|3:2,0:0:0:0:
110,89,144321,5,2,1:0:0:0:
28,133,144432,1,2,3:2:0:0:
10,224,144542,1,2,3:2:0:0:
46,310,144652,1,2,0:1:0:0:
128,355,144762,6,0,L|172:268,1,62.4999976158143,10|2,3:2|0:0,0:0:0:0:
206,291,144983,2,0,L|250:204,1,62.4999976158143,2|2,3:2|3:2,0:0:0:0:
99,203,145204,6,0,L|162:185,1,62.4999976158143,2|0,1:2|0:0,0:0:0:0:
250,210,145424,1,2,3:1:0:0:
308,136,145535,1,2,0:2:0:0:
233,81,145645,6,0,L|294:107,1,62.4999976158143,10|2,3:2|0:1,0:0:0:0:
343,223,145865,2,0,L|404:249,1,62.4999976158143,2|0,0:2|0:0,0:0:0:0:
471,187,146086,5,2,1:1:0:0:
499,98,146197,1,2,0:2:0:0:
410,72,146307,1,2,3:2:0:0:
410,72,146527,2,0,L|277:109,1,124.999995231629,8|0,3:2|3:0,0:0:0:0:
405,294,146968,6,0,L|156:299,1,249.999990463257,6|8,1:2|3:2,0:0:0:0:
42,200,147630,1,6,3:2:0:0:
42,200,147740,1,0,3:0:0:0:
42,200,147851,2,0,L|60:346,1,124.999995231629,0|2,1:0|0:0,0:0:0:0:
175,140,148292,2,0,P|199:197|175:253,1,124.999995231629,12|0,3:2|3:0,0:0:0:0:
155,299,148623,1,0,3:0:0:0:
179,341,148733,6,0,L|405:294,1,229.99998350525,4|4,0:1|1:2,0:0:0:0:
380,120,150939,6,0,P|464:149|478:238,1,187.5,14|0,1:2|1:0,0:0:0:0:
404,294,151601,1,0,3:0:0:0:
325,245,151821,1,8,1:2:0:0:
284,360,152042,2,0,L|232:332,1,46.875,0|0,3:0|3:0,0:0:0:0:
250,301,152262,6,0,L|210:217,1,93.7500000000001,2|0,1:2|3:0,0:0:0:0:
121,188,152704,2,0,L|148:85,1,93.7500000000001,8|0,1:2|3:0,0:0:0:0:
131,62,153035,1,0,3:0:0:0:
131,62,153145,1,0,1:0:0:0:
319,63,153586,1,8,1:2:0:0:
327,251,154027,6,0,L|271:342,1,93.7500000000001,2|0,1:2|3:0,0:0:0:0:
191,364,154468,2,0,L|43:354,1,140.625,8|0,1:2|3:0,0:0:0:0:
18,334,154910,1,2,1:2:0:0:
0,243,155130,1,0,3:0:0:0:
81,197,155351,1,8,1:2:0:0:
162,240,155571,2,0,L|213:235,1,46.875,2|0,3:2|3:0,0:0:0:0:
240,214,155792,6,0,L|327:251,1,93.7500000000001,0|0,1:0|3:0,0:0:0:0:
414,216,156233,1,8,1:2:0:0:
397,125,156454,1,0,3:0:0:0:
397,125,156564,1,0,3:0:0:0:
397,125,156674,6,0,L|406:75,1,46.875,2|0,1:2|0:0,0:0:0:0:
485,0,156895,2,0,L|458:55,1,62.4999976158143,0|0,1:0|0:0,0:0:0:0:
299,80,157115,2,0,L|366:39,1,78.1249970197678,10|0,1:2|0:0,0:0:0:0:
488,147,157336,2,0,L|397:125,1,93.7500000000001,0|0,1:0|0:0,0:0:0:0:
504,240,157557,5,4,3:2:0:0:
504,240,157777,1,0,0:0:0:0:
455,257,157887,1,0,0:0:0:0:
448,309,157998,1,8,3:2:0:0:
428,230,158218,5,0,0:0:0:0:
405,276,158328,1,0,0:0:0:0:
437,318,158439,1,0,1:0:0:0:
361,371,158660,5,8,0:1:0:0:
250,358,158880,1,8,0:1:0:0:
139,345,159101,2,0,L|125:243,1,93.7500000000001,0|0,3:0|1:0,0:0:0:0:
139,345,159542,6,0,L|157:301,1,46.875
185,259,159762,1,8,3:2:0:0:
250,358,159983,6,0,L|268:314,1,46.875
296,272,160203,1,0,1:0:0:0:
361,371,160424,5,10,0:1:0:0:
407,285,160645,2,0,L|425:241,1,46.2499993648529,10|0,0:1|3:0,0:0:0:0:
453,199,160976,1,0,3:0:0:0:
453,199,161086,1,4,1:2:0:0:
410,107,161307,6,0,L|278:83,1,93.7500000000001,6|0,0:0|3:2,0:0:0:0:
287,2,161748,2,0,L|318:90,1,93.7500000000001,6|0,0:0|0:0,0:0:0:0:
259,162,162189,2,0,L|318:89,1,93.7500000000001,6|0,0:0|3:2,0:0:0:0:
198,33,162630,6,0,P|183:108|65:119,1,187.5,4|0,0:1|3:0,0:0:0:0:
14,72,163292,1,8,1:2:0:0:
58,222,163512,1,4,0:0:0:0:
3,311,163733,6,0,L|139:324,1,93.7500000000001,0|0,1:0|3:0,0:0:0:0:
179,278,164174,1,8,1:2:0:0:
213,311,164285,1,0,1:0:0:0:
291,274,164395,1,0,3:0:0:0:
302,319,164505,1,0,3:0:0:0:
313,364,164615,1,6,1:2:0:0:
443,194,165057,6,0,P|470:276|395:320,1,187.5,14|0,1:2|3:0,0:0:0:0:
313,364,165387,1,0,3:0:0:0:
220,358,165498,1,0,1:0:0:0:
151,225,165718,2,0,L|233:120,1,124.999995231629,0|8,0:0|1:2,0:0:0:0:
394,25,166160,1,0,3:0:0:0:
388,74,166270,1,0,3:0:0:0:
382,123,166380,6,0,L|286:203,1,124.999995231629,0|2,1:0|3:1,0:0:0:0:
394,25,166821,1,8,1:2:0:0:
394,25,166932,2,0,L|330:14,1,62.4999976158143,2|0,0:1|3:0,0:0:0:0:
201,88,167262,2,0,L|61:111,1,124.999995231629,2|0,1:1|0:0,0:0:0:0:
5,180,167593,1,2,0:1:0:0:
5,180,167704,2,0,L|141:129,1,124.999995231629,8|0,1:2|3:0,0:0:0:0:
231,272,168145,6,0,L|267:153,1,124.999995231629,0|0,1:0|3:0,0:0:0:0:
438,180,168586,2,0,P|373:110|327:116,1,124.999995231629,10|0,1:2|3:0,0:0:0:0:
268,153,168917,1,0,3:0:0:0:
315,233,169027,1,2,1:2:0:0:
238,365,169248,2,0,L|103:379,1,124.999995231629,0|10,0:0|1:2,0:0:0:0:
46,219,169689,1,2,3:2:0:0:
93,239,169799,1,0,3:0:0:0:
139,259,169910,6,0,L|122:136,1,124.999995231629,0|0,1:0|0:0,0:0:0:0:
225,27,170351,1,10,1:2:0:0:
350,109,170571,1,0,0:0:0:0:
350,109,170792,6,0,L|293:134,1,62.4999976158143,6|0,1:2|0:0,0:0:0:0:
230,210,171012,2,0,L|302:239,1,78.1249970197678,0|0,3:0|0:0,0:0:0:0:
373,319,171233,2,0,L|409:232,1,93.7500000000001,14|0,1:2|0:0,0:0:0:0:
511,269,171454,2,0,L|483:103,1,109.374996870756,0|0,3:0|3:0,0:0:0:0:
511,70,171674,5,4,3:2:0:0:
370,18,171895,5,0,0:0:0:0:
350,109,172005,1,0,0:0:0:0:
258,122,172115,1,14,3:2:0:0:
394,27,172336,5,0,0:0:0:0:
350,109,172446,1,0,0:0:0:0:
258,98,172556,1,0,1:0:0:0:
123,188,172777,6,0,L|183:217,1,62.4999976158143,10|0,0:1|0:0,0:0:0:0:
231,209,172998,2,0,L|263:274,1,62.4999976158143,10|0,0:1|0:0,0:0:0:0:
302,239,173218,2,0,L|220:368,1,124.999995231629,0|0,3:0|1:0,0:0:0:0:
138,371,173660,5,0,0:0:0:0:
101,338,173770,1,0,0:0:0:0:
51,342,173880,1,8,3:2:0:0:
8,251,174101,5,0,0:0:0:0:
0,202,174211,1,0,0:0:0:0:
28,161,174321,1,0,1:0:0:0:
123,188,174542,5,10,0:1:0:0:
258,265,174762,2,0,L|278:136,1,124.999995231629,10|0,0:1|3:0,0:0:0:0:
397,12,175204,5,4,1:0:0:0:
481,51,175424,1,0,3:0:0:0:
392,203,175645,5,12,1:2:0:0:
366,114,175865,1,0,3:0:0:0:
190,109,176086,5,4,1:0:0:0:
104,144,176307,1,0,3:0:0:0:
177,302,176527,5,12,1:2:0:0:
267,324,176748,1,0,3:0:0:0:
392,203,176968,6,0,L|513:174,1,124.999995231629,4|8,1:0|1:3,0:0:0:0:
379,63,177851,2,0,L|252:41,1,124.999995231629,6|0,1:2|1:0,0:0:0:0:
261,171,178512,2,0,L|251:209,1,31.2499988079071
160,209,178733,6,0,L|177:302,1,93.7500000000001,4|0,1:0|3:0,0:0:0:0:
34,170,179174,6,0,P|-15:304|111:368,1,312.499988079071,14|2,0:0|1:3,0:0:0:0:
248,361,179836,1,0,3:0:0:0:
269,315,179946,1,2,0:3:0:0:
317,302,180057,2,0,L|441:329,1,124.999995231629,8|2,0:0|3:0,0:0:0:0:
428,194,180498,2,0,L|472:76,1,124.999995231629,0|2,1:0|3:2,0:0:0:0:
256,42,180939,5,10,0:0:0:0:
293,127,181049,1,2,0:0:0:0:
198,157,181160,1,2,0:0:0:0:
198,157,181380,6,0,L|317:302,1,187.499992847443,2|2,1:2|0:0,0:0:0:0:
322,209,181821,2,0,L|197:252,1,124.999995231629,8|2,0:0|3:2,0:0:0:0:
184,295,182152,1,0,3:0:0:0:
164,340,182262,2,0,L|66:334,1,93.7500000000001,0|0,1:0|3:0,0:0:0:0:
198,157,182704,6,0,P|55:132|5:267,1,312.499988079071,14|2,0:0|1:3,0:0:0:0:
114,350,183365,1,0,3:0:0:0:
164,340,183476,1,2,0:3:0:0:
184,295,183586,2,0,L|163:171,1,124.999995231629,8|2,0:0|3:0,0:0:0:0:
286,123,184027,2,0,L|361:14,1,124.999995231629,0|2,1:0|3:2,0:0:0:0:
495,163,184468,5,10,0:0:0:0:
405,141,184579,1,2,0:0:0:0:
335,202,184689,1,2,0:0:0:0:
246,384,184910,6,0,P|288:336|289:324,1,62.4999976158143,4|0,1:2|0:0,0:0:0:0:
225,271,185130,2,0,P|203:167|140:126,1,93.7500000000001,4|0,3:2|0:0,0:0:0:0:
286,123,185351,2,0,P|160:67|64:117,1,249.999990463257,12|0,0:2|3:0,0:0:0:0:
67,113,185682,1,0,3:0:0:0:
67,113,185792,2,0,L|39:207,1,93.7500000000001,4|0,1:2|3:0,0:0:0:0:
224,373,186233,6,0,P|247:241|114:259,1,312.499988079071,14|2,0:0|1:3,0:0:0:0:
174,372,186895,1,0,3:0:0:0:
224,373,187005,1,2,0:3:0:0:
274,374,187115,2,0,L|389:325,1,124.999995231629,8|2,0:0|3:0,0:0:0:0:
508,260,187557,2,0,L|386:229,1,124.999995231629,0|2,1:0|3:2,0:0:0:0:
295,130,187998,5,10,0:0:0:0:
334,46,188108,1,2,0:0:0:0:
431,39,188218,1,2,0:0:0:0:
431,39,188439,2,0,L|478:237,1,187.499992847443,2|2,1:2|0:0,0:0:0:0:
508,260,188880,1,8,0:0:0:0:
378,354,189101,6,0,B|330:360|285:317|292:268|292:268|299:233|340:225|298:178|301:153|261:139|217:149|194:186|183:227|232:226|233:188,1,374.999985694885,6|8,3:2|0:0,0:0:0:0:
295,130,189983,1,0,0:0:0:0:
155,60,190204,6,0,P|63:73|26:220,1,249.999990463257,2|8,1:2|1:3,0:0:0:0:
50,248,190755,1,8,1:3:0:0:
99,259,190865,1,6,1:2:0:0:
324,236,191968,5,0,1:0:0:0:
411,203,192189,1,2,3:1:0:0:
440,364,192410,5,2,1:2:0:0:
512,304,192630,1,0,3:0:0:0:
512,304,192740,1,0,3:0:0:0:
512,304,192851,1,6,1:0:0:0:
256,192,193071,12,0,199910,0:0:0:0:
