osu file format v14

[General]
AudioFilename: audio.mp3
AudioLeadIn: 0
PreviewTime: 43672
Countdown: 0
SampleSet: Soft
StackLeniency: 0.3
Mode: 0
LetterboxInBreaks: 0
WidescreenStoryboard: 0

[Editor]
DistanceSpacing: 1
BeatDivisor: 4
GridSize: 16
TimelineZoom: 1

[Metadata]
Title:PERFECT GIRL
TitleUnicode:PERFECT GIRL
Artist:Mitsukasa Ayase (CV: Sawasawa Sawa)
ArtistUnicode:三司あやせ (CV: 沢澤砂羽)
Creator:Deppyforce
Version:EASY
Source:RIDDLE JOKER
Tags:リドルジョーカー galgame eroge yuzusoft ゆずソフト visual novel vn character song full version japanese pop jpop j-pop tanezaki atsumi 種﨑 敦美 shizuku- kazato asa shikibe mayu dogerinoo
BeatmapID:2812973
BeatmapSetID:1358125

[Difficulty]
HPDrainRate:3
CircleSize:6
OverallDifficulty:3.5
ApproachRate:3
SliderMultiplier:0.59999990463257
SliderTickRate:1

[Events]
//Background and Video events
0,0,"1.6x.png",0,0
//Break Periods
2,74815,78470
//Storyboard Layer 0 (Background)
//Storyboard Layer 1 (Fail)
//Storyboard Layer 2 (Pass)
//Storyboard Layer 3 (Foreground)
//Storyboard Layer 4 (Overlay)
//Storyboard Sound Samples

[TimingPoints]
2263,441.176470588235,4,2,1,55,1,0
2704,-100,4,2,1,75,0,0
12630,-100,4,2,1,70,0,0
14395,-100,4,2,2,70,0,0
14615,-100,4,2,2,55,0,0
16380,-100,4,2,1,65,0,0
28512,-100,4,2,1,70,0,0
30057,-100,4,2,1,65,0,0
37336,-100,4,2,1,75,0,1
37998,-100,4,2,1,75,0,0
38218,-100,4,3,2,50,0,0
39211,-100,4,2,1,75,0,1
39762,-100,4,2,1,75,0,0
39983,-100,4,3,2,50,0,0
40865,-100,4,2,1,65,0,0
43733,-100,4,2,1,40,0,0
44174,-100,4,2,1,55,0,0
44615,-100,4,2,1,75,0,0
52777,-100,4,2,3,75,0,0
53218,-100,4,2,1,60,0,0
54542,-100,4,2,3,60,0,0
54983,-100,4,2,1,60,0,0
55204,-100,4,2,1,75,0,0
57189,-100,4,2,1,70,0,0
58733,-100,4,2,1,75,0,0
66895,-100,4,2,3,75,0,0
67336,-100,4,2,1,60,0,0
68660,-100,4,2,3,60,0,0
69101,-100,4,2,1,60,0,0
69321,-100,4,2,1,75,0,0
71307,-100,4,2,2,55,0,0
72851,-100,4,2,1,75,0,0
79248,-100,4,2,1,40,0,0
79910,-100,4,2,1,65,0,0
92042,-100,4,2,1,70,0,0
93586,-100,4,2,1,65,0,0
100865,-100,4,2,1,75,0,1
101527,-100,4,2,1,75,0,0
101748,-100,4,3,2,50,0,0
102740,-100,4,2,1,75,0,1
103292,-100,4,2,1,75,0,0
103512,-100,4,3,2,50,0,0
104395,-100,4,2,1,65,0,0
107262,-100,4,2,1,40,0,0
107704,-100,4,2,1,55,0,0
108145,-100,4,2,1,75,0,0
116307,-100,4,2,3,75,0,0
116748,-100,4,2,1,60,0,0
118071,-100,4,2,3,60,0,0
118512,-100,4,2,1,60,0,0
118733,-100,4,2,1,75,0,0
120718,-100,4,2,1,70,0,0
122262,-100,4,2,1,75,0,0
130424,-100,4,2,3,75,0,0
130865,-100,4,2,1,60,0,0
132189,-100,4,2,3,60,0,0
132630,-100,4,2,1,60,0,0
132851,-100,4,2,1,75,0,0
134836,-100,4,2,2,55,0,0
136160,-100,4,2,1,60,0,0
136380,-100,4,2,1,75,0,0
148733,-100,4,2,1,70,0,0
150498,-100,4,2,2,60,0,0
156674,-100,4,2,1,65,0,0
157557,-100,4,2,1,70,0,0
158660,-100,4,2,3,70,0,0
159101,-100,4,2,1,55,0,0
160424,-100,4,2,3,55,0,0
160865,-100,4,2,1,55,0,0
161086,-100,4,2,1,75,0,0
163071,-100,4,2,1,70,0,0
164615,-100,4,2,1,55,0,0
165057,-100,4,2,1,75,0,0
172777,-100,4,2,3,75,0,0
173218,-100,4,2,1,60,0,0
174542,-100,4,2,3,60,0,0
174983,-100,4,2,1,60,0,0
175204,-100,4,2,1,75,0,0
177189,-100,4,2,2,55,0,0
178733,-100,4,2,1,75,0,0
190865,-100,4,2,1,70,0,0
191086,-100,4,2,1,50,0,0
191968,-100,4,2,1,60,0,0
192410,-100,4,2,1,65,0,0
194395,-100,4,2,1,55,0,0
196160,-100,4,2,1,40,0,0
197924,-100,4,2,1,25,0,0
199910,-100,4,2,1,5,0,0

[Colours]
Combo1 : 236,224,202
Combo2 : 247,187,208
Combo3 : 150,167,205

[HitObjects]
269,267,2262,5,4,1:0:0:0:
318,303,2704,2,0,P|351:248|340:195,1,119.999980926514,14|8,0:0|0:0,0:0:0:0:
375,145,4027,2,0,L|319:113,1,59.999990463257,0|10,1:0|0:0,0:0:0:0:
286,65,4910,2,0,L|236:116,1,59.999990463257,2|8,1:2|0:0,0:0:0:0:
237,167,5792,1,0,1:0:0:0:
177,176,6233,6,0,P|131:146|118:80,1,119.999980926514,14|8,0:0|0:0,0:0:0:0:
142,30,7557,2,0,L|215:24,1,59.999990463257,0|10,1:0|0:0,0:0:0:0:
260,11,8439,1,4,1:2:0:0:
286,65,8880,1,12,0:2:0:0:
343,45,9321,1,4,1:2:0:0:
402,41,9762,6,0,P|437:89|433:155,1,119.999980926514,14|8,0:0|0:0,0:0:0:0:
386,181,11086,2,0,L|382:246,1,59.999990463257,0|10,1:0|0:0,0:0:0:0:
354,294,11968,2,0,L|420:331,1,59.999990463257,2|8,1:2|0:0,0:0:0:0:
429,342,12630,2,0,L|281:365,1,149.999976158142,6|2,3:2|1:2,0:0:0:0:
191,352,14395,1,6,1:2:0:0:
280,365,16380,6,0,P|292:331|290:295,1,59.999990463257,4|8,1:0|3:2,0:0:0:0:
259,257,17262,2,0,L|273:141,2,89.9999856948855,2|2|8,1:1|0:1|3:2,0:0:0:0:
200,238,19027,2,0,L|132:248,1,59.999990463257,2|8,1:2|3:2,0:0:0:0:
81,257,19910,1,0,1:0:0:0:
47,207,20351,1,8,3:2:0:0:
97,172,20792,2,0,L|66:88,1,89.9999856948855,2|2,1:1|0:1,0:0:0:0:
15,55,21895,1,2,3:2:0:0:
93,11,22557,1,2,1:2:0:0:
185,88,23439,6,0,P|216:84|257:106,1,59.999990463257,6|8,1:2|3:2,0:0:0:0:
304,90,24321,2,0,L|291:188,2,89.9999856948855,2|2|8,1:1|0:1|3:2,0:0:0:0:
325,33,26086,2,0,L|401:59,1,59.999990463257,2|8,1:2|3:2,0:0:0:0:
441,44,26968,1,0,1:0:0:0:
476,134,27630,2,0,L|448:260,1,119.999980926514,0|4,0:0|1:2,0:0:0:0:
402,288,28954,1,4,1:2:0:0:
355,325,29395,1,4,1:2:0:0:
308,362,29836,1,4,1:2:0:0:
277,277,30498,5,2,1:2:0:0:
225,246,30939,2,0,P|202:209|171:197,1,59.999990463257,4|0,1:0|1:0,0:0:0:0:
131,220,31821,2,0,L|113:190,1,29.9999952316285,8|2,3:2|3:2,0:0:0:0:
89,179,32262,2,0,L|3:201,2,59.999990463257,0|8|2,1:0|3:2|1:3,0:0:0:0:
129,134,33586,1,8,3:2:0:0:
188,144,34027,6,0,P|216:152|271:159,1,59.999990463257,0|8,1:0|3:2,0:0:0:0:
297,124,34910,1,0,1:0:0:0:
274,37,35571,2,0,L|371:25,1,89.9999856948855,2|8,3:2|3:2,0:0:0:0:
391,37,36454,1,0,3:0:0:0:
478,118,37336,5,6,0:2:0:0:
492,179,37777,1,6,3:2:0:0:
492,179,37998,1,6,1:2:0:0:
391,307,39211,2,0,L|399:258,1,44.9999928474427,6|6,0:2|3:2,0:0:0:0:
404,233,39762,1,6,1:2:0:0:
259,193,40865,6,0,P|206:206|187:237,1,89.9999856948855,4|8,0:1|3:2,0:0:0:0:
218,285,41968,2,0,L|251:293,2,29.9999952316285,6|6|6,1:3|1:3|1:3,0:0:0:0:
196,306,42630,2,0,L|107:317,1,89.9999856948855,6|6,1:3|1:3,0:0:0:0:
4,254,44175,1,2,0:0:0:0:
61,235,44615,1,4,1:0:0:0:
36,180,45057,6,0,P|70:122|131:111,1,119.999980926514,14|8,1:2|1:2,0:0:0:0:
167,145,46380,2,0,L|232:153,1,59.999990463257,0|8,1:0|1:2,0:0:0:0:
220,92,47262,2,0,L|214:32,1,59.999990463257,2|8,1:1|1:2,0:0:0:0:
274,23,48145,1,0,1:0:0:0:
314,69,48586,6,0,P|377:87|386:141,1,119.999980926514,14|8,1:2|1:2,0:0:0:0:
415,122,49689,2,0,L|421:213,1,89.9999856948855,0|10,3:0|1:2,0:0:0:0:
398,267,50792,2,0,L|460:283,1,59.999990463257,6|14,1:2|1:2,0:0:0:0:
492,329,51674,5,4,3:2:0:0:
436,350,52115,1,14,3:2:0:0:
380,371,52557,1,0,1:0:0:0:
307,317,53218,1,0,3:0:0:0:
226,276,53880,1,8,3:2:0:0:
186,321,54321,1,0,1:0:0:0:
146,366,54762,1,10,0:1:0:0:
109,318,55204,6,0,L|37:256,1,89.9999856948855,4|6,1:2|0:0,0:0:0:0:
75,209,56307,1,6,0:0:0:0:
134,219,56748,2,0,P|170:183|144:160,1,89.9999856948855,4|8,0:1|1:2,0:0:0:0:
134,104,57851,2,0,L|73:90,1,59.999990463257,0|8,1:0|1:2,0:0:0:0:
30,50,58733,1,4,1:0:0:0:
78,15,59174,6,0,P|131:22|201:12,1,119.999980926514,14|8,1:2|1:2,0:0:0:0:
231,62,60498,2,0,L|279:105,1,59.999990463257,0|8,1:0|1:2,0:0:0:0:
295,159,61380,2,0,L|352:140,1,59.999990463257,2|8,1:1|1:2,0:0:0:0:
406,113,62262,1,0,1:0:0:0:
442,65,62704,6,0,P|481:93|485:116,2,59.999990463257,10|2|10,1:2|1:2|1:2,0:0:0:0:
427,38,63807,2,0,L|339:84,1,89.9999856948855,2|10,3:2|1:2,0:0:0:0:
352,141,64910,2,0,L|405:170,1,59.999990463257,6|14,1:2|1:2,0:0:0:0:
366,219,65792,5,4,3:2:0:0:
351,277,66233,1,14,3:2:0:0:
336,335,66674,1,0,1:0:0:0:
256,293,67336,1,0,3:0:0:0:
168,312,67998,1,8,3:2:0:0:
143,257,68439,1,0,1:0:0:0:
118,203,68880,1,10,0:1:0:0:
60,225,69321,6,0,L|35:292,1,59.999990463257,4|12,1:0|1:2,0:0:0:0:
59,338,70204,2,0,L|122:351,1,59.999990463257,4|12,1:0|1:2,0:0:0:0:
168,312,71086,1,4,1:0:0:0:
286,293,71968,1,6,1:2:0:0:
370,207,72851,1,4,1:0:0:0:
256,192,73071,12,0,74615,1:0:0:0:
142,177,79910,6,0,P|120:117|121:112,1,59.999990463257,4|8,1:0|3:2,0:0:0:0:
150,72,80792,2,0,L|64:33,2,89.9999856948855,2|2|8,1:1|0:1|3:2,0:0:0:0:
193,28,82557,2,0,L|230:80,1,59.999990463257,2|8,1:2|3:2,0:0:0:0:
286,91,83439,1,0,1:0:0:0:
271,149,83880,1,8,3:2:0:0:
290,205,84321,2,0,L|284:305,1,89.9999856948855,2|2,1:1|0:1,0:0:0:0:
327,336,85424,1,2,3:2:0:0:
416,328,86086,1,2,1:2:0:0:
438,210,86968,6,0,P|478:209|495:195,1,59.999990463257,6|8,1:2|3:2,0:0:0:0:
512,139,87851,2,0,L|522:50,2,89.9999856948855,2|2|8,1:1|0:1|3:2,0:0:0:0:
452,126,89615,2,0,L|395:97,1,59.999990463257,2|8,1:2|3:2,0:0:0:0:
341,118,90498,1,0,1:0:0:0:
276,181,91160,2,0,L|145:184,1,119.999980926514,0|4,0:0|1:2,0:0:0:0:
140,125,92483,1,4,1:2:0:0:
124,67,92924,1,4,1:2:0:0:
108,9,93366,1,4,1:2:0:0:
30,54,94027,5,2,1:2:0:0:
57,107,94468,2,0,P|77:150|72:172,1,59.999990463257,4|0,1:0|1:0,0:0:0:0:
18,180,95351,2,0,L|8:211,1,29.9999952316285,8|2,3:2|3:2,0:0:0:0:
20,237,95792,2,0,L|84:232,2,59.999990463257,0|8|2,1:0|3:2|1:3,0:0:0:0:
33,297,97115,1,8,3:2:0:0:
82,334,97557,6,0,P|118:314|143:309,1,59.999990463257,0|8,1:0|3:2,0:0:0:0:
176,265,98439,1,0,1:0:0:0:
254,310,99101,2,0,L|266:210,1,89.9999856948855,2|8,3:2|3:2,0:0:0:0:
277,193,99983,1,0,3:0:0:0:
249,76,100865,5,6,0:2:0:0:
296,36,101307,1,6,3:2:0:0:
296,36,101527,1,6,1:2:0:0:
451,90,102740,2,0,L|401:102,1,44.9999928474427,6|6,0:2|3:2,0:0:0:0:
378,108,103292,1,6,1:2:0:0:
437,246,104395,6,0,P|381:223|339:220,1,89.9999856948855,4|8,0:1|3:2,0:0:0:0:
301,252,105498,2,0,L|291:281,2,29.9999952316285,6|6|6,1:3|1:3|1:3,0:0:0:0:
273,239,106160,2,0,L|177:227,1,89.9999856948855,6|6,1:3|1:3,0:0:0:0:
166,109,107704,1,2,0:0:0:0:
112,136,108145,1,4,1:0:0:0:
89,80,108586,6,0,P|51:100|31:176,1,119.999980926514,14|8,1:2|1:2,0:0:0:0:
9,227,109910,2,0,L|76:237,1,59.999990463257,0|8,1:0|1:2,0:0:0:0:
44,293,110792,2,0,L|89:348,1,59.999990463257,2|8,1:1|1:2,0:0:0:0:
141,324,111674,1,0,1:0:0:0:
178,370,112115,6,0,P|225:350|231:287,1,119.999980926514,14|8,1:2|1:2,0:0:0:0:
252,266,113218,2,0,L|257:172,1,89.9999856948855,0|10,3:0|1:2,0:0:0:0:
227,123,114321,2,0,L|191:62,1,59.999990463257,6|14,1:2|1:2,0:0:0:0:
235,24,115203,5,4,3:2:0:0:
295,33,115645,1,14,3:2:0:0:
355,42,116086,1,0,1:0:0:0:
419,105,116748,1,0,3:0:0:0:
434,194,117410,1,8,3:2:0:0:
376,212,117851,1,0,1:0:0:0:
318,230,118292,1,10,0:1:0:0:
339,287,118733,6,0,L|241:308,1,89.9999856948855,4|6,1:2|0:0,0:0:0:0:
214,353,119836,1,6,0:0:0:0:
154,348,120277,2,0,P|128:328|136:267,1,89.9999856948855,4|8,0:1|1:2,0:0:0:0:
184,249,121380,2,0,L|175:185,1,59.999990463257,0|8,1:0|1:2,0:0:0:0:
150,135,122262,1,4,1:0:0:0:
192,92,122704,6,0,P|174:48|98:27,1,119.999980926514,14|8,1:2|1:2,0:0:0:0:
50,15,124027,2,0,L|16:69,1,59.999990463257,0|8,1:0|1:2,0:0:0:0:
56,113,124910,2,0,L|116:125,1,59.999990463257,2|8,1:1|1:2,0:0:0:0:
139,180,125792,1,0,1:0:0:0:
195,204,126233,6,0,P|203:239|222:251,2,59.999990463257,10|2|10,1:2|1:2|1:2,0:0:0:0:
222,192,127336,2,0,L|280:113,1,89.9999856948855,2|10,3:2|1:2,0:0:0:0:
332,141,128439,2,0,L|347:204,1,59.999990463257,6|14,1:2|1:2,0:0:0:0:
394,237,129321,5,4,3:2:0:0:
365,291,129762,1,14,3:2:0:0:
336,345,130204,1,0,1:0:0:0:
248,366,130865,1,0,3:0:0:0:
169,322,131527,1,8,3:2:0:0:
129,276,131968,1,0,1:0:0:0:
89,230,132410,1,10,0:1:0:0:
33,206,132851,6,0,L|47:136,1,59.999990463257,4|12,1:0|1:2,0:0:0:0:
82,98,133733,2,0,L|23:61,1,59.999990463257,4|12,1:0|1:2,0:0:0:0:
10,9,134615,1,4,1:0:0:0:
130,5,135498,1,4,1:2:0:0:
234,63,136380,2,0,P|289:127|337:274,1,239.999961853028,6|2,1:0|1:2,0:0:0:0:
378,316,138586,6,0,L|347:367,2,59.999990463257,8|2|8,3:2|1:1|3:2,0:0:0:0:
430,287,139910,2,0,L|517:257,1,89.9999856948855,2|2,1:2|0:0,0:0:0:0:
497,233,140792,1,0,1:0:0:0:
449,195,141233,6,0,L|440:126,1,59.999990463257,10|0,3:2|1:0,0:0:0:0:
400,91,142115,2,0,L|403:28,1,59.999990463257,8|2,3:2|1:2,0:0:0:0:
342,35,142998,1,10,3:2:0:0:
290,67,143439,6,0,L|184:144,1,119.999980926514,6|2,1:2|1:0,0:0:0:0:
133,130,144762,1,10,3:2:0:0:
94,175,145204,1,2,1:2:0:0:
138,217,145645,1,10,3:2:0:0:
130,276,146086,1,2,1:1:0:0:
186,296,146527,1,8,3:2:0:0:
222,343,146968,6,0,L|316:320,1,89.9999856948855,6|6,1:2|3:2,0:0:0:0:
321,293,147851,1,0,1:0:0:0:
378,277,148292,2,0,P|394:244|389:209,1,59.999990463257,12|4,3:2|0:1,0:0:0:0:
222,343,150498,5,4,1:2:0:0:
186,296,150939,2,0,P|153:280|145:252,1,59.999990463257,14|0,1:2|1:0,0:0:0:0:
190,218,151821,1,8,1:2:0:0:
135,192,152262,2,0,L|76:181,2,59.999990463257,2|8|0,1:2|1:2|1:0,0:0:0:0:
190,218,153586,1,8,1:2:0:0:
225,169,154027,6,0,L|273:130,1,59.999990463257,2|8,1:2|1:2,0:0:0:0:
297,76,154910,2,0,L|363:95,1,59.999990463257,2|8,1:2|1:2,0:0:0:0:
412,76,155792,2,0,L|422:142,1,59.999990463257,0|8,1:0|1:2,0:0:0:0:
470,168,156674,1,2,1:2:0:0:
441,220,157115,1,10,1:2:0:0:
500,231,157557,6,0,L|525:288,2,59.999990463257,4|8|0,3:2|3:2|1:0,0:0:0:0:
441,220,158880,1,8,0:1:0:0:
399,263,159321,2,0,L|336:283,2,59.999990463257,0|8|0,1:0|3:2|1:0,0:0:0:0:
441,220,160645,1,10,0:1:0:0:
466,165,161086,6,0,L|380:129,1,89.9999856948855,4|6,1:2|0:0,0:0:0:0:
331,160,162189,1,6,0:0:0:0:
276,134,162630,2,0,P|255:95|207:100,1,89.9999856948855,4|8,0:1|1:2,0:0:0:0:
191,151,163733,1,0,1:0:0:0:
214,207,164174,1,8,1:2:0:0:
158,230,164615,1,6,1:2:0:0:
103,203,165057,6,0,P|75:167|67:85,1,119.999980926514,14|8,1:2|1:2,0:0:0:0:
48,37,166380,2,0,L|113:22,1,59.999990463257,0|8,1:0|1:2,0:0:0:0:
166,31,167262,2,0,L|217:65,1,59.999990463257,2|8,1:1|1:2,0:0:0:0:
275,74,168145,1,0,1:0:0:0:
276,134,168586,6,0,P|277:182|262:195,2,59.999990463257,10|2|10,1:2|1:2|1:2,0:0:0:0:
245,134,169689,2,0,L|161:171,1,89.9999856948855,2|10,3:2|1:2,0:0:0:0:
158,230,170792,2,0,L|218:251,1,59.999990463257,6|14,1:2|1:2,0:0:0:0:
227,310,171674,5,4,3:2:0:0:
288,299,172115,1,14,3:2:0:0:
349,288,172557,1,0,1:0:0:0:
426,334,173218,1,0,3:0:0:0:
463,252,173880,1,8,3:2:0:0:
420,209,174321,1,0,1:0:0:0:
377,166,174762,1,10,0:1:0:0:
394,108,175204,6,0,L|459:87,1,59.999990463257,4|12,1:0|1:2,0:0:0:0:
493,133,176086,2,0,L|475:201,1,59.999990463257,4|12,1:0|1:2,0:0:0:0:
420,209,176968,1,4,1:0:0:0:
301,180,177851,1,6,1:2:0:0:
211,263,178733,1,4,1:0:0:0:
180,314,179174,6,0,P|128:316|98:257,1,119.999980926514,14|8,0:0|0:0,0:0:0:0:
134,214,180498,2,0,L|114:154,1,59.999990463257,0|10,1:0|0:0,0:0:0:0:
62,128,181380,2,0,L|105:71,1,59.999990463257,2|8,1:2|0:0,0:0:0:0:
105,20,182262,1,0,1:0:0:0:
164,9,182704,6,0,P|220:28|238:87,1,119.999980926514,14|8,0:0|0:0,0:0:0:0:
300,72,184027,2,0,L|305:145,1,59.999990463257,0|10,1:0|0:0,0:0:0:0:
364,147,184910,1,4,1:2:0:0:
343,205,185351,1,12,0:2:0:0:
376,254,185792,1,4,1:2:0:0:
323,282,186233,6,0,P|345:325|418:348,1,119.999980926514,14|8,0:0|0:0,0:0:0:0:
467,328,187557,2,0,L|508:282,1,59.999990463257,0|10,1:0|0:0,0:0:0:0:
454,249,188439,2,0,L|429:182,1,59.999990463257,2|8,1:2|0:0,0:0:0:0:
406,207,189101,2,0,L|491:79,1,149.999976158142,6|2,3:2|1:2,0:0:0:0:
399,88,190865,1,6,1:2:0:0:
268,161,191968,2,0,L|229:165,1,29.9999952316285,0|2,1:0|3:1,0:0:0:0:
212,147,192410,1,2,1:2:0:0:
184,201,192851,1,6,1:0:0:0:
256,192,193071,12,0,199910,0:0:0:0:
