osu file format v14

[General]
AudioFilename: audio.mp3
AudioLeadIn: 0
PreviewTime: 48248
Countdown: 1
SampleSet: Soft
StackLeniency: 0.7
Mode: 0
LetterboxInBreaks: 0
WidescreenStoryboard: 1

[Editor]
Bookmarks: 19515,25219,31135,33353,33459,33670,35571,35888,35994,36417,36628,36839,37050,37262,37473,37684,37895,38107,38529,40853,41064,41276,41909,49093,49515,49726,49938,50360,50571,55853,57755,57860,57966,58388,61769,61980,62614,63036,63248,63459,63881,64093,65994,67262,68318,68529,71064,71276,71487,71698,71909,74233,75501,75712,79938,80994,82050,82684,82895,84374,84586,84797,85008,85219,85431,85853
DistanceSpacing: 1
BeatDivisor: 2
GridSize: 4
TimelineZoom: 1.1

[Metadata]
Title:Akekure Nikki
TitleUnicode:明け暮れ日記
Artist:Mitsuhiro, Masuda Toshiki
ArtistUnicode:市来光弘&増田俊樹
Creator:nyax132
Version:Hard
Source:
Tags:
BeatmapID:1453281
BeatmapSetID:676364

[Difficulty]
HPDrainRate:6
CircleSize:4
OverallDifficulty:6
ApproachRate:7
SliderMultiplier:2.00000000596046
SliderTickRate:1

[Events]
//Background and Video events
0,0,"gamersky_06origin_11_20165514426D2.jpg",0,0
//Break Periods
//Storyboard Layer 0 (Background)
//Storyboard Layer 1 (Fail)
//Storyboard Layer 2 (Pass)
//Storyboard Layer 3 (Foreground)
//Storyboard Sound Samples

[TimingPoints]
79,422.535211267606,4,2,2,30,1,0
924,-133.333333333333,4,2,2,30,0,0
1769,-100,4,2,2,85,0,0
8107,-100,4,2,2,10,0,0
8265,-100,4,2,2,70,0,0
35571,-111.111111111111,4,2,2,70,0,0
38529,-111.111111111111,4,2,2,5,0,0
38635,-111.111111111111,4,2,2,70,0,0
41909,-111.111111111111,4,2,2,5,0,0
42015,-111.111111111111,4,2,2,70,0,0
47614,-111.111111111111,4,2,2,75,0,0
47931,-111.111111111111,4,2,2,80,0,0
48248,-133.333333333333,4,2,2,80,0,0
48459,-133.333333333333,4,2,2,5,0,0
48670,-133.333333333333,4,2,2,80,0,0
49093,-83.3333333333333,4,2,2,85,0,1
61769,-83.3333333333333,4,2,2,80,0,0
62191,-50,4,2,2,80,0,0
62614,-83.3333333333333,4,2,2,80,0,1
76135,-100,4,2,2,80,0,0
78353,-100,4,2,2,5,0,0
78564,-133.333333333333,4,2,2,70,0,0
79515,-90.9090909090909,4,2,2,80,0,0
87860,-90.9090909090909,4,2,2,0,0,0

[HitObjects]
80,160,924,6,0,P|120:128|216:128,2,150.000006169081
76,260,1980,1,0,0:0:0:0:
76,260,2191,2,0,L|176:292,1,100.000000298023,8|0,0:0|0:0,0:0:0:0:
268,320,2614,2,0,P|332:336|396:328,1,100.000000298023
408,316,2931,1,0,0:0:0:0:
444,272,3036,2,0,P|464:212|464:164,1,100.000000298023,8|0,0:0|0:0,0:0:0:0:
328,48,3459,6,0,L|344:160,1,100.000000298023
248,176,3881,2,8,L|240:284,1,100.000000298023,8|0,0:0|0:0,0:0:0:0:
212,344,4304,2,0,P|156:360|12:344,2,200.000000596046,0|8|0,0:0|0:0|0:0,0:0:0:0:
220,144,5571,6,0,B|224:256|224:256|280:272|296:332,1,200.000000596046,8|0,0:0|0:0,0:0:0:0:
384,344,6205,2,0,P|448:352|492:348,2,100.000000298023,0|8|0,0:0|0:0|0:0,0:0:0:0:
356,248,6839,6,0,L|464:220,1,100.000000298023
372,160,7262,2,0,L|268:128,1,100.000000298023,8|0,0:0|0:0,0:0:0:0:
176,144,7684,1,0,0:0:0:0:
12,260,8107,1,4,0:0:0:0:
28,60,8529,6,0,P|84:52|240:64,1,200.000000596046,0|8,0:0|0:0,0:0:0:0:
304,128,9163,1,0,0:0:0:0:
304,128,9374,2,0,P|307:176|304:232,1,100.000000298023
216,276,9797,2,0,P|136:284|96:272,1,100.000000298023,8|0,0:0|0:0,0:0:0:0:
304,340,10219,6,0,P|364:336|448:352,1,100.000000298023
412,240,10642,2,0,P|400:176|408:120,1,100.000000298023,8|0,0:0|0:0,0:0:0:0:
476,76,11064,2,0,L|492:28,2,50.0000001490115
380,64,11487,2,0,P|316:76|260:68,1,100.000000298023,8|0,0:0|0:0,0:0:0:0:
188,44,11909,6,0,B|132:28|76:48|44:124|12:48|-24:64,1,200.000000596046,0|8,0:0|0:0,0:0:0:0:
92,92,12543,1,0,0:0:0:0:
144,176,12755,2,0,P|152:252|152:284,1,100.000000298023
52,280,13177,2,0,P|48:344|52:384,1,100.000000298023,8|0,0:0|0:0,0:0:0:0:
148,360,13600,6,0,P|208:360|216:228,2,200.000000596046,0|8|0,0:0|0:0|0:0,0:0:0:0:
248,348,14656,1,0,0:0:0:0:
348,356,14867,2,0,P|416:360|456:344,1,100.000000298023,8|0,0:0|0:0,0:0:0:0:
480,256,15290,2,0,P|468:200|496:48,1,200.000000596046,0|8,0:0|0:0,0:0:0:0:
400,108,15924,1,0,0:0:0:0:
308,144,16135,2,0,P|320:216|296:348,1,200.000000596046,0|8,0:0|0:0,0:0:0:0:
204,312,16769,2,0,P|152:300|92:312,2,100.000000298023
300,340,17402,2,0,P|360:360|400:360,1,100.000000298023,8|0,0:0|0:0,0:0:0:0:
496,348,17825,1,0,0:0:0:0:
400,172,18248,6,0,L|380:280,1,100.000000298023,8|0,0:0|0:0,0:0:0:0:
312,196,18670,2,0,P|336:124|472:104,1,200.000000596046,0|8,0:0|0:0,0:0:0:0:
348,72,19304,1,0,0:0:0:0:
256,28,19515,2,0,P|196:0|148:0,1,100.000000298023
124,28,19832,1,0,0:0:0:0:
100,72,19938,2,0,P|88:136|88:192,1,100.000000298023,8|0,0:0|0:0,0:0:0:0:
256,192,20360,12,8,21628,0:0:0:0:
156,220,21839,5,0,0:0:0:0:
156,220,22050,2,0,P|216:208|256:184,1,100.000000298023
336,140,22473,2,0,P|420:132|452:140,1,100.000000298023,8|0,0:0|0:0,0:0:0:0:
504,212,22895,1,0,0:0:0:0:
420,268,23107,2,0,L|400:320,1,50.0000001490115
356,328,23318,2,0,P|288:332|240:308,1,100.000000298023,8|0,0:0|0:0,0:0:0:0:
176,268,23740,6,0,P|104:244|-24:256,2,200.000000596046,0|8|0,0:0|0:0|0:0,0:0:0:0:
260,212,24797,1,0,0:0:0:0:
260,212,25008,1,8,0:0:0:0:
172,164,25219,1,0,0:0:0:0:
172,164,25431,6,0,L|168:52,1,100.000000298023
84,120,25853,2,0,L|80:228,1,100.000000298023,8|0,0:0|0:0,0:0:0:0:
140,300,26276,1,0,0:0:0:0:
228,348,26487,2,0,L|288:348,1,50.0000001490115
328,348,26698,2,0,P|380:324|400:268,1,100.000000298023,8|0,0:0|0:0,0:0:0:0:
400,188,27121,6,0,P|400:104|460:0,2,200.000000596046,0|8|0,0:0|0:0|0:0,0:0:0:0:
300,192,28177,1,0,0:0:0:0:
200,192,28388,2,0,L|76:192,1,100.000000298023,8|0,0:0|0:0,0:0:0:0:
168,268,28811,6,0,P|180:324|176:372,1,100.000000298023
276,344,29233,2,0,P|268:284|276:244,1,100.000000298023,8|0,0:0|0:0,0:0:0:0:
312,148,29656,2,0,L|296:12,2,100.000000298023,0|0|8,0:0|0:0|0:0,0:0:0:0:
372,228,30290,1,0,0:0:0:0:
444,288,30501,6,0,L|416:388,1,100.000000298023
376,364,30818,1,0,0:0:0:0:
328,372,30924,2,0,P|272:360|220:356,1,100.000000298023,8|0,0:0|0:0,0:0:0:0:
128,364,31346,1,0,0:0:0:0:
48,304,31557,1,8,0:0:0:0:
48,304,31769,1,8,0:0:0:0:
64,204,31980,1,0,0:0:0:0:
152,156,32191,6,0,P|208:144|308:160,1,150.000000447035
344,180,32614,2,0,P|408:188|448:176,1,100.000000298023,8|0,0:0|0:0,0:0:0:0:
364,240,33036,1,0,0:0:0:0:
324,332,33248,2,0,L|264:332,1,50.0000001490115
224,340,33459,2,0,P|168:340|112:348,1,100.000000298023,8|0,0:0|0:0,0:0:0:0:
152,228,33881,6,0,P|216:232|360:220,2,200.000000596046,0|8|0,0:0|0:0|0:0,0:0:0:0:
16,80,35149,1,8,0:0:0:0:
184,140,35571,6,0,P|252:152|320:136,1,134.999996282458
348,172,35994,2,0,P|348:236|364:292,1,89.9999975216388
404,336,36417,1,0,0:0:0:0:
316,356,36628,2,0,P|272:368|216:368,2,89.9999975216388,0|0|8,0:0|0:0|0:0,0:0:0:0:
176,264,37262,6,0,P|156:316|148:360,1,89.9999975216388,8|0,0:0|0:0,0:0:0:0:
236,144,37684,2,0,P|252:200|260:248,1,89.9999975216388
176,264,38107,2,0,L|-8:264,1,179.999995043278
120,136,38952,6,0,L|296:136,1,134.999996282458
296,156,39374,2,0,P|332:208|344:248,1,89.9999975216388
340,324,39797,1,0,0:0:0:0:
424,296,40008,2,0,P|480:280|516:260,2,89.9999975216388,0|0|8,0:0|0:0|0:0,0:0:0:0:
340,324,40642,6,0,P|276:344|248:364,1,89.9999975216388,8|0,0:0|0:0,0:0:0:0:
176,320,41064,2,0,P|180:260|176:220,1,89.9999975216388
176,140,41487,2,0,P|156:72|40:32,1,179.999995043278,0|8,0:0|0:0,0:0:0:0:
148,188,42332,6,0,P|204:192|244:184,1,89.9999975216388
384,136,42755,2,0,P|444:136|484:140,1,89.9999975216388,8|0,0:0|0:0,0:0:0:0:
420,208,43177,2,0,P|356:208|308:132,1,134.999996282458
292,116,43600,2,0,L|256:28,1,89.9999975216388,8|0,0:0|0:0,0:0:0:0:
188,88,44022,6,0,L|240:212,1,134.999996282458
252,256,44445,2,0,P|252:336|236:372,1,89.9999975216388,8|0,0:0|0:0,0:0:0:0:
176,288,44867,2,0,P|176:224|256:172,1,134.999996282458
272,176,45290,2,0,P|352:176|376:176,1,89.9999975216388,8|0,0:0|0:0,0:0:0:0:
428,236,45712,5,8,0:0:0:0:
428,236,45924,1,0,0:0:0:0:
360,292,46135,1,8,0:0:0:0:
360,292,46346,1,0,0:0:0:0:
272,284,46557,2,0,P|224:280|172:288,2,89.9999975216388,8|0|8,0:0|0:0|0:0,0:0:0:0:
312,204,47191,1,0,0:0:0:0:
232,164,47402,6,0,L|148:176,1,44.9999987608194,8|0,0:0|0:0,0:0:0:0:
144,164,47614,2,0,L|100:152,1,44.9999987608194,8|0,0:0|0:0,0:0:0:0:
56,164,47825,2,0,L|8:168,1,44.9999987608194,8|0,0:0|0:0,0:0:0:0:
8,124,48036,2,0,L|64:132,1,44.9999987608194,8|0,0:0|0:0,0:0:0:0:
92,96,48248,6,0,P|132:72|224:72,1,112.50000462681
232,72,48670,2,0,P|288:88|364:52,1,112.50000462681,8|0,0:0|0:0,0:0:0:0:
388,112,49093,6,0,P|392:192|392:264,1,119.999996695518
296,304,49515,2,0,P|232:316|128:304,1,119.999996695518,8|0,0:0|0:0,0:0:0:0:
80,248,49938,2,0,B|56:176|84:120|84:120|148:92,1,179.999995043277
188,108,50360,2,0,P|264:120|320:96,1,119.999996695518,8|0,0:0|0:0,0:0:0:0:
408,44,50783,5,2,0:0:0:0:
448,156,50994,2,2,L|440:200,2,59.9999983477592,2|2|10,0:0|0:0|0:0,0:0:0:0:
448,156,51417,1,2,0:0:0:0:
448,156,51628,2,0,P|372:176|328:204,1,119.999996695518,2|0,0:0|0:0,0:0:0:0:
280,304,52050,2,0,P|226:332|124:332,1,119.999996695518,8|0,0:0|0:0,0:0:0:0:
80,256,52473,6,0,L|260:220,1,179.999995043277
316,208,52895,2,0,P|364:156|380:84,1,119.999996695518,8|0,0:0|0:0,0:0:0:0:
328,0,53318,1,0,0:0:0:0:
212,28,53529,2,0,P|172:56|132:120,2,119.999996695518,0|8|0,0:0|0:0|0:0,0:0:0:0:
300,112,54163,5,2,0:0:0:0:
212,192,54374,2,2,L|156:240,2,59.9999983477592,2|2|10,0:0|0:0|0:0,0:0:0:0:
212,192,54797,1,2,0:0:0:0:
212,192,55008,2,0,L|316:272,1,119.999996695518,2|0,0:0|0:0,0:0:0:0:
428,260,55431,2,0,L|332:184,1,119.999996695518,8|0,0:0|0:0,0:0:0:0:
248,100,55853,6,0,P|156:80|48:120,1,179.999995043277
48,156,56276,2,0,P|44:240|48:284,1,119.999996695518,8|0,0:0|0:0,0:0:0:0:
156,324,56698,2,0,P|216:336|360:308,1,179.999995043277
376,276,57121,2,0,P|384:188|360:112,1,119.999996695518,8|0,0:0|0:0,0:0:0:0:
304,64,57543,5,2,0:0:0:0:
184,64,57755,2,2,L|96:60,2,59.9999983477592,2|2|10,0:0|0:0|0:0,0:0:0:0:
184,64,58177,1,2,0:0:0:0:
184,64,58388,2,0,L|180:184,1,119.999996695518,2|0,0:0|0:0,0:0:0:0:
292,224,58811,2,0,L|296:80,1,119.999996695518,8|0,0:0|0:0,0:0:0:0:
384,184,59233,6,0,P|380:260|276:336,1,179.999995043277
248,332,59656,2,0,P|168:328|116:336,1,119.999996695518,8|0,0:0|0:0,0:0:0:0:
28,268,60079,1,0,0:0:0:0:
92,164,60290,2,0,P|96:92|96:64,2,59.9999983477592,0|0|8,0:0|0:0|0:0,0:0:0:0:
92,164,60712,1,0,0:0:0:0:
92,164,60924,6,0,B|160:192|224:192|224:192|240:132|316:120,1,239.999993391037,0|8,0:0|0:0,0:0:0:0:
420,132,61557,1,0,0:0:0:0:
328,208,61769,2,0,L|344:328,1,119.999996695518
160,248,62191,2,0,L|176:44,1,200.000000596046,8|0,0:0|0:0,0:0:0:0:
72,108,62614,6,0,P|124:144|252:136,1,179.999995043277
296,128,63036,2,0,L|416:92,1,119.999996695518,8|0,0:0|0:0,0:0:0:0:
416,212,63459,2,0,L|232:272,1,179.999995043277
188,284,63881,2,0,P|112:312|64:352,1,119.999996695518,8|0,0:0|0:0,0:0:0:0:
196,372,64304,5,2,0:0:0:0:
112,232,64515,2,2,L|56:184,2,59.9999983477592,2|2|10,0:0|0:0|0:0,0:0:0:0:
112,232,64938,1,2,0:0:0:0:
112,232,65149,2,0,P|180:208|224:172,1,119.999996695518,2|0,0:0|0:0,0:0:0:0:
308,104,65571,2,0,P|376:64|452:48,1,119.999996695518,8|0,0:0|0:0,0:0:0:0:
416,172,65994,6,0,P|352:220|240:248,1,179.999995043277
200,272,66417,2,0,P|136:304|104:348,1,119.999996695518,8|0,0:0|0:0,0:0:0:0:
60,232,66839,2,0,P|120:204|160:152,2,119.999996695518,0|0|8,0:0|0:0|0:0,0:0:0:0:
88,116,67473,1,0,0:0:0:0:
88,116,67684,6,2,P|140:88|208:100,1,119.999996695518
292,168,68107,2,2,P|356:184|416:156,1,119.999996695518,10|2,0:0|0:0,0:0:0:0:
492,84,68529,1,2,0:0:0:0:
372,88,68740,1,0,0:0:0:0:
284,168,68952,2,0,P|244:232|240:300,1,119.999996695518,8|0,0:0|0:0,0:0:0:0:
348,224,69374,6,0,P|376:152|292:88,1,179.999995043277
248,76,69797,2,0,L|116:80,1,119.999996695518,8|0,0:0|0:0,0:0:0:0:
56,176,70219,2,0,P|48:260|108:348,1,179.999995043277
156,352,70642,2,0,L|280:340,1,119.999996695518,8|0,0:0|0:0,0:0:0:0:
336,236,71064,5,2,0:0:0:0:
336,236,71276,2,2,L|404:216,2,59.9999983477592
336,236,71698,1,2,0:0:0:0:
336,236,71909,2,0,B|316:176|356:132|356:132|256:116|276:28,1,239.999993391037,2|8,0:0|0:0,0:0:0:0:
164,108,72543,1,0,0:0:0:0:
64,172,72755,6,0,L|92:352,1,179.999995043277
152,356,73177,2,0,P|228:368|276:352,1,119.999996695518,8|0,0:0|0:0,0:0:0:0:
368,292,73600,1,0,0:0:0:0:
368,292,73811,2,0,L|420:280,2,59.9999983477592,0|0|8,0:0|0:0|0:0,0:0:0:0:
368,292,74233,1,0,0:0:0:0:
368,292,74445,6,0,P|344:204|316:148,1,119.999996695518
248,92,74867,2,0,P|176:40|128:24,1,119.999996695518,8|0,0:0|0:0,0:0:0:0:
28,44,75290,1,0,0:0:0:0:
120,124,75501,1,6,0:0:0:0:
120,124,75712,1,6,0:0:0:0:
256,192,76135,12,0,78459,0:0:0:0:
44,152,78670,6,0,B|160:64|152:192|344:108,1,300.000012338161
288,216,79726,1,0,0:0:0:0:
184,252,79938,2,0,L|72:252,1,110.000003684759,8|0,0:0|0:0,0:0:0:0:
76,144,80360,1,0,0:0:0:0:
180,104,80571,2,0,L|172:40,2,55.0000018423795,0|0|8,0:0|0:0|0:0,0:0:0:0:
180,104,80994,1,0,0:0:0:0:
180,104,81205,6,0,L|336:104,1,110.000003684759
396,140,81628,2,0,P|460:168|488:208,1,110.000003684759,8|0,0:0|0:0,0:0:0:0:
440,300,82050,2,0,P|396:348|220:356,2,220.000007369518,0|8|0,0:0|0:0|0:0,0:0:0:0:
260,172,83318,6,0,B|180:92|140:224|28:152,1,220.000007369518
124,80,83952,2,0,P|48:68|-4:92,2,110.000003684759,0|8|0,0:0|0:0|0:0,0:0:0:0:
196,164,84586,2,0,P|216:232|212:296,1,110.000003684759
324,296,85008,2,0,P|320:236|344:176,1,110.000003684759,8|0,0:0|0:0,0:0:0:0:
404,100,85431,1,0,0:0:0:0:
464,312,85853,1,2,0:0:0:0:
256,192,86276,12,0,87966,0:0:0:0:
