osu file format v14

[General]
AudioFilename: audio.mp3
AudioLeadIn: 0
PreviewTime: 48248
Countdown: 1
SampleSet: Soft
StackLeniency: 0.7
Mode: 0
LetterboxInBreaks: 0
WidescreenStoryboard: 1

[Editor]
Bookmarks: 19515,25219,31135,33353,33459,33670,35571,35888,35994,36417,36628,36839,37050,37262,37473,37684,37895,38107,38529,40853,41064,41276,41909,49093,49515,49726,49938,50360,50571,57860,57966,58388,60501,61769,61980,62614,63036,63248,63459,63881,64093,65994,67262,68318,68529,71064,71276,71487,71698,71909,74233,75501,75712,79938,80994,82050,82684,82895,84374,84586,84797,85008,85219,85431,85853
DistanceSpacing: 1.1
BeatDivisor: 4
GridSize: 4
TimelineZoom: 1.7

[Metadata]
Title:Akekure Nikki
TitleUnicode:明け暮れ日記
Artist:Mitsuhiro, Masuda Toshiki
ArtistUnicode:市来光弘&増田俊樹
Creator:nyax132
Version:Easy
Source:
Tags:
BeatmapID:1430549
BeatmapSetID:676364

[Difficulty]
HPDrainRate:3
CircleSize:3
OverallDifficulty:3.3
ApproachRate:3.5
SliderMultiplier:0.9
SliderTickRate:1

[Events]
//Background and Video events
0,0,"gamersky_06origin_11_20165514426D2.jpg",0,0
//Break Periods
2,75914,78137
//Storyboard Layer 0 (Background)
//Storyboard Layer 1 (Fail)
//Storyboard Layer 2 (Pass)
//Storyboard Layer 3 (Foreground)
//Storyboard Sound Samples

[TimingPoints]
81,422.535211267606,4,2,2,30,1,0
924,-100,4,2,2,30,0,0
1769,-100,4,2,2,85,0,0
8107,-100,4,2,2,10,0,0
8265,-100,4,2,2,70,0,0
35571,-100,4,2,2,70,0,0
38529,-100,4,2,2,5,0,0
38635,-100,4,2,2,70,0,0
41909,-100,4,2,2,5,0,0
42015,-100,4,2,2,70,0,0
47614,-100,4,2,2,75,0,0
47931,-100,4,2,2,80,0,0
48248,-100,4,2,2,80,0,0
49095,-100,4,2,2,85,0,1
61771,-100,4,2,2,80,0,0
62191,-100,4,2,2,80,0,0
62616,-100,4,2,2,80,0,1
76137,-100,4,2,2,80,0,0
77825,-100,4,2,2,5,0,0
77931,-100,4,2,2,80,0,0
78353,-100,4,2,2,5,0,0
78564,-100,4,2,2,70,0,0
79515,-100,4,2,2,80,0,0
87860,-100,4,2,2,0,0,0

[HitObjects]
96,40,1771,6,0,L|80:164,1,90
184,144,2616,2,0,L|188:248,1,90
272,284,3461,2,0,L|268:376,2,90
280,184,4728,5,0,0:0:0:0:
284,84,5151,2,0,P|260:44|224:20,1,90
132,60,5996,2,0,L|120:164,1,90
40,204,6841,2,0,L|48:300,1,90
124,356,7686,1,0,0:0:0:0:
320,352,8531,6,0,L|316:244,1,90,0|8,0:0|0:0,0:0:0:0:
228,216,9376,2,0,L|260:128,1,90,0|8,0:0|0:0,0:0:0:0:
220,44,10221,2,0,L|320:24,1,90,0|8,0:0|0:0,0:0:0:0:
408,24,11066,1,0,0:0:0:0:
492,76,11489,1,8,0:0:0:0:
484,192,11911,6,0,L|496:300,1,90,0|8,0:0|0:0,0:0:0:0:
424,352,12757,2,0,P|368:376|324:368,1,90,0|8,0:0|0:0,0:0:0:0:
252,332,13602,2,0,L|148:336,1,90,0|8,0:0|0:0,0:0:0:0:
64,356,14447,1,0,0:0:0:0:
20,268,14869,1,8,0:0:0:0:
44,172,15292,6,0,L|52:72,1,90,0|8,0:0|0:0,0:0:0:0:
144,116,16137,2,0,L|212:32,1,90,0|8,0:0|0:0,0:0:0:0:
300,48,16982,2,0,P|328:84|340:144,2,90,0|8|0,0:0|0:0|0:0,0:0:0:0:
240,128,18250,5,8,0:0:0:0:
192,212,18672,2,0,L|200:320,1,90,0|8,0:0|0:0,0:0:0:0:
284,348,19517,2,0,P|332:360|376:352,1,90,0|8,0:0|0:0,0:0:0:0:
468,328,20362,2,0,L|448:236,1,90,0|8,0:0|0:0,0:0:0:0:
420,148,21207,1,0,0:0:0:0:
264,76,22052,6,0,L|248:196,1,90,0|8,0:0|0:0,0:0:0:0:
196,248,22897,2,0,L|188:352,1,90,0|8,0:0|0:0,0:0:0:0:
100,292,23742,2,0,L|88:184,1,90,0|8,0:0|0:0,0:0:0:0:
104,108,24588,1,0,0:0:0:0:
164,36,25010,1,8,0:0:0:0:
272,48,25433,6,0,L|284:144,1,90,0|8,0:0|0:0,0:0:0:0:
220,204,26278,2,0,L|260:304,1,90,0|8,0:0|0:0,0:0:0:0:
332,348,27123,2,0,B|364:308|428:300,1,90,0|8,0:0|0:0,0:0:0:0:
508,312,27968,1,0,0:0:0:0:
512,216,28390,1,8,0:0:0:0:
504,116,28813,6,0,P|444:80|392:80,1,90,0|8,0:0|0:0,0:0:0:0:
328,88,29658,2,0,L|228:84,1,90,0|8,0:0|0:0,0:0:0:0:
144,84,30503,2,0,P|96:88|56:116,1,90,0|8,0:0|0:0,0:0:0:0:
8,192,31348,1,0,0:0:0:0:
12,292,31771,1,8,0:0:0:0:
84,360,32193,6,0,L|188:352,1,90,0|8,0:0|0:0,0:0:0:0:
268,324,33038,2,0,P|316:300|344:264,1,90,0|8,0:0|0:0,0:0:0:0:
408,200,33883,2,0,L|408:104,1,90,0|8,0:0|0:0,0:0:0:0:
340,36,34728,1,0,0:0:0:0:
248,76,35151,1,8,0:0:0:0:
244,176,35573,6,0,P|241:229|212:273,1,90
144,316,36419,2,0,L|52:316,1,90
0,232,37264,1,0,0:0:0:0:
60,156,37686,1,0,0:0:0:0:
160,156,38109,2,0,L|252:156,1,90
348,168,38954,6,0,L|348:268,1,90
332,356,39799,2,0,P|288:348|236:320,1,90
172,260,40644,2,0,B|80:152|28:236|24:60|140:104,1,270
232,108,42334,6,0,L|340:100,1,90,0|8,0:0|0:0,0:0:0:0:
420,116,43179,2,0,P|456:156|472:196,1,90,0|8,0:0|0:0,0:0:0:0:
468,288,44024,2,0,L|454:377,1,90,0|8,0:0|0:0,0:0:0:0:
360,348,44869,1,0,0:0:0:0:
360,348,45292,1,8,0:0:0:0:
324,256,45714,6,0,B|328:160,1,90,0|8,0:0|0:0,0:0:0:0:
280,80,46559,1,8,0:0:0:0:
180,72,46982,1,8,0:0:0:0:
80,68,47404,2,0,L|56:160,2,90
172,28,48672,1,4,0:0:0:0:
236,104,49095,6,0,L|332:116,1,90,0|8,0:0|0:0,0:0:0:0:
424,128,49940,2,0,P|472:164|492:204,1,90,0|8,0:0|0:0,0:0:0:0:
504,288,50785,2,0,L|512:392,1,90,0|8,0:0|0:0,0:0:0:0:
404,368,51630,1,0,0:0:0:0:
308,344,52052,1,8,0:0:0:0:
212,320,52475,6,0,L|168:236,1,90,0|8,0:0|0:0,0:0:0:0:
124,152,53320,2,0,P|104:123|61:88,1,90,0|8,0:0|0:0,0:0:0:0:
32,184,54165,2,2,P|25:224|31:292,2,90
61,88,55433,1,8,0:0:0:0:
136,24,55855,6,0,L|212:72,1,90,0|8,0:0|0:0,0:0:0:0:
300,116,56700,2,0,P|336:168|344:212,1,90,0|8,0:0|0:0,0:0:0:0:
348,292,57545,2,2,P|340:336|316:376,2,90
256,252,58813,1,8,0:0:0:0:
348,292,59235,6,0,P|400:300|452:288,1,90,0|8,0:0|0:0,0:0:0:0:
476,204,60081,2,0,L|472:96,1,90,0|8,0:0|0:0,0:0:0:0:
396,52,60926,2,0,P|352:16|316:4,1,90,0|8,0:0|0:0,0:0:0:0:
228,36,61771,1,0,0:0:0:0:
132,56,62193,1,8,0:0:0:0:
68,132,62616,6,0,L|60:224,1,90,0|8,0:0|0:0,0:0:0:0:
76,320,63461,2,0,P|128:360|168:356,1,90,0|8,0:0|0:0,0:0:0:0:
248,356,64306,2,0,L|344:352,1,90,0|8,0:0|0:0,0:0:0:0:
436,344,65151,1,0,0:0:0:0:
512,284,65573,6,0,P|472:256|424:244,1,90,8|0,0:0|0:0,0:0:0:0:
336,216,66419,1,8,0:0:0:0:
236,228,66841,2,0,L|136:256,1,90,0|8,0:0|0:0,0:0:0:0:
52,252,67686,2,2,P|20:196|16:168,2,90
116,328,68954,1,8,0:0:0:0:
216,340,69376,6,0,L|308:312,1,90,0|8,0:0|0:0,0:0:0:0:
384,260,70221,2,0,P|404:216|400:164,1,90,0|8,0:0|0:0,0:0:0:0:
352,92,71066,2,2,P|340:36|348:0,2,90
432,192,72334,1,8,0:0:0:0:
432,192,72757,6,0,P|400:244|368:268,1,90,0|8,0:0|0:0,0:0:0:0:
284,296,73602,2,0,L|184:300,1,90,0|8,0:0|0:0,0:0:0:0:
96,288,74447,2,0,P|68:252|52:196,1,90,0|8,0:0|0:0,0:0:0:0:
44,112,75292,1,0,0:0:0:0:
44,112,75714,1,14,0:0:0:0:
88,72,79517,6,0,P|144:64|196:72,1,90,0|8,0:0|0:0,0:0:0:0:
272,92,80362,2,0,L|360:116,1,90,0|8,0:0|0:0,0:0:0:0:
440,176,81207,2,0,P|476:256|480:272,2,90,0|8|0,0:0|0:0|0:0,0:0:0:0:
344,208,82475,1,8,0:0:0:0:
244,212,82897,6,0,P|188:220|144:236,1,90,0|8,0:0|0:0,0:0:0:0:
80,172,83742,2,0,L|56:260,1,90,0|8,0:0|0:0,0:0:0:0:
44,356,84588,1,0,0:0:0:0:
44,356,85010,1,8,0:0:0:0:
144,356,85433,1,0,0:0:0:0:
144,356,85855,1,2,0:0:0:0:
256,192,86278,12,0,89658,0:0:0:0:
