osu file format v14

[General]
AudioFilename: audio.mp3
AudioLeadIn: 0
PreviewTime: 0
Countdown: 0
SampleSet: Soft
StackLeniency: 0.7
Mode: 3
LetterboxInBreaks: 0
SpecialStyle: 0
WidescreenStoryboard: 0

[Editor]
DistanceSpacing: 1.3
BeatDivisor: 4
GridSize: 32
TimelineZoom: 1.9

[Metadata]
Title:Picori Festival
TitleUnicode:ピッコルまつり
Artist:Mitsuhiko Takano
ArtistUnicode:高野充彦
Creator:tatatat
Version:Easy
Source:ゼルダの伝説 ふしぎのぼうし
Tags:the legend of zelda: minish cap gba gameboy game boy advanced video game ost sound track nintendo instrumental Koji Kondo 近藤浩治 parade pikkoru matsuri
BeatmapID:2322252
BeatmapSetID:1111454

[Difficulty]
HPDrainRate:7
CircleSize:7
OverallDifficulty:7
ApproachRate:5
SliderMultiplier:1.4
SliderTickRate:1

[Events]
//Background and Video events
0,0,"zeldmin.jpg",0,0
//Break Periods
//Storyboard Layer 0 (Background)
//Storyboard Layer 1 (Fail)
//Storyboard Layer 2 (Pass)
//Storyboard Layer 3 (Foreground)
//Storyboard Layer 4 (Overlay)
//Storyboard Sound Samples

[TimingPoints]
138,601.926163723916,4,2,1,60,1,0
19399,-100,4,2,1,60,0,1
27826,-100,4,2,1,60,0,0

[HitObjects]
109,192,138,5,8,0:0:0:0:
329,192,438,1,2,0:0:0:0:
182,192,739,1,8,0:0:0:0:
256,192,1040,1,2,0:0:0:0:
329,192,1191,1,0,0:0:0:0:
402,192,1341,1,8,0:0:0:0:
475,192,1642,1,2,0:0:0:0:
329,192,1943,1,8,0:0:0:0:
256,192,2545,5,8,0:0:0:0:
475,192,2846,1,2,0:0:0:0:
182,192,3147,1,8,0:0:0:0:
402,192,3448,1,2,0:0:0:0:
109,192,3749,1,2,0:0:0:0:
329,192,4050,1,2,0:0:0:0:
36,192,4351,1,2,0:0:0:0:
36,192,4953,5,8,0:0:0:0:
256,192,5254,1,2,0:0:0:0:
109,192,5555,1,8,0:0:0:0:
182,192,5856,1,2,0:0:0:0:
256,192,6006,1,0,0:0:0:0:
329,192,6157,1,8,0:0:0:0:
475,192,6458,1,2,0:0:0:0:
256,192,6759,1,8,0:0:0:0:
402,192,7361,1,2,0:0:0:0:
329,192,7963,1,2,0:0:0:0:
256,192,8264,1,0,0:0:0:0:
182,192,8414,1,0,0:0:0:0:
36,192,8564,128,2,9768:0:0:0:0:
109,192,9768,1,8,0:0:0:0:
329,192,10069,1,2,0:0:0:0:
182,192,10370,1,8,0:0:0:0:
256,192,10671,1,2,0:0:0:0:
329,192,10822,1,0,0:0:0:0:
402,192,10972,1,8,0:0:0:0:
475,192,11273,1,2,0:0:0:0:
329,192,11574,1,8,0:0:0:0:
256,192,12176,5,8,0:0:0:0:
475,192,12477,1,2,0:0:0:0:
182,192,12778,1,8,0:0:0:0:
402,192,13079,1,2,0:0:0:0:
109,192,13380,1,2,0:0:0:0:
329,192,13681,1,2,0:0:0:0:
36,192,13982,1,2,0:0:0:0:
36,192,14584,5,8,0:0:0:0:
256,192,14885,1,2,0:0:0:0:
109,192,15186,1,8,0:0:0:0:
182,192,15487,1,2,0:0:0:0:
256,192,15637,1,0,0:0:0:0:
329,192,15788,1,8,0:0:0:0:
475,192,16089,1,2,0:0:0:0:
256,192,16390,1,8,0:0:0:0:
402,192,16991,1,2,0:0:0:0:
329,192,17593,1,2,0:0:0:0:
256,192,17894,1,0,0:0:0:0:
182,192,18045,1,0,0:0:0:0:
36,192,18195,128,2,19399:0:0:0:0:
256,192,19399,1,4,0:0:0:0:
256,192,20001,1,0,0:0:0:0:
329,192,20302,1,2,0:0:0:0:
402,192,20453,1,0,0:0:0:0:
475,192,20603,1,4,0:0:0:0:
402,192,20904,1,2,0:0:0:0:
256,192,21205,1,0,0:0:0:0:
182,192,21506,1,2,0:0:0:0:
109,192,21807,1,4,0:0:0:0:
182,192,22108,1,2,0:0:0:0:
256,192,22258,1,0,0:0:0:0:
329,192,22409,128,0,23011:0:0:0:0:
182,192,23011,1,4,0:0:0:0:
36,192,23312,1,2,0:0:0:0:
109,192,23462,1,0,0:0:0:0:
182,192,23613,128,0,24215:0:0:0:0:
256,192,24215,1,4,0:0:0:0:
256,192,24816,1,0,0:0:0:0:
329,192,25117,1,2,0:0:0:0:
402,192,25268,1,0,0:0:0:0:
475,192,25418,1,4,0:0:0:0:
402,192,25719,1,2,0:0:0:0:
256,192,26020,1,0,0:0:0:0:
182,192,26321,1,2,0:0:0:0:
256,192,26622,128,2,27224:0:0:0:0:
329,192,27224,1,6,0:0:0:0:
329,192,27525,1,0,0:0:0:0:
475,192,27826,128,6,28428:0:0:0:0:
36,192,28428,1,2,0:0:0:0:
182,192,28729,1,0,0:0:0:0:
329,192,29030,128,0,30234:0:0:0:0:
