osu file format v14

[General]
AudioFilename: audio.mp3
AudioLeadIn: 0
PreviewTime: 22769
Countdown: 0
SampleSet: Soft
StackLeniency: 0.7
Mode: 3
LetterboxInBreaks: 0
SpecialStyle: 0
WidescreenStoryboard: 0

[Editor]
Bookmarks: 33985,36572
DistanceSpacing: 1.3
BeatDivisor: 12
GridSize: 32
TimelineZoom: 1

[Metadata]
Title:Minish Village
TitleUnicode:森のピッコル里
Artist:Mitsuhiko Takano
ArtistUnicode:高野充彦
Creator:tatatat
Version:Easy
Source:ゼルダの伝説 ふしぎのぼうし
Tags:the legend of zelda: cap gba gameboy game boy advanced video game ost nintendo instrumental Koji Kondo 近藤浩治
BeatmapID:1894580
BeatmapSetID:907873

[Difficulty]
HPDrainRate:7
CircleSize:5
OverallDifficulty:7
ApproachRate:10
SliderMultiplier:1.4
SliderTickRate:1

[Events]
//Background and Video events
0,0,"xdds.jpg",55,0
//Break Periods
//Storyboard Layer 0 (Background)
//Storyboard Layer 1 (Fail)
//Storyboard Layer 2 (Pass)
//Storyboard Layer 3 (Foreground)
//Storyboard Layer 4 (Overlay)
//Storyboard Sound Samples

[TimingPoints]
784,431.096421899698,3,2,1,35,1,0
22769,-100,3,2,1,35,0,1
33116,-100,3,2,1,35,0,0

[HitObjects]
51,192,784,5,0,0:0:0:0:
153,192,1215,1,0,0:0:0:0:
256,192,1646,1,0,0:0:0:0:
358,192,2077,1,2,0:0:0:0:
358,192,2939,1,0,0:0:0:0:
256,192,3370,1,4,0:0:0:0:
153,192,3801,1,2,0:0:0:0:
51,192,4232,1,0,0:0:0:0:
153,192,4663,1,2,0:0:0:0:
358,192,5526,1,0,0:0:0:0:
460,192,5957,1,4,0:0:0:0:
256,192,6388,1,2,0:0:0:0:
51,192,6819,1,0,0:0:0:0:
153,192,7250,1,2,0:0:0:0:
358,192,8112,1,0,0:0:0:0:
256,192,8543,1,4,0:0:0:0:
153,192,8974,1,2,0:0:0:0:
51,192,9405,1,0,0:0:0:0:
256,192,9837,1,2,0:0:0:0:
51,192,10699,1,0,0:0:0:0:
153,192,10842,1,0,0:0:0:0:
460,192,11130,1,4,0:0:0:0:
153,192,11561,1,8,0:0:0:0:
51,192,11992,1,8,0:0:0:0:
256,192,12423,1,2,0:0:0:0:
358,192,13716,1,4,0:0:0:0:
153,192,14147,1,2,0:0:0:0:
51,192,14579,1,0,0:0:0:0:
256,192,15010,1,2,0:0:0:0:
358,192,16303,1,4,0:0:0:0:
460,192,16734,1,0,0:0:0:0:
256,192,17596,1,2,0:0:0:0:
358,192,18890,1,4,0:0:0:0:
153,192,19321,1,2,0:0:0:0:
358,192,19752,1,0,0:0:0:0:
256,192,20183,1,2,0:0:0:0:
51,192,21045,1,0,0:0:0:0:
153,192,21189,1,0,0:0:0:0:
358,192,21476,1,4,0:0:0:0:
51,192,21907,1,8,0:0:0:0:
51,192,22338,1,8,0:0:0:0:
256,192,22769,128,8,23632:0:0:0:0:
460,192,23632,1,8,0:0:0:0:
358,192,24063,1,8,0:0:0:0:
256,192,24494,1,0,0:0:0:0:
153,192,24925,1,0,0:0:0:0:
256,192,25356,1,8,0:0:0:0:
51,192,25787,1,0,0:0:0:0:
256,192,26218,1,0,0:0:0:0:
153,192,26649,128,8,27511:0:0:0:0:
153,192,27943,128,8,28805:0:0:0:0:
358,192,28805,1,8,0:0:0:0:
460,192,29236,1,8,0:0:0:0:
358,192,29667,1,0,0:0:0:0:
256,192,30098,1,0,0:0:0:0:
256,192,30529,128,8,31391:0:0:0:0:
358,192,31535,1,0,0:0:0:0:
153,192,31822,128,8,33116:0:0:0:0:
256,192,33116,1,2,0:0:0:0:
358,192,33978,1,0,0:0:0:0:
256,192,34409,1,2,0:0:0:0:
153,192,34840,1,0,0:0:0:0:
51,192,35271,1,0,0:0:0:0:
153,192,35702,1,2,0:0:0:0:
358,192,36565,1,0,0:0:0:0:
460,192,36996,1,10,0:0:0:0:
256,192,37427,1,0,0:0:0:0:
51,192,37858,1,0,0:0:0:0:
153,192,38289,1,2,0:0:0:0:
358,192,39151,1,0,0:0:0:0:
256,192,39582,1,2,0:0:0:0:
153,192,40013,1,0,0:0:0:0:
51,192,40444,5,0,0:0:0:0:
153,192,40875,128,2,43462:0:0:0:0:
358,192,43462,1,2,0:0:0:0:
