osu file format v14

[General]
AudioFilename: Mittsu Kazoete Daishuugou! (TV Size).mp3
AudioLeadIn: 0
PreviewTime: 59601
Countdown: 0
SampleSet: None
StackLeniency: 0.7
Mode: 0
LetterboxInBreaks: 0
WidescreenStoryboard: 0

[Editor]
DistanceSpacing: 1.6
BeatDivisor: 4
GridSize: 4
TimelineZoom: 3.499999

[Metadata]
Title:Mittsu Kazoete Daishuugou! (TV Size)
TitleUnicode:Mittsu Kazoete Daishuugou! (TV Size)
Artist:Mitsudomoe Cast
ArtistUnicode:Mitsudomoe Cast
Creator:SeonRae
Version:Insane
Source:Mitsudomoe
Tags:
BeatmapID:904398
BeatmapSetID:417681

[Difficulty]
HPDrainRate:7
CircleSize:4
OverallDifficulty:7
ApproachRate:9
SliderMultiplier:1.8
SliderTickRate:1

[Events]
//Background and Video events
0,0,"bg.png",0,0
//Break Periods
//Storyboard Layer 0 (Background)
//Storyboard Layer 1 (Fail)
//Storyboard Layer 2 (Pass)
//Storyboard Layer 3 (Foreground)
//Storyboard Sound Samples

[TimingPoints]
-556,315.789473684211,4,3,0,100,1,0
14286,-129.87012987013,4,3,0,100,0,0
19654,-113.636363636364,4,3,0,100,0,0
24707,-129.87012987013,4,3,0,100,0,0
29759,-113.636363636364,4,3,0,100,0,0
34812,-200,4,3,0,100,0,0
39865,-100,4,3,0,100,0,0
46022,-200,4,3,0,100,0,0
46496,-100,4,3,0,100,0,0
55022,-200,4,3,0,100,0,0
58180,-100,4,3,0,100,0,0
60075,-90.0900900900901,4,3,0,100,0,1
79970,-100,4,3,0,100,0,0
86266,-100,4,3,0,5,0,0

[HitObjects]
148,132,549,6,0,L|228:180,1,90
80,176,865,1,0,0:0:0:0:
156,56,1022,1,0,0:0:0:0:
226,177,1180,1,0,0:0:0:0:
272,264,1338,2,0,P|308:232|328:192,1,90
208,276,1654,1,0,0:0:0:0:
80,340,1812,6,0,L|176:292,1,90
260,320,2128,1,0,0:0:0:0:
336,200,2286,1,0,0:0:0:0:
344,344,2444,1,0,0:0:0:0:
256,232,2601,1,0,0:0:0:0:
396,268,2759,2,0,P|420:228|456:200,1,90
416,68,3075,6,0,L|444:160,1,90,0|0,1:0|0:0,0:0:0:0:
304,108,3391,1,0,1:0:0:0:
240,236,3549,1,0,1:0:0:0:
360,152,3707,1,0,1:0:0:0:
216,172,3865,1,0,1:0:0:0:
356,220,4180,5,2,1:0:0:0:
104,60,4496,6,0,P|132:100|164:128,1,90
68,136,4812,2,0,P|96:172|132:200,1,90
44,244,5128,1,0,0:0:0:0:
228,316,5286,2,0,B|235:316|190:313|141:293,1,90
244,192,5601,6,0,P|295:165|324:136,1,90
328,244,5917,2,0,P|376:216|400:180,1,90
212,268,6233,1,0,0:0:0:0:
212,268,6312,1,0,0:0:0:0:
212,268,6391,1,0,0:0:0:0:
288,332,6549,1,0,0:0:0:0:
144,348,6707,2,0,P|104:340|56:316,1,90
136,196,7022,6,0,P|88:220|56:244,1,90
152,100,7338,2,0,P|104:124|72:148,1,90
220,152,7654,1,0,0:0:0:0:
404,224,7812,2,0,P|356:216|316:200,1,90
232,252,8128,6,0,P|216:296|180:336,1,90
128,248,8444,2,0,P|102:287|58:318,1,90
184,152,8759,1,0,0:0:0:0:
184,152,8838,1,0,0:0:0:0:
184,152,8917,1,0,0:0:0:0:
272,200,9075,1,0,0:0:0:0:
272,104,9233,2,0,P|256:56|224:20,1,90
264,224,9549,5,0,0:0:0:0:
368,176,9707,1,0,0:0:0:0:
368,176,9786,1,0,0:0:0:0:
368,176,9865,1,0,0:0:0:0:
360,288,10022,2,0,P|336:320|196:340,1,180,0|8,0:0|0:0,0:0:0:0:
206,344,10417,1,8,0:0:0:0:
206,344,10496,1,8,0:0:0:0:
244,204,10654,1,0,0:0:0:0:
220,108,10812,6,0,P|176:96|128:104,1,90
328,140,11128,1,0,0:0:0:0:
248,196,11286,2,0,P|224:232|92:296,1,180,0|8,0:0|0:0,0:0:0:0:
106,294,11680,1,8,0:0:0:0:
106,294,11759,1,8,0:0:0:0:
204,284,11917,1,0,0:0:0:0:
296,320,12075,5,0,2:0:0:0:
320,312,12154,1,0,2:0:0:0:
344,296,12233,1,0,2:0:0:0:
360,280,12312,1,0,2:0:0:0:
376,256,12391,1,0,2:0:0:0:
384,232,12470,1,0,2:0:0:0:
392,208,12549,1,0,2:0:0:0:
392,184,12628,1,0,2:0:0:0:
388,156,12707,5,0,2:0:0:0:
376,132,12786,1,0,2:0:0:0:
356,112,12865,1,0,2:0:0:0:
332,96,12944,1,0,2:0:0:0:
308,88,13022,1,0,2:0:0:0:
280,88,13101,1,0,2:0:0:0:
256,100,13180,1,0,2:0:0:0:
236,120,13259,1,0,2:0:0:0:
256,192,13338,12,8,14286,2:0:0:0:
160,244,14601,6,0,L|232:208,1,69.2999986253357
344,120,14917,2,0,L|288:172,1,69.2999986253357
156,100,15233,1,0,0:0:0:0:
244,168,15391,1,0,0:0:0:0:
328,296,15549,2,0,L|288:236,1,69.2999986253357
188,264,15865,5,0,0:0:0:0:
60,348,16022,2,0,L|116:308,1,69.2999986253357
100,200,16338,1,0,0:0:0:0:
204,160,16496,1,0,0:0:0:0:
204,160,16654,1,0,0:0:0:0:
324,64,16812,2,0,L|264:112,1,69.2999986253357
344,244,17128,6,0,L|280:204,1,69.2999986253357
184,96,17444,2,0,L|224:160,1,69.2999986253357
324,116,17759,1,0,0:0:0:0:
324,116,17917,1,0,0:0:0:0:
404,40,18075,2,0,L|339:99,1,69.2999986253357
348,200,18391,5,0,0:0:0:0:
444,152,18549,2,0,P|432:108|416:76,1,69.2999986253357
448,232,18865,2,0,P|440:276|428:300,1,69.2999986253357
422,86,19338,1,8,2:0:0:0:
280,252,19654,6,0,P|236:184|256:104,1,158.400004833984
212,204,20128,2,0,L|72:280,1,158.400004833984,0|8,0:0|0:0,0:0:0:0:
72,279,20522,1,8,0:0:0:0:
72,279,20601,1,8,0:0:0:0:
96,48,20917,6,0,P|128:112|104:208,1,158.400004833984
148,108,21391,2,0,L|312:52,1,158.400004833984,0|8,0:0|0:0,0:0:0:0:
298,57,21786,1,8,0:0:0:0:
298,57,21865,1,8,0:0:0:0:
404,152,22180,6,0,P|420:224|476:292,1,158.400004833984
384,232,22654,2,0,L|256:336,1,158.400004833984,0|8,0:0|0:0,0:0:0:0:
261,331,23049,1,8,0:0:0:0:
261,331,23128,1,8,0:0:0:0:
92,288,23444,5,0,2:0:0:0:
72,276,23522,1,0,2:0:0:0:
52,260,23601,1,0,2:0:0:0:
36,240,23680,1,0,2:0:0:0:
28,216,23759,1,0,2:0:0:0:
24,192,23838,1,0,2:0:0:0:
24,168,23917,1,0,2:0:0:0:
28,144,23996,1,0,2:0:0:0:
36,120,24075,5,0,2:0:0:0:
52,100,24154,1,0,2:0:0:0:
72,84,24233,1,0,2:0:0:0:
96,72,24312,1,0,2:0:0:0:
120,68,24391,1,0,2:0:0:0:
144,72,24470,1,0,2:0:0:0:
164,88,24549,1,0,2:0:0:0:
180,108,24628,1,0,2:0:0:0:
184,132,24707,5,0,0:0:0:0:
160,240,24865,1,0,0:0:0:0:
304,292,25022,2,0,L|256:236,1,69.2999986253357
364,200,25338,2,0,L|296:180,1,69.2999986253357
348,80,25654,2,0,L|260:120,1,69.2999986253357
224,160,25970,5,0,0:0:0:0:
192,56,26128,1,0,0:0:0:0:
40,56,26286,2,0,P|80:68|112:68,1,69.2999986253357
72,224,26601,2,0,L|116:164,1,69.2999986253357
180,260,26917,2,0,L|180:180,1,69.2999986253357
288,164,27233,6,0,P|312:128|316:100,1,69.2999986253357
232,228,27549,2,0,P|212:260|208:296,1,69.2999986253357
320,192,27865,2,0,P|356:188|392:172,1,69.2999986253357
236,188,28180,2,0,P|196:188|160:200,1,69.2999986253357
312,260,28496,5,0,0:0:0:0:
201,289,28654,1,0,0:0:0:0:
340,356,28812,2,0,P|298:340|268:308,1,69.2999986253357
212,188,29128,2,0,P|220:232|244:272,1,69.2999986253357
220,100,29444,1,8,2:0:0:0:
392,100,29759,6,0,P|416:168|496:224,1,158.400004833984
392,192,30233,2,0,L|244:112,1,158.400004833984,0|8,0:0|0:0,0:0:0:0:
251,118,30628,1,8,0:0:0:0:
251,118,30707,1,8,0:0:0:0:
60,48,31022,6,0,P|140:104|208:108,1,158.400004833984
104,124,31496,2,0,L|40:272,1,158.400004833984,0|8,0:0|0:0,0:0:0:0:
41,269,31891,1,8,0:0:0:0:
41,269,31970,1,8,0:0:0:0:
188,324,32286,6,0,P|220:252|208:160,1,158.400004833984
256,260,32759,2,0,L|408:200,1,158.400004833984,0|8,0:0|0:0,0:0:0:0:
403,201,33154,1,8,0:0:0:0:
403,201,33233,1,8,0:0:0:0:
484,52,33549,5,0,2:0:0:0:
460,36,33628,1,0,2:0:0:0:
432,28,33707,1,0,2:0:0:0:
404,32,33786,1,0,2:0:0:0:
380,44,33865,1,0,2:0:0:0:
360,64,33944,1,0,2:0:0:0:
344,88,34022,1,0,2:0:0:0:
324,108,34101,1,0,2:0:0:0:
300,124,34180,5,0,2:0:0:0:
276,136,34259,1,0,2:0:0:0:
248,144,34338,1,0,2:0:0:0:
220,148,34417,1,0,2:0:0:0:
192,148,34496,1,0,2:0:0:0:
164,144,34575,1,0,2:0:0:0:
140,132,34654,1,0,2:0:0:0:
116,116,34733,1,0,2:0:0:0:
100,96,34812,5,2,2:0:0:0:
156,52,34970,1,2,2:0:0:0:
224,32,35128,1,2,2:0:0:0:
296,32,35286,2,2,P|352:44|432:80,1,135,2|2,2:0|2:0,2:0:0:0:
423,74,36075,5,2,2:0:0:0:
460,136,36233,1,2,2:0:0:0:
460,208,36391,1,2,2:0:0:0:
428,272,36549,2,2,P|392:308|304:341,1,135,2|2,2:0|2:0,2:0:0:0:
120,324,37338,5,2,2:0:0:0:
68,272,37496,1,2,2:0:0:0:
136,252,37654,2,2,P|140:196|72:96,1,180,2|2,2:0|2:0,2:0:0:0:
264,144,38601,5,2,2:0:0:0:
252,240,38812,1,2,2:0:0:0:
340,204,39022,1,2,2:0:0:0:
448,72,39233,5,2,2:0:0:0:
360,108,39444,1,2,2:0:0:0:
436,164,39654,1,2,2:0:0:0:
340,204,39865,2,0,L|260:252,1,90,8|0,2:0|0:0,0:0:0:0:
136,320,40180,2,0,L|224:272,1,90,8|0,2:0|0:0,0:0:0:0:
204,176,40496,1,8,1:0:0:0:
104,180,40654,1,8,1:0:0:0:
172,108,40812,2,0,L|140:20,1,90,8|0,1:0|0:0,0:0:0:0:
284,68,41128,5,8,1:0:0:0:
393,42,41286,1,8,1:0:0:0:
418,151,41444,1,8,1:0:0:0:
309,177,41601,1,8,1:0:0:0:
116,228,41917,1,8,1:0:0:0:
116,228,42075,1,8,1:0:0:0:
204,52,42391,6,0,L|280:108,1,90,8|0,1:0|0:0,0:0:0:0:
284,204,42707,2,0,L|208:152,1,90,8|0,1:0|0:0,0:0:0:0:
132,208,43022,1,8,1:0:0:0:
192,308,43180,1,8,1:0:0:0:
80,308,43338,1,8,1:0:0:0:
276,316,43654,5,8,1:0:0:0:
385,340,43811,1,8,1:0:0:0:
410,231,43969,1,8,1:0:0:0:
301,207,44127,1,8,1:0:0:0:
108,160,44444,1,8,1:0:0:0:
108,160,44601,1,8,1:0:0:0:
256,292,44917,6,0,P|316:251|348:144,1,180,4|8,2:0|0:0,0:0:0:0:
348,152,45312,1,8,0:0:0:0:
348,152,45391,1,8,0:0:0:0:
256,44,45549,1,0,1:0:0:0:
148,140,45707,1,0,1:0:0:0:
288,176,45865,1,0,1:0:0:0:
380,136,46022,2,0,L|440:68,1,90,0|0,1:0|1:0,1:0:0:0:
344,176,46496,6,0,L|284:248,1,90,0|0,1:0|1:0,1:0:0:0:
404,164,46812,2,0,L|496:164,1,90,0|0,1:0|1:0,1:0:0:0:
352,140,47128,2,0,L|256:140,1,90,0|0,1:0|1:0,1:0:0:0:
396,196,47444,6,0,L|472:256,1,90,0|0,1:0|1:0,1:0:0:0:
352,164,47759,1,8,0:0:0:0:
352,164,47917,2,0,L|280:104,1,90,0|0,1:0|1:0,1:0:0:0:
256,252,48233,1,0,1:0:0:0:
308,336,48391,1,0,1:0:0:0:
208,336,48549,6,0,P|156:332|116:312,1,90,4|0,2:0|0:0,0:0:0:0:
148,216,48865,1,0,1:0:0:0:
214,79,49022,1,0,1:0:0:0:
354,147,49180,1,0,1:0:0:0:
286,287,49338,1,0,1:0:0:0:
147,188,49496,1,0,1:0:0:0:
248,75,49653,1,0,1:0:0:0:
364,179,49811,1,0,1:0:0:0:
260,299,49970,6,0,P|216:316|172:320,1,90,8|0,1:0|0:0,0:0:0:0:
184,224,50286,2,0,P|136:236|92:232,1,90,8|0,1:0|0:0,0:0:0:0:
84,88,50601,1,8,1:0:0:0:
32,172,50759,1,8,1:0:0:0:
128,156,50917,2,0,P|168:124|192:88,1,90,8|0,1:0|0:0,0:0:0:0:
292,196,51233,5,8,1:0:0:0:
360,268,51391,1,8,1:0:0:0:
432,200,51549,1,8,1:0:0:0:
368,124,51707,2,0,P|332:96|292:76,1,90,8|0,1:0|0:0,0:0:0:0:
136,88,52022,2,0,P|178:74|223:69,1,90,8|8,1:0|1:0,0:0:0:0:
172,256,52496,6,0,P|256:288|346:248,1,180,0|4,2:0|2:0,2:0:0:0:
164,160,53128,1,0,1:0:0:0:
256,196,53286,1,0,1:0:0:0:
352,160,53444,1,4,2:0:0:0:
256,68,53759,5,0,1:0:0:0:
164,160,53917,1,0,1:0:0:0:
256,256,54075,1,4,2:0:0:0:
352,160,54233,1,0,1:0:0:0:
164,160,54549,1,0,1:0:0:0:
352,160,54707,1,4,2:0:0:0:
256,272,55022,6,0,L|328:344,1,90,0|0,2:0|2:0,2:0:0:0:
392,324,55496,1,2,2:0:0:0:
376,252,55654,2,0,L|340:212,1,45,0|0,2:0|2:0,2:0:0:0:
300,56,56128,6,0,L|312:104,1,45,0|0,2:0|2:0,2:0:0:0:
212,108,56444,2,0,L|248:136,1,45,0|0,2:0|2:0,2:0:0:0:
172,72,56759,1,2,2:0:0:0:
152,140,56917,2,0,L|152:184,1,45,0|0,2:0|2:0,2:0:0:0:
92,264,57233,2,0,L|124:224,1,45,0|0,2:0|2:0,2:0:0:0:
204,244,57549,5,4,3:0:0:0:
204,244,57865,1,4,3:0:0:0:
204,244,58180,1,2,2:0:0:0:
288,296,58338,1,2,2:0:0:0:
388,292,58496,1,2,2:0:0:0:
456,220,58654,1,2,2:0:0:0:
440,120,58812,5,0,3:0:0:0:
308,64,58970,1,0,3:0:0:0:
164,88,59128,1,0,0:0:0:0:
164,88,59207,1,0,0:0:0:0:
164,88,59286,1,0,0:0:0:0:
64,192,59444,1,0,3:0:0:0:
204,332,59601,1,4,2:0:0:0:
348,196,59759,1,4,2:0:0:0:
208,56,59917,1,4,2:0:0:0:
208,56,60075,6,0,P|272:114|375:89,1,199.80000487793,0|4,0:0|2:0,0:0:0:0:
356,248,60549,2,0,L|260:292,1,99.9000024389649
164,248,60865,1,0,0:0:0:0:
72,192,61022,2,0,P|116:156|156:140,1,99.9000024389649
316,132,61338,5,0,0:0:0:0:
168,192,61496,1,0,0:0:0:0:
324,228,61654,1,0,0:0:0:0:
220,108,61812,1,0,0:0:0:0:
227,268,61970,1,0,0:0:0:0:
288,56,62128,1,8,2:0:0:0:
132,208,62286,1,8,2:0:0:0:
348,248,62444,1,0,0:0:0:0:
184,104,62601,6,0,P|116:76|12:148,1,199.80000487793,0|4,0:0|2:0,0:0:0:0:
116,188,63075,2,0,P|160:240|208:252,1,99.9000024389649
336,192,63391,1,0,0:0:0:0:
180,156,63549,1,0,0:0:0:0:
292,272,63707,1,0,0:0:0:0:
268,112,63865,6,0,L|376:96,1,99.9000024389649
512,160,64180,2,0,L|404:176,1,99.9000024389649
196,208,64496,1,0,0:0:0:0:
412,244,64654,1,0,0:0:0:0:
252,96,64812,1,0,0:0:0:0:
288,312,64970,1,0,0:0:0:0:
372,108,65128,6,0,P|300:200|212:208,1,199.80000487793,0|4,0:0|2:0,0:0:0:0:
120,176,65601,1,0,0:0:0:0:
80,84,65759,2,0,L|128:48,3,49.9500012194825
174,39,66075,2,0,L|236:28,3,49.9500012194825
277,51,66391,5,0,1:0:0:0:
364,276,66628,1,0,1:0:0:0:
136,200,66865,1,0,1:0:0:0:
356,180,67180,5,4,2:0:0:0:
248,160,67338,1,4,2:0:0:0:
168,88,67496,1,0,0:0:0:0:
168,88,67575,1,0,0:0:0:0:
168,88,67654,2,0,P|95:112|39:224,1,199.80000487793
148,196,68128,1,0,0:0:0:0:
308,204,68286,6,0,P|310:253|303:303,1,99.9000024389649
203,247,68601,2,0,P|200:197|207:147,1,99.9000024389649
264,52,68917,1,0,0:0:0:0:
372,64,69075,6,0,B|416:124|416:124|492:160,1,149.850003658447,4|4,2:0|2:0,0:0:0:0:
384,288,69549,1,0,1:0:0:0:
285,331,69707,1,0,1:0:0:0:
241,233,69865,1,0,1:0:0:0:
340,189,70022,1,0,1:0:0:0:
285,331,70180,6,0,P|183:305|137:198,1,199.80000487793,0|4,0:0|2:0,0:0:0:0:
184,128,70654,2,0,L|244:220,1,99.9000024389649
296,116,70970,1,0,0:0:0:0:
352,24,71128,2,0,P|304:8|248:16,1,99.9000024389649
284,188,71444,5,0,0:0:0:0:
252,344,71601,1,0,0:0:0:0:
372,240,71759,1,0,0:0:0:0:
212,260,71917,1,0,0:0:0:0:
352,336,72075,1,0,0:0:0:0:
276,128,72233,1,8,2:0:0:0:
180,324,72391,1,8,2:0:0:0:
368,208,72549,1,0,0:0:0:0:
148,196,72707,6,0,P|158:116|232:24,1,199.80000487793,0|4,0:0|2:0,0:0:0:0:
252,132,73180,2,0,P|300:192|352:204,1,99.9000024389649
436,88,73496,1,0,0:0:0:0:
280,112,73654,1,0,0:0:0:0:
424,184,73812,1,0,0:0:0:0:
352,40,73970,5,0,1:0:0:0:
304,256,74128,1,0,1:0:0:0:
416,68,74286,1,0,1:0:0:0:
248,212,74444,1,0,1:0:0:0:
452,128,74601,1,0,1:0:0:0:
232,144,74759,1,0,1:0:0:0:
444,200,74917,1,0,1:0:0:0:
260,80,75075,1,0,1:0:0:0:
392,256,75233,6,0,P|323:303|207:299,1,199.80000487793,0|4,0:0|2:0,0:0:0:0:
124,228,75707,1,0,0:0:0:0:
232,204,75865,2,0,L|278:170,3,49.9500012194825
308,132,76180,2,0,L|323:80,3,49.9500012194825
300,36,76496,5,4,2:0:0:0:
168,216,76654,1,4,2:0:0:0:
168,4,76812,1,4,2:0:0:0:
300,180,76970,1,4,2:0:0:0:
92,112,77286,1,0,0:0:0:0:
92,112,77444,1,0,0:0:0:0:
92,112,77601,6,0,P|168:172|280:164,1,199.80000487793
359,130,78075,2,0,L|255:174,1,99.9000024389649
119,234,78391,2,0,L|231:186,1,99.9000024389649
359,258,78707,2,0,L|263:210,1,99.9000024389649
147,110,79022,6,0,L|243:166,1,99.9000024389649
163,306,79338,2,0,L|219:210,1,99.9000024389649
319,98,79654,2,0,L|263:198,1,99.9000024389649
220,80,79970,1,0,0:0:0:0:
220,80,80128,6,0,P|140:128|132:228,1,180,4|0,2:0|0:0,0:0:0:0:
288,320,80601,1,0,0:0:0:0:
288,320,80759,2,0,P|368:272|376:172,1,180,4|0,2:0|0:0,0:0:0:0:
288,228,81233,6,0,P|222:238|175:226,1,90
320,76,81707,1,4,2:0:0:0:
160,192,81865,1,4,2:0:0:0:
352,140,82022,1,4,2:0:0:0:
156,120,82180,1,4,2:0:0:0:
332,208,82338,1,4,2:0:0:0:
196,64,82496,1,4,2:0:0:0:
272,248,82654,5,0,2:0:0:0:
228,336,82812,2,0,P|192:304|172:260,1,90,0|0,2:0|2:0,2:0:0:0:
208,172,83128,1,0,2:0:0:0:
272,248,83286,1,0,2:0:0:0:
140,192,83444,5,0,1:0:0:0:
241,90,83601,1,0,0:0:0:0:
343,192,83759,1,0,1:0:0:0:
244,290,83917,1,0,1:0:0:0:
256,192,84391,12,0,86286,2:0:0:0:
