osu file format v14

[General]
AudioFilename: audio.mp3
AudioLeadIn: 0
PreviewTime: 110055
Countdown: 0
SampleSet: Soft
StackLeniency: 0.6
Mode: 0
LetterboxInBreaks: 0
WidescreenStoryboard: 1

[Editor]
DistanceSpacing: 1.1
BeatDivisor: 4
GridSize: 32
TimelineZoom: 1.7

[Metadata]
Title:Washing Machine Heart
TitleUnicode:Washing Machine Heart
Artist:Mitski
ArtistUnicode:Mitski
Creator:Astrolis
Version:Hard
Source:
Tags:english pop alternative be the cowboy bakari -bakari- riffy mniam witch house witchhouse indie rock
BeatmapID:3223118
BeatmapSetID:1572759

[Difficulty]
HPDrainRate:5
CircleSize:5
OverallDifficulty:6
ApproachRate:6
SliderMultiplier:1.5
SliderTickRate:1

[Events]
//Background and Video events
0,0,"81138363_p0.jpg",0,0
//Break Periods
//Storyboard Layer 0 (Background)
//Storyboard Layer 1 (Fail)
//Storyboard Layer 2 (Pass)
//Storyboard Layer 3 (Foreground)
//Storyboard Layer 4 (Overlay)
//Storyboard Sound Samples

[TimingPoints]
245,566.037735849057,4,2,1,40,1,0
2509,-125,4,2,1,40,0,0
7037,-100,4,2,1,60,0,0
38735,-86.9565217391304,4,2,1,80,0,0
39301,-86.9565217391304,4,2,1,80,0,0
40433,-86.9565217391304,4,2,1,80,0,0
40999,-86.9565217391304,4,2,1,80,0,0
42131,-86.9565217391304,4,2,1,80,0,0
42697,-86.9565217391304,4,2,1,80,0,0
42980,-86.9565217391304,4,2,1,80,0,0
43263,-86.9565217391304,4,2,1,80,0,0
44395,-86.9565217391304,4,2,1,80,0,0
47792,-86.9565217391304,4,2,1,80,0,0
48358,-86.9565217391304,4,2,1,80,0,0
49490,-86.9565217391304,4,2,1,80,0,0
50056,-86.9565217391304,4,2,1,80,0,0
50622,-86.9565217391304,4,2,1,80,0,0
50905,-86.9565217391304,4,2,1,80,0,0
51612,-86.9565217391304,4,2,1,80,0,0
51754,-86.9565217391304,4,2,1,80,0,0
52886,-86.9565217391304,4,2,1,80,0,0
53452,-86.9565217391304,4,2,1,80,0,0
55716,566.037735849057,4,2,1,40,1,0
55716,-100,4,2,1,60,0,0
69300,-125,4,2,1,60,0,0
71565,-125,4,2,1,60,0,0
96470,-100,4,2,1,60,0,0
110055,-86.9565217391304,4,2,1,80,0,0
111187,-86.9565217391304,4,2,1,80,0,0
111470,-86.9565217391304,4,2,1,80,0,0
112319,-86.9565217391304,4,2,1,80,0,0
114583,-86.9565217391304,4,2,1,80,0,0
115149,-86.9565217391304,4,2,1,80,0,0
115716,-86.9565217391304,4,2,1,80,0,0
116848,-86.9565217391304,4,2,1,80,0,0
117980,-86.9565217391304,4,2,1,80,0,0
118546,-86.9565217391304,4,2,1,80,0,0
118829,-86.9565217391304,4,2,1,80,0,0
119112,-86.9565217391304,4,2,1,80,0,0
119678,-86.9565217391304,4,2,1,80,0,0
120244,-86.9565217391304,4,2,1,80,0,0
120527,-86.9565217391304,4,2,1,80,0,0
121093,-86.9565217391304,4,2,1,80,0,0
121942,-86.9565217391304,4,2,1,80,0,0
122508,-86.9565217391304,4,2,1,80,0,0
123074,-86.9565217391304,4,2,1,80,0,0
124206,-86.9565217391304,4,1,2,40,0,0
124772,-86.9565217391304,4,1,2,50,0,0
125338,-86.9565217391304,4,1,2,60,0,0
125904,-86.9565217391304,4,1,2,70,0,0
126470,-86.9565217391304,4,1,2,80,0,0

[Colours]
Combo1 : 110,110,110
Combo2 : 192,192,192
Combo3 : 144,144,144

[HitObjects]
176,22,245,5,8,0:1:0:0:
176,22,528,1,8,0:1:0:0:
278,60,811,1,8,0:0:0:0:
278,60,1094,1,8,0:0:0:0:
232,156,1377,5,8,0:1:0:0:
232,156,1660,1,8,0:1:0:0:
140,113,1943,1,8,0:0:0:0:
140,113,2226,1,8,0:0:0:0:
58,132,2509,6,0,L|55:211,1,60,8|8,0:1|0:1,0:0:0:0:
135,219,3075,2,0,L|132:278,1,60,8|8,0:0|0:0,0:0:0:0:
216,286,3641,2,0,L|218:226,1,60,8|8,0:1|0:0,0:0:0:0:
293,188,4207,2,0,L|295:128,1,60,8|8,0:0|0:0,0:0:0:0:
345,60,4773,5,8,0:1:0:0:
345,60,5056,1,8,0:1:0:0:
421,24,5339,2,0,P|461:37|497:36,1,60,8|8,0:0|0:0,0:0:0:0:
509,120,5905,1,8,0:1:0:0:
509,120,6188,1,8,0:1:0:0:
433,156,6471,2,0,P|393:143|357:144,1,60,8|8,0:0|0:0,0:0:0:0:
350,246,7037,6,0,L|332:390,1,112.5,10|0,0:3|0:0,0:0:0:0:
337,357,7603,2,0,P|300:364|264:358,1,75,10|8,0:1|0:0,0:0:0:0:
192,288,8169,1,10,0:3:0:0:
192,288,8452,1,10,0:0:0:0:
116,361,8735,2,0,P|60:372|22:321,1,112.5,10|0,0:1|0:0,0:0:0:0:
24,335,9301,6,0,L|15:246,1,75,10|8,0:3|0:0,0:0:0:0:
107,208,9867,2,0,L|116:119,1,75,8|8,0:1|0:0,0:0:0:0:
26,76,10433,1,10,0:3:0:0:
26,76,10716,1,8,0:3:0:0:
111,14,10999,1,10,0:1:0:0:
111,14,11282,1,10,0:3:0:0:
193,78,11565,6,0,P|234:91|301:50,1,112.5,10|0,0:3|0:0,0:0:0:0:
293,61,12131,2,0,P|282:99|297:140,1,75,10|8,0:1|0:0,0:0:0:0:
380,187,12697,2,0,L|466:182,1,75,10|10,0:3|0:0,0:0:0:0:
501,88,13263,2,0,L|415:83,1,75,8|10,0:1|0:0,0:0:0:0:
347,14,13829,5,10,0:3:0:0:
137,11,14395,2,0,P|176:47|192:118,1,112.5,10|0,0:1|0:0,0:0:0:0:
192,102,14961,2,0,P|166:117|107:111,1,75,10|8,0:3|0:3,0:0:0:0:
23,153,15528,2,0,P|24:190|8:223,1,75,10|8,0:1|0:3,0:0:0:0:
1,328,16094,6,0,L|125:319,1,112.5,8|0,0:3|0:0,0:0:0:0:
113,319,16660,2,0,P|141:348|187:350,1,75,10|8,0:1|0:0,0:0:0:0:
279,355,17226,1,8,0:3:0:0:
279,355,17509,1,0,0:0:0:0:
218,269,17792,2,0,L|210:134,1,112.5,10|0,0:1|0:0,0:0:0:0:
211,156,18358,6,0,P|238:136|280:147,1,75,8|8,0:3|0:0,0:0:0:0:
306,43,18924,2,0,P|341:51|370:30,1,75,10|10,0:1|0:0,0:0:0:0:
474,47,19490,1,10,0:3:0:0:
474,47,19773,1,8,0:0:0:0:
504,147,20056,1,10,0:1:0:0:
504,147,20339,1,8,0:0:0:0:
504,255,20622,6,0,B|474:277|474:277|486:362,1,112.5,10|0,0:3|0:0,0:0:0:0:
484,351,21188,2,0,L|401:371,1,75,10|8,0:1|0:0,0:0:0:0:
322,323,21754,1,10,0:3:0:0:
322,323,22037,1,10,0:3:0:0:
226,371,22320,1,10,0:1:0:0:
226,371,22603,1,10,0:3:0:0:
124,379,22886,6,0,L|132:251,1,112.5,10|0,0:3|0:0,0:0:0:0:
131,267,23452,2,0,L|121:181,1,75,10|8,0:1|0:0,0:0:0:0:
165,96,24018,2,0,P|206:91|230:51,1,75,10|8,0:3|0:0,0:0:0:0:
316,12,24584,2,0,P|357:17|381:57,1,75,10|8,0:1|0:0,0:0:0:0:
479,17,25150,6,0,L|472:150,1,112.5,10|0,0:3|0:0,0:0:0:0:
473,129,25716,2,0,P|471:157|513:196,1,75,10|8,0:1|0:0,0:0:0:0:
501,297,26282,1,10,0:3:0:0:
501,297,26565,1,8,0:0:0:0:
401,321,26848,1,10,0:1:0:0:
401,321,27131,1,8,0:0:0:0:
426,219,27414,6,0,L|293:228,1,112.5,10|0,0:3|0:0,0:0:0:0:
313,226,27980,2,0,B|286:251|286:251|306:299,1,75,10|10,0:1|0:0,0:0:0:0:
252,380,28546,1,10,0:3:0:0:
252,380,28829,1,10,0:3:0:0:
150,378,29112,1,10,0:1:0:0:
150,378,29395,1,8,0:3:0:0:
87,293,29678,6,0,P|124:257|196:268,1,112.5,10|0,0:3|0:0,0:0:0:0:
181,258,30245,2,0,P|161:221|117:194,1,75,10|0,0:1|0:0,0:0:0:0:
183,107,30811,2,0,L|192:23,1,75,10|0,0:3|0:0,0:0:0:0:
88,12,31377,2,0,L|80:86,1,75,10|0,0:1|0:0,0:0:0:0:
14,168,31943,6,0,B|-3:199|-3:199|7:281,1,112.5,10|0,0:3|0:0,0:0:0:0:
6,275,32509,2,0,L|0:360,1,75,10|8,0:1|0:0,0:0:0:0:
107,373,33075,1,10,0:3:0:0:
107,373,33358,1,8,0:3:0:0:
197,318,33641,1,10,0:1:0:0:
197,318,33924,1,10,0:3:0:0:
287,371,34207,6,0,P|317:362|425:353,1,112.5,10|0,0:3|0:0,0:0:0:0:
397,351,34773,2,0,P|421:346|426:290,1,75,10|8,0:1|0:0,0:0:0:0:
502,222,35339,1,10,0:3:0:0:
502,222,35622,1,10,0:3:0:0:
432,149,35905,1,10,0:1:0:0:
432,149,36188,1,10,0:3:0:0:
482,57,36471,5,10,0:3:0:0:
276,12,37037,2,0,P|236:33|138:42,1,112.5,10|0,0:1|0:0,0:0:0:0:
170,44,37603,2,0,P|181:76|179:94,1,37.5,10|0,0:3|0:0,0:0:0:0:
140,113,37886,2,0,P|129:144|131:162,1,37.5,8|0,0:3|0:0,0:0:0:0:
141,199,38169,1,10,0:1:0:0:
235,243,38452,1,8,0:3:0:0:
322,326,38735,6,0,P|294:319|247:420,1,129.375002467632,10|0,0:3|0:0,0:0:0:0:
232,383,39301,2,0,P|182:371|80:364,1,129.375002467632,10|0,0:1|0:0,0:0:0:0:
105,363,39867,5,10,0:3:0:0:
13,285,40150,1,10,0:0:0:0:
93,195,40433,2,0,B|110:185|110:185|224:197,1,129.375002467632,10|0,0:1|0:0,0:0:0:0:
219,196,40999,6,0,P|195:181|205:84,1,129.375002467632,10|0,0:3|0:0,0:0:0:0:
196,90,41565,1,10,0:1:0:0:
77,109,41848,1,10,0:0:0:0:
4,12,42131,2,0,L|142:5,1,129.375002467632,10|0,0:3|0:0,0:0:0:0:
133,5,42697,1,10,0:1:0:0:
253,8,42980,1,10,0:0:0:0:
373,5,43263,6,0,B|361:38|361:38|383:132,1,129.375002467632,10|0,0:3|0:0,0:0:0:0:
382,129,43829,2,0,P|393:106|362:127,1,86.2500016450882,8|8,0:1|0:0,0:0:0:0:
448,200,44395,6,0,B|460:233|460:233|438:327,1,129.375002467632,10|0,0:3|0:0,0:0:0:0:
438,325,44961,2,0,P|427:301|458:322,1,86.2500016450882,8|8,0:1|0:0,0:0:0:0:
361,373,45528,5,10,0:3:0:0:
361,373,45811,1,8,0:3:0:0:
249,325,46094,1,8,0:1:0:0:
249,325,46377,1,8,0:3:0:0:
128,327,46660,2,0,L|117:234,1,86.2500016450882,10|8,0:3|0:0,0:0:0:0:
209,162,47226,2,0,L|198:247,1,86.2500016450882,8|8,0:1|0:0,0:0:0:0:
111,164,47792,6,0,P|50:138|34:77,1,129.375002467632,10|0,0:3|0:0,0:0:0:0:
33,81,48358,2,0,L|176:62,1,129.375002467632,10|0,0:1|0:0,0:0:0:0:
161,63,48924,5,10,0:3:0:0:
274,20,49207,1,10,0:3:0:0:
391,45,49490,2,0,B|419:62|419:62|411:169,1,129.375002467632,10|0,0:1|0:0,0:0:0:0:
411,158,50056,6,0,L|252:169,1,129.375002467632,10|0,0:3|0:0,0:0:0:0:
282,166,50622,1,10,0:1:0:0:
168,128,50905,1,10,0:0:0:0:
102,229,51188,1,10,0:3:0:0:
167,346,51471,1,8,0:3:0:0:
167,346,51612,1,0,0:0:0:0:
167,346,51754,6,0,L|316:335,1,129.375002467632,14|0,0:1|0:0,0:0:0:0:
296,337,52320,2,0,L|286:185,1,129.375002467632,10|0,0:3|0:0,0:0:0:0:
288,207,52886,2,0,P|334:200|376:279,1,129.375002467632,10|0,0:1|0:0,0:0:0:0:
379,260,53452,5,10,0:3:0:0:
460,350,53735,1,10,0:0:0:0:
510,240,54018,2,0,L|502:151,1,86.2500016450882,10|8,0:1|0:0,0:0:0:0:
488,34,54584,5,10,0:3:0:0:
488,34,54867,1,10,0:3:0:0:
377,81,55150,1,10,0:1:0:0:
377,81,55433,1,8,0:3:0:0:
297,12,55716,6,0,P|260:25|246:108,1,112.5,10|0,0:3|0:0,0:0:0:0:
238,89,56282,1,10,0:1:0:0:
183,179,56565,1,8,0:0:0:0:
271,235,56848,2,0,L|394:227,1,112.5,10|0,0:3|0:0,0:0:0:0:
383,227,57414,2,0,P|381:177|346:153,1,75,10|8,0:1|0:0,0:0:0:0:
466,132,57980,6,0,P|459:188|500:250,1,112.5,10|0,0:3|0:0,0:0:0:0:
483,236,58546,2,0,P|506:270|505:319,1,75,10|8,0:1|0:0,0:0:0:0:
437,380,59112,2,0,L|357:372,1,75,10|10,0:3|0:0,0:0:0:0:
284,302,59678,2,0,L|209:309,1,75,10|10,0:1|0:0,0:0:0:0:
124,371,60244,5,8,0:3:0:0:
52,294,60527,1,10,0:0:0:0:
52,294,60810,2,0,P|29:245|51:176,1,112.5,10|0,0:1|0:0,0:0:0:0:
40,189,61376,2,0,P|83:146|72:117,1,75,10|10,0:3|0:3,0:0:0:0:
13,58,61942,1,10,0:1:0:0:
13,58,62225,1,10,0:3:0:0:
110,19,62508,6,0,L|241:11,1,112.5,10|0,0:3|0:0,0:0:0:0:
222,12,63074,1,10,0:1:0:0:
206,115,63357,1,10,0:0:0:0:
298,164,63640,2,0,P|342:135|341:51,1,112.5,8|0,0:3|0:0,0:0:0:0:
353,79,64206,2,0,P|360:119|405:138,1,75,10|10,0:1|0:0,0:0:0:0:
490,152,64772,5,8,0:3:0:0:
504,255,65055,1,10,0:0:0:0:
504,255,65338,2,0,L|376:252,1,112.5,10|0,0:1|0:0,0:0:0:0:
391,252,65904,2,0,P|391:294|421:325,1,75,8|0,0:3|0:0,0:0:0:0:
322,375,66470,1,8,0:1:0:0:
322,375,66753,1,10,0:3:0:0:
241,307,67036,6,0,L|232:171,1,112.5,8|0,0:3|0:0,0:0:0:0:
233,194,67602,1,10,0:1:0:0:
293,108,67885,1,10,0:0:0:0:
223,29,68168,2,0,L|132:34,1,75,8|8,0:3|0:0,0:0:0:0:
43,45,68734,1,8,0:1:0:0:
43,45,69017,1,10,0:0:0:0:
15,124,69300,6,0,L|20:196,3,60,8|0|8|0,0:3|0:0|0:3|0:0,0:0:0:0:
95,217,70432,2,0,L|90:276,3,60,10|0|8|2,0:3|0:0|0:3|0:0,0:0:0:0:
111,358,71565,2,0,L|170:362,3,60,8|0|8|0,0:3|0:0|0:3|0:0,0:0:0:0:
240,315,72697,2,0,L|299:310,3,60,8|0|8|2,0:3|0:0|0:3|0:0,0:0:0:0:
360,368,73829,6,0,P|386:361|437:368,1,60,8|0,0:3|0:0,0:0:0:0:
501,374,74395,2,0,P|499:344|506:315,1,60,8|0,0:3|0:0,0:0:0:0:
508,231,74961,2,0,P|482:238|431:231,1,60,10|0,0:3|0:0,0:0:0:0:
371,204,75527,2,0,P|372:233|365:262,1,60,8|2,0:3|0:0,0:0:0:0:
299,310,76093,6,0,L|237:314,1,60,8|0,0:3|0:0,0:0:0:0:
208,235,76659,2,0,L|270:239,1,60,8|0,0:3|0:0,0:0:0:0:
302,162,77225,2,0,L|240:166,1,60,8|0,0:3|0:0,0:0:0:0:
211,87,77791,2,0,L|273:91,1,60,8|2,0:3|0:1,0:0:0:0:
335,37,78357,5,8,0:3:0:0:
335,37,78640,1,0,0:0:0:0:
418,49,78923,1,8,0:3:0:0:
418,49,79206,1,0,0:0:0:0:
462,125,79489,6,0,L|457:203,1,60,10|0,0:3|0:0,0:0:0:0:
385,227,80055,2,0,L|390:305,1,60,8|2,0:3|0:0,0:0:0:0:
403,373,80621,5,8,0:3:0:0:
403,373,80904,1,0,0:0:0:0:
318,360,81187,1,8,0:3:0:0:
318,360,81470,1,0,0:0:0:0:
235,377,81753,1,10,0:3:0:0:
235,377,82036,1,0,0:0:0:0:
158,341,82319,1,8,0:3:0:0:
79,371,82602,1,2,0:0:0:0:
79,371,82744,1,0,0:0:0:0:
79,371,82885,6,0,P|55:323|58:298,1,60,8|0,0:3|0:0,0:0:0:0:
72,236,83451,1,8,0:1:0:0:
4,82,84017,2,0,P|52:106|77:103,1,60,10|0,0:3|0:0,0:0:0:0:
139,89,84583,1,8,0:1:0:0:
290,16,85149,6,0,L|284:91,1,60,8|0,0:3|0:0,0:0:0:0:
277,159,85716,1,8,0:1:0:0:
221,317,86282,2,0,L|296:311,1,60,8|0,0:3|0:0,0:0:0:0:
364,304,86849,1,10,0:1:0:0:
501,208,87414,6,0,B|511:238|511:238|499:275,1,60,8|0,0:3|0:0,0:0:0:0:
480,346,87980,1,8,0:1:0:0:
360,227,88546,2,0,B|350:197|350:197|362:160,1,60,10|0,0:3|0:0,0:0:0:0:
381,89,89112,1,8,0:1:0:0:
234,6,89678,6,0,P|188:32|165:33,1,60,8|0,0:3|0:0,0:0:0:0:
97,30,90244,1,8,0:1:0:0:
30,184,90810,1,8,0:3:0:0:
112,158,91093,1,0,1:0:0:0:
112,158,91376,1,8,0:1:0:0:
190,188,91659,1,2,1:0:0:0:
190,188,91942,6,0,P|202:224|187:261,1,60,8|0,0:3|0:0,0:0:0:0:
177,326,92508,1,8,0:1:0:0:
18,381,93074,2,0,P|6:345|21:308,1,60,10|0,0:3|0:0,0:0:0:0:
31,243,93640,1,8,0:1:0:0:
12,76,94206,6,0,L|95:62,1,60,8|0,0:3|0:0,0:0:0:0:
153,49,94772,1,8,0:1:0:0:
221,98,95055,1,0,1:0:0:0:
221,98,95338,1,10,0:3:0:0:
293,55,95621,1,0,1:0:0:0:
293,55,95904,1,8,0:1:0:0:
356,110,96187,1,2,1:0:0:0:
356,110,96470,6,0,P|330:156|361:215,1,112.5,8|0,0:3|0:0,0:0:0:0:
351,207,97036,2,0,P|398:201|432:216,1,75,8|8,0:1|0:0,0:0:0:0:
499,138,97602,2,0,L|505:54,1,75,10|8,0:3|0:0,0:0:0:0:
417,4,98168,2,0,L|342:-1,1,75,8|10,0:1|0:0,0:0:0:0:
265,69,98734,6,0,P|243:111|260:175,1,112.5,8|0,0:3|0:0,0:0:0:0:
257,171,99300,2,0,P|206:160|165:174,1,75,8|8,0:1|0:0,0:0:0:0:
90,117,99866,2,0,L|-1:124,1,75,8|8,0:3|0:0,0:0:0:0:
7,227,100432,2,0,L|98:234,1,75,8|10,0:1|0:0,0:0:0:0:
129,326,100999,6,0,B|174:325|174:325|195:335|195:335|248:334,1,112.5,8|0,0:3|0:0,0:0:0:0:
239,334,101565,2,0,B|272:350|272:350|314:336,1,75,8|8,0:1|0:0,0:0:0:0:
403,382,102131,2,0,L|389:288,1,75,10|8,0:3|0:0,0:0:0:0:
442,216,102697,1,8,0:1:0:0:
442,216,102980,1,10,0:0:0:0:
357,166,103263,6,0,P|289:180|225:179,1,112.5,8|0,0:3|0:0,0:0:0:0:
246,180,103829,2,0,L|234:105,1,75,8|8,0:1|0:0,0:0:0:0:
287,16,104395,2,0,P|323:9|368:31,1,75,8|8,0:3|0:0,0:0:0:0:
411,112,104961,1,8,0:1:0:0:
411,112,105244,1,10,0:0:0:0:
362,205,105527,6,0,L|243:201,1,112.5,8|0,0:3|0:0,0:0:0:0:
249,201,106093,2,0,L|162:207,1,75,8|8,0:1|0:0,0:0:0:0:
70,215,106659,1,10,0:3:0:0:
70,215,106942,1,8,0:0:0:0:
11,127,107225,1,8,0:1:0:0:
11,127,107508,1,10,0:0:0:0:
82,50,107791,6,0,P|96:80|105:134,1,75,8|8,0:3|0:2,0:0:0:0:
167,205,108357,2,0,P|153:235|144:289,1,75,8|8,0:1|0:0,0:0:0:0:
82,360,108923,1,10,0:3:0:0:
82,360,109206,1,8,0:0:0:0:
185,377,109489,1,8,0:1:0:0:
185,377,109772,1,8,0:0:0:0:
298,336,110055,5,8,0:3:0:0:
409,382,110338,2,0,P|396:335|396:322,1,43.1250008225441,10|0,0:2|0:0,0:0:0:0:
396,340,110621,2,0,P|404:295|368:203,1,129.375002467632,10|0,0:1|0:0,0:0:0:0:
379,217,111187,1,10,0:3:0:0:
259,231,111470,1,10,0:0:0:0:
181,138,111753,1,8,0:1:0:0:
279,67,112036,2,0,L|331:65,1,43.1250008225441,10|0,0:0|0:0,0:0:0:0:
322,65,112319,6,0,P|366:85|435:41,1,129.375002467632,10|0,0:3|0:0,0:0:0:0:
431,47,112885,1,10,0:1:0:0:
503,145,113168,1,10,0:0:0:0:
464,259,113451,2,0,L|472:345,2,86.2500016450882,8|8|10,0:3|0:3|0:1,0:0:0:0:
391,355,114300,1,10,0:0:0:0:
271,373,114583,6,0,P|266:323|277:217,1,129.375002467632,10|0,0:3|0:0,0:0:0:0:
271,244,115149,2,0,P|244:198|163:223,1,129.375002467632,10|0,0:1|0:0,0:0:0:0:
175,205,115716,1,10,0:3:0:0:
158,324,115999,1,10,0:0:0:0:
46,371,116282,2,0,P|40:311|24:230,1,129.375002467632,10|0,0:1|0:0,0:0:0:0:
27,243,116848,6,0,L|36:149,1,86.2500016450882,10|0,0:3|0:0,0:0:0:0:
8,39,117414,1,10,0:1:0:0:
8,39,117697,1,10,0:0:0:0:
126,17,117980,2,0,P|166:37|177:117,1,129.375002467632,10|0,0:3|0:0,0:0:0:0:
178,114,118546,1,10,0:1:0:0:
266,196,118829,1,10,0:0:0:0:
375,144,119112,6,0,B|392:118|392:118|364:8,1,129.375002467632,10|0,0:3|0:0,0:0:0:0:
367,22,119678,2,0,P|316:41|241:19,1,129.375002467632,10|0,0:1|0:0,0:0:0:0:
245,22,120244,1,10,0:3:0:0:
125,17,120527,1,10,0:0:0:0:
31,93,120810,1,10,0:1:0:0:
37,213,121093,1,10,0:0:0:0:
152,247,121376,6,0,P|201:258|273:295,1,129.375002467632,10|0,0:3|0:0,0:0:0:0:
271,293,121942,2,0,L|251:137,1,129.375002467632,10|0,0:1|0:0,0:0:0:0:
254,164,122508,2,0,B|313:132|313:132|377:147,1,129.375002467632,10|0,0:3|0:0,0:0:0:0:
373,146,123074,2,0,P|401:188|463:114,1,172.500003290176,10|8,0:0|0:0,0:0:0:0:
256,192,123923,12,6,126753,1:3:0:0:
