osu file format v14

[General]
AudioFilename: audio.mp3
AudioLeadIn: 0
PreviewTime: 110055
Countdown: 0
SampleSet: Soft
StackLeniency: 0.6
Mode: 0
LetterboxInBreaks: 0
WidescreenStoryboard: 1

[Editor]
DistanceSpacing: 0.9
BeatDivisor: 4
GridSize: 32
TimelineZoom: 1.7

[Metadata]
Title:Washing Machine Heart
TitleUnicode:Washing Machine Heart
Artist:Mitski
ArtistUnicode:Mitski
Creator:Astrolis
Version:Easy
Source:
Tags:english pop alternative be the cowboy bakari -bakari- riffy mniam witch house witchhouse indie rock
BeatmapID:3223022
BeatmapSetID:1572759

[Difficulty]
HPDrainRate:2.5
CircleSize:3
OverallDifficulty:2
ApproachRate:2.5
SliderMultiplier:1.2
SliderTickRate:1

[Events]
//Background and Video events
0,0,"81138363_p0.jpg",0,0
//Break Periods
//Storyboard Layer 0 (Background)
//Storyboard Layer 1 (Fail)
//Storyboard Layer 2 (Pass)
//Storyboard Layer 3 (Foreground)
//Storyboard Layer 4 (Overlay)
//Storyboard Sound Samples

[TimingPoints]
245,566.037735849057,4,2,1,40,1,0
2509,-100,4,2,1,40,0,0
7037,-100,4,2,1,60,0,0
38735,-100,4,2,1,80,0,0
39301,-100,4,2,1,80,0,0
40433,-100,4,2,1,80,0,0
40999,-100,4,2,1,80,0,0
42131,-100,4,2,1,80,0,0
42697,-100,4,2,1,80,0,0
42980,-100,4,2,1,80,0,0
43263,-100,4,2,1,80,0,0
44395,-100,4,2,1,80,0,0
47792,-100,4,2,1,80,0,0
48358,-100,4,2,1,80,0,0
49490,-100,4,2,1,80,0,0
50056,-100,4,2,1,80,0,0
50622,-100,4,2,1,80,0,0
50905,-100,4,2,1,80,0,0
51612,-100,4,2,1,80,0,0
51754,-100,4,2,1,80,0,0
52886,-100,4,2,1,80,0,0
53452,-100,4,2,1,80,0,0
55716,566.037735849057,4,2,1,40,1,0
55716,-100,4,2,1,60,0,0
69300,-100,4,2,1,60,0,0
71565,-100,4,2,1,60,0,0
96470,-100,4,2,1,60,0,0
110055,-100,4,2,1,80,0,0
111187,-100,4,2,1,80,0,0
111470,-100,4,2,1,80,0,0
112319,-100,4,2,1,80,0,0
114583,-100,4,2,1,80,0,0
115149,-100,4,2,1,80,0,0
115716,-100,4,2,1,80,0,0
116848,-100,4,2,1,80,0,0
117980,-100,4,2,1,80,0,0
118546,-100,4,2,1,80,0,0
118829,-100,4,2,1,80,0,0
119112,-100,4,2,1,80,0,0
119678,-100,4,2,1,80,0,0
120244,-100,4,2,1,80,0,0
120527,-100,4,2,1,80,0,0
121093,-100,4,2,1,80,0,0
121942,-100,4,2,1,80,0,0
122508,-100,4,2,1,80,0,0
123074,-100,4,2,1,80,0,0
124206,-100,4,1,2,40,0,0
124772,-100,4,1,2,50,0,0
125338,-100,4,1,2,60,0,0
125904,-100,4,1,2,70,0,0
126470,-100,4,1,2,80,0,0

[Colours]
Combo1 : 110,110,110
Combo2 : 192,192,192
Combo3 : 144,144,144

[HitObjects]
8,102,7037,6,0,L|133:93,1,120,10|10,0:3|0:1,0:0:0:0:
235,103,8169,2,0,P|226:159|231:182,2,60,10|10|10,0:3|0:0|0:1,0:0:0:0:
324,43,9301,2,0,P|372:34|441:68,1,120,10|10,0:3|0:1,0:0:0:0:
495,151,10433,2,0,L|504:211,2,60,10|8|10,0:3|0:3|0:1,0:0:0:0:
389,175,11565,2,0,B|360:204|360:204|272:211,1,120,10|10,0:3|0:1,0:0:0:0:
173,216,12697,1,10,0:3:0:0:
99,136,13263,1,10,0:1:0:0:
9,196,13829,1,10,0:3:0:0:
7,303,14395,1,10,0:1:0:0:
97,361,14961,2,0,L|230:371,1,120,10|10,0:3|0:1,0:0:0:0:
324,380,16094,6,0,P|312:344|343:257,1,120,8|10,0:3|0:1,0:0:0:0:
418,201,17226,2,0,L|413:127,2,60,8|10|10,0:3|0:0|0:1,0:0:0:0:
502,268,18358,2,0,P|523:322|511:380,1,120,10|10,0:3|0:1,0:0:0:0:
403,372,19490,2,0,P|351:368|322:370,2,60,10|8|10,0:3|0:0|0:1,0:0:0:0:
401,264,20622,2,0,P|335:256|274:255,1,120,10|10,0:3|0:1,0:0:0:0:
190,313,21754,1,10,0:3:0:0:
116,234,22320,1,10,0:1:0:0:
178,145,22886,1,10,0:3:0:0:
127,49,23452,1,10,0:1:0:0:
231,20,24018,2,0,P|265:42|350:15,1,120,10|10,0:3|0:1,0:0:0:0:
445,6,25150,6,0,L|437:131,1,120,10|10,0:3|0:1,0:0:0:0:
429,233,26282,2,0,P|375:254|317:215,1,120,10|10,0:3|0:1,0:0:0:0:
246,151,27414,1,10,0:3:0:0:
146,193,27980,1,10,0:1:0:0:
64,121,28546,2,0,L|69:51,2,60,10|10|10,0:3|0:3|0:1,0:0:0:0:
2,209,29678,6,0,L|13:331,1,120,10|10,0:3|0:1,0:0:0:0:
109,375,30811,2,0,L|178:378,2,60,10|0|10,0:3|0:0|0:1,0:0:0:0:
132,269,31943,2,0,L|258:277,1,120,10|10,0:3|0:1,0:0:0:0:
347,321,33075,2,0,L|341:403,2,60,10|8|10,0:3|0:3|0:1,0:0:0:0:
448,283,34207,2,0,B|483:262|483:262|492:168,1,120,10|10,0:3|0:1,0:0:0:0:
495,76,35339,1,10,0:3:0:0:
403,19,35905,1,10,0:1:0:0:
318,86,36471,1,10,0:3:0:0:
223,33,37037,1,10,0:1:0:0:
176,130,37603,2,0,P|195:172|200:258,1,120,10|10,0:3|0:1,0:0:0:0:
135,329,38735,5,10,0:3:0:0:
34,288,39301,2,0,P|11:232|8:173,1,120,10|10,0:1|0:3,0:0:0:0:
59,78,40433,1,10,0:1:0:0:
158,35,40999,1,10,0:3:0:0:
250,92,41565,1,10,0:1:0:0:
342,36,42131,2,0,L|470:42,1,120,10|10,0:3|0:1,0:0:0:0:
490,145,43263,2,0,B|508:165|508:165|499:286,1,120,10|8,0:3|0:1,0:0:0:0:
413,320,44395,2,0,B|395:300|395:300|404:179,1,120,10|8,0:3|0:1,0:0:0:0:
344,115,45528,2,0,P|344:73|355:44,2,60,10|8|8,0:3|0:3|0:1,0:0:0:0:
258,181,46660,2,0,P|265:210|264:239,2,60,10|8|8,0:3|0:0|0:1,0:0:0:0:
189,97,47792,5,10,0:3:0:0:
101,33,48358,2,0,P|53:30|12:83,1,120,10|10,0:1|0:3,0:0:0:0:
76,168,49490,1,10,0:1:0:0:
25,263,50056,1,10,0:3:0:0:
89,349,50622,1,10,0:1:0:0:
154,262,51188,1,10,0:3:0:0:
261,265,51754,2,0,L|273:384,2,120,14|10|10,0:1|0:3|0:1,0:0:0:0:
183,190,53452,2,0,P|203:143|186:64,1,120,10|10,0:3|0:1,0:0:0:0:
277,9,54584,2,0,P|324:29|403:12,1,120,10|10,0:3|0:1,0:0:0:0:
498,22,55716,6,0,L|490:153,1,120,10|10,0:3|0:1,0:0:0:0:
393,189,56848,2,0,L|400:260,2,60,10|8|10,0:3|0:0|0:1,0:0:0:0:
304,127,57980,2,0,P|250:108|194:146,1,120,10|10,0:3|0:1,0:0:0:0:
228,241,59112,1,10,0:3:0:0:
204,346,59678,1,10,0:1:0:0:
96,359,60244,2,0,B|71:340|71:340|60:226,1,120,8|10,0:3|0:1,0:0:0:0:
13,155,61376,2,0,L|6:81,2,60,10|10|10,0:3|0:3|0:1,0:0:0:0:
120,143,62508,2,0,P|155:127|182:54,1,120,10|10,0:3|0:1,0:0:0:0:
282,14,63640,1,8,0:3:0:0:
383,51,64206,1,10,0:1:0:0:
486,21,64772,5,8,0:3:0:0:
505,127,65338,2,0,P|487:153|495:246,1,120,10|8,0:1|0:3,0:0:0:0:
491,345,66470,1,8,0:1:0:0:
386,373,67036,2,0,L|250:365,1,120,8|10,0:3|0:1,0:0:0:0:
223,266,68168,1,8,0:3:0:0:
283,176,68734,1,8,0:1:0:0:
264,69,69300,6,0,P|219:83|152:52,1,120,8|8,0:3|0:3,0:0:0:0:
47,42,70432,2,0,P|74:94|60:151,1,120,10|8,0:3|0:3,0:0:0:0:
46,258,71565,2,0,P|98:230|155:244,1,120,8|8,0:3|0:3,0:0:0:0:
258,275,72697,2,0,P|244:217|271:165,1,120,8|8,0:3|0:3,0:0:0:0:
373,127,73829,1,8,0:3:0:0:
473,166,74395,1,8,0:3:0:0:
481,273,74961,1,10,0:3:0:0:
386,324,75527,1,8,0:3:0:0:
278,323,76093,6,0,L|271:399,2,60,8|0|8,0:3|0:0|0:3,0:0:0:0:
207,240,77225,2,0,L|201:180,2,60,8|0|8,0:3|0:0|0:3,0:0:0:0:
150,332,78357,2,0,P|87:356|25:325,1,120,8|8,0:3|0:3,0:0:0:0:
4,237,79489,2,0,L|-1:177,2,60,10|0|8,0:3|0:0|0:3,0:0:0:0:
111,237,80621,1,8,0:3:0:0:
131,130,81187,1,8,0:3:0:0:
221,70,81753,1,10,0:3:0:0:
304,138,82319,1,8,0:3:0:0:
373,55,82885,6,0,P|478:74|432:183,1,240,8|10,0:3|0:3,0:0:0:0:
403,274,84583,1,8,0:1:0:0:
297,256,85149,2,0,P|192:236|220:134,1,240,8|8,0:3|0:3,0:0:0:0:
297,57,86848,1,10,0:1:0:0:
197,15,87414,2,0,L|67:13,1,120,8|8,0:3|0:1,0:0:0:0:
15,101,88546,1,10,0:3:0:0:
69,194,89112,1,8,0:1:0:0:
22,291,89678,2,0,L|150:300,1,120,8|8,0:3|0:1,0:0:0:0:
222,370,90810,2,0,B|273:361|273:361|292:368|292:368|351:354,1,120,8|8,0:3|0:1,0:0:0:0:
446,350,91942,5,8,0:3:0:0:
496,254,92508,1,8,0:1:0:0:
414,182,93074,2,0,L|282:178,1,120,10|8,0:3|0:1,0:0:0:0:
228,263,94206,1,8,0:3:0:0:
122,240,94772,2,0,B|113:183|113:183|123:162|123:162|111:113,1,120,8|10,0:1|0:3,0:0:0:0:
27,59,95904,1,8,0:1:0:0:
117,0,96470,6,0,P|154:11|243:-2,1,120,8|8,0:3|0:1,0:0:0:0:
339,25,97602,1,10,0:3:0:0:
420,96,98168,1,8,0:1:0:0:
365,189,98734,2,0,B|308:171|308:171|232:199,1,120,8|8,0:3|0:1,0:0:0:0:
152,235,99866,1,8,0:3:0:0:
48,203,100432,1,8,0:1:0:0:
11,304,100999,2,0,B|40:334|40:334|122:354,1,120,8|8,0:3|0:1,0:0:0:0:
216,313,102131,1,10,0:3:0:0:
304,375,102697,1,8,0:1:0:0:
402,329,103263,6,0,L|388:181,1,120,8|8,0:3|0:1,0:0:0:0:
460,127,104395,1,8,0:3:0:0:
411,30,104961,1,8,0:1:0:0:
307,61,105527,2,0,P|251:76|201:45,1,120,8|8,0:3|0:1,0:0:0:0:
93,31,106659,1,10,0:3:0:0:
41,126,107225,1,8,0:1:0:0:
83,225,107791,2,0,L|211:233,1,120,8|8,0:3|0:1,0:0:0:0:
297,284,108923,1,10,0:3:0:0:
324,179,109489,1,8,0:1:0:0:
263,90,110055,5,8,0:3:0:0:
351,27,110621,2,0,P|402:33|462:67,1,120,10|10,0:1|0:3,0:0:0:0:
477,172,111753,1,8,0:1:0:0:
505,276,112319,2,0,B|494:300|494:300|394:308,1,120,10|10,0:3|0:1,0:0:0:0:
293,318,113451,2,0,P|300:364|301:400,2,60,8|8|10,0:3|0:3|0:1,0:0:0:0:
237,225,114583,5,10,0:3:0:0:
308,144,115149,2,0,P|319:101|270:38,1,120,10|10,0:1|0:3,0:0:0:0:
180,86,116282,1,10,0:1:0:0:
82,40,116848,2,0,P|37:70|41:142,1,120,10|10,0:3|0:1,0:0:0:0:
88,224,117980,1,10,0:3:0:0:
33,317,118546,1,10,0:1:0:0:
126,371,119112,5,10,0:3:0:0:
217,314,119678,2,0,L|202:176,1,120,10|0,0:1|0:0,0:0:0:0:
257,100,120810,1,10,0:1:0:0:
361,74,121376,1,10,0:3:0:0:
446,139,121942,2,0,P|442:198|456:268,2,120,10|10|10,0:1|0:3|0:0,0:0:0:0:
486,39,123640,1,8,0:0:0:0:
256,192,123923,12,6,126753,1:3:0:0:
