osu file format v14

[General]
AudioFilename: audio.mp3
AudioLeadIn: 0
PreviewTime: 325571
Countdown: 1
SampleSet: None
StackLeniency: 0.7
Mode: 0
LetterboxInBreaks: 0
WidescreenStoryboard: 0

[Editor]
Bookmarks: 32428,46142,59857,73571,87285,101000,116428,130142,143857,157571,171285,227428,241571,255285,268999,282714
DistanceSpacing: 1.1
BeatDivisor: 4
GridSize: 32
TimelineZoom: 1

[Metadata]
Title:El Dorado
TitleUnicode:El Dorado
Artist:Mitose Noriko feat. Taishi
ArtistUnicode:みとせのりこ
Creator:Justus
Version:El Dorado
Source:
Tags:El Dorado Mitose Noriko Taishi
BeatmapID:1854829
BeatmapSetID:887300

[Difficulty]
HPDrainRate:5
CircleSize:4.2
OverallDifficulty:7
ApproachRate:9
SliderMultiplier:1.6
SliderTickRate:1

[Events]
//Background and Video events
0,0,"white_princess_by_huykho192-d9gecud.png",0,0
//Break Periods
//Storyboard Layer 0 (Background)
//Storyboard Layer 1 (Fail)
//Storyboard Layer 2 (Pass)
//Storyboard Layer 3 (Foreground)
//Storyboard Sound Samples

[TimingPoints]
5000,428.571428571429,4,2,0,40,1,0
5000,-100,4,2,0,15,0,0
32428,-83.3333333333333,4,2,0,40,0,0
44000,-125,4,2,0,40,0,0
46130,428.571428571429,4,3,0,40,1,0
46130,-111.111111111111,4,3,0,40,0,0
56415,-111.111111111111,4,3,0,60,0,0
58130,-111.111111111111,4,3,0,70,0,0
59857,428.571428571429,4,3,0,40,1,0
59857,-125,4,3,0,40,0,0
73571,-83.3333333333333,4,3,0,40,0,0
78714,-71.4285714285714,4,3,0,40,0,0
80428,-83.3333333333333,4,3,0,40,0,0
87285,-76.9230769230769,4,3,0,60,0,0
100785,-142.857142857143,4,3,0,40,0,0
102285,-50,4,3,0,40,0,0
102714,-50,4,3,0,80,0,1
104428,-58.8235294117647,4,3,0,80,0,1
109571,-50,4,3,0,80,0,1
110428,-58.8235294117647,4,3,0,80,0,1
114500,-142.857142857143,4,3,0,80,0,1
115142,-111.111111111111,4,3,0,80,0,1
115571,-90.909090909091,4,3,0,80,0,1
116000,-76.9230769230769,4,3,0,80,0,1
116428,-50,4,3,0,80,0,1
118142,-58.8235294117647,4,3,0,80,0,1
122428,-58.8235294117647,4,3,0,80,0,0
123285,-50,4,3,0,80,0,1
130142,-200,4,3,0,40,0,0
130250,-200,4,3,0,5,0,0
137000,-100,4,2,0,40,0,0
143857,-125,4,2,0,40,0,0
157571,-83.3333333333333,4,2,0,40,0,0
164857,-111.111111111111,4,2,0,40,0,0
167857,-90.9090909090909,4,2,0,40,0,0
171285,-76.9230769230769,4,2,0,40,0,0
184892,-76.9230769230769,4,2,0,5,0,0
185214,-76.9230769230769,4,2,0,80,0,0
186285,-133.333333333333,4,2,0,80,0,1
186499,-43.4782608695652,4,2,0,80,0,1
186714,-50,4,3,0,80,0,1
192285,-71.4285714285714,4,3,0,80,0,1
192714,-100,4,3,0,80,0,1
193571,-50,4,3,0,80,0,1
198499,-100,4,3,0,80,0,1
199142,-66.6666666666667,4,3,0,80,0,1
199571,-50,4,3,0,80,0,1
205357,-100,4,3,0,80,0,1
205999,-100,4,3,0,80,0,0
207285,-55.5555555555556,4,3,0,80,0,1
212214,-100,4,3,0,80,0,0
213285,-55.5555555555556,4,3,0,80,0,0
214142,-100,4,2,0,40,0,0

[Colours]
Combo1 : 111,151,225
Combo2 : 224,224,218
Combo3 : 164,205,255
Combo4 : 150,184,188

[HitObjects]
39,217,5000,6,0,P|76:205|116:197,1,80
204,151,5428,2,0,P|242:161|282:163,1,80
249,268,5857,2,0,P|255:307|268:346,1,80
400,121,6285,2,0,P|394:181|360:288,1,160
300,67,7142,6,0,P|277:100|249:128,1,80
212,25,7571,2,0,P|172:29|132:26,1,80
92,204,8000,2,0,P|108:167|129:134,1,80
428,154,8428,2,0,P|328:216|209:217,1,240
208,216,9285,1,0,0:0:0:0:
336,297,9714,6,0,P|375:299|414:310,1,80
237,358,10142,2,0,P|183:299|115:257,2,160
265,264,11214,2,0,P|246:186|216:112,1,160
216,112,11857,1,0,0:0:0:0:
10,168,12285,6,0,P|29:132|51:99,1,80
53,264,12714,2,0,P|102:294|125:301,1,80
135,126,13142,2,0,P|179:192|243:239,1,160
501,168,14000,6,0,P|482:132|460:99,1,80
459,264,14429,2,0,P|410:294|387:301,1,80
377,126,14857,2,0,P|357:161|331:191,1,80
227,319,15285,6,0,P|226:199|258:84,1,240
257,84,16142,1,0,0:0:0:0:
112,16,16357,2,0,P|137:91|144:171,1,160
0,305,17000,2,0,P|74:276|156:264,1,160
153,264,17642,1,0,0:0:0:0:
313,166,17857,2,0,P|266:228|277:305,1,160
144,171,18714,5,0,0:0:0:0:
277,78,19142,2,0,P|238:83|198:84,1,80
106,33,19571,2,0,P|66:32|26:26,1,80
13,234,20000,2,0,P|37:159|98:108,1,160
264,220,20857,6,0,P|253:258|245:297,1,80
429,186,21285,2,0,P|391:173|358:150,1,80
327,339,21714,2,0,P|342:303|371:277,1,80
222,146,22142,2,0,P|249:199|244:299,1,160
244,297,22785,1,0,0:0:0:0:
357,149,23214,5,0,0:0:0:0:
357,149,23428,2,0,P|358:110|365:70,1,80
217,69,23857,6,0,P|258:96|255:202,1,160
258,197,24500,1,0,0:0:0:0:
66,175,24928,1,0,0:0:0:0:
66,175,25142,6,0,P|105:174|144:165,1,80
206,263,25571,2,0,P|166:262|127:253,1,80
381,170,26000,6,0,P|341:178|302:179,1,80
380,17,26428,2,0,P|356:48|341:85,1,80
499,156,26857,6,0,P|474:124|460:87,1,80
470,233,27285,2,0,P|433:246|393:250,1,80
209,332,27714,6,0,P|247:323|287:322,1,80
195,163,28142,2,0,P|202:202|217:239,1,80
98,66,28571,6,0,P|136:75|176:76,1,80
84,236,28999,2,0,P|91:196|106:159,1,80
122,306,29642,5,0,0:0:0:0:
217,239,30285,1,0,0:0:0:0:
351,287,30714,5,0,0:0:0:0:
315,172,30928,1,0,0:0:0:0:
445,112,31357,5,0,0:0:0:0:
328,83,31571,2,0,B|293:79|293:79|262:83|262:83|238:76|238:76|220:83|220:83|187:79|187:79|172:72|172:72|148:85|148:85|135:83,1,200
127,154,32214,5,0,3:0:0:0:
131,193,32321,1,0,3:0:0:0:
136,233,32428,1,0,3:0:0:0:
376,336,32857,6,0,B|332:209|332:209|347:153,2,191.999994140625
91,172,34571,6,0,B|163:167|163:167|210:230|210:230|250:239,3,191.999994140625
403,79,37357,5,0,0:0:0:0:
397,126,37464,1,0,0:0:0:0:
391,174,37571,2,0,B|341:219|341:219|254:207|254:207|232:136|232:136|305:83|305:83|275:140,1,383.99998828125
167,200,38642,5,0,0:0:0:0:
71,285,39071,5,0,0:0:0:0:
118,283,39178,1,0,0:0:0:0:
166,282,39285,1,0,0:0:0:0:
99,96,39714,6,0,B|69:54|69:54|49:171|49:171|57:208,2,191.999994140625
331,198,41428,6,0,B|369:121|369:121|336:87|336:87|286:88|286:88|287:96,3,191.999994140625
311,289,44000,5,0,0:0:0:0:
418,193,44214,1,0,0:0:0:0:
390,315,44428,2,0,B|311:288|311:288|252:310|252:310|143:275,1,256
302,149,45928,5,0,0:0:0:0:
255,148,46035,1,0,0:0:0:0:
208,162,46130,2,0,P|181:185|148:198,1,71.9999978027344
156,42,46559,2,0,P|149:77|136:110,1,71.9999978027344
330,63,46988,6,0,P|297:47|262:41,1,71.9999978027344
284,218,47416,2,0,P|299:179|302:142,1,71.9999978027344
455,71,47845,6,0,P|490:107|505:131,1,71.9999978027344
440,297,48273,2,0,P|436:261|437:225,1,71.9999978027344
273,342,48702,6,0,P|308:335|341:321,1,71.9999978027344
159,377,49130,2,0,P|123:378|87:372,1,71.9999978027344
147,192,49559,6,0,P|135:226|127:261,1,71.9999978027344
71,151,49988,2,0,P|35:145|0:144,1,71.9999978027344
265,89,50416,6,0,P|236:66|204:51,1,71.9999978027344
361,90,50845,2,0,P|389:69|416:45,1,71.9999978027344
223,209,51273,6,0,P|204:178|193:144,1,71.9999978027344
359,214,51702,2,0,P|378:184|400:156,1,71.9999978027344
191,355,52130,6,0,P|191:320|186:284,1,71.9999978027344
371,375,52559,2,0,P|361:340|358:304,1,71.9999978027344
471,228,52988,6,0,P|447:202|435:168,1,71.9999978027344
380,59,53416,2,0,P|369:93|350:123,1,71.9999978027344
210,213,53845,6,0,P|243:202|276:186,1,71.9999978027344
145,273,54273,2,0,P|110:264|76:251,1,71.9999978027344
367,384,54702,6,0,P|401:371|435:362,1,71.9999978027344
301,324,55130,2,0,P|269:309|235:297,1,71.9999978027344
404,176,55559,6,0,P|384:206|370:239,1,71.9999978027344
500,179,55988,2,0,P|499:143|489:108,1,71.9999978027344
323,86,56416,5,0,0:0:0:0:
302,165,56630,1,0,0:0:0:0:
207,92,56845,1,0,0:0:0:0:
186,13,57059,1,0,0:0:0:0:
84,189,57273,5,0,0:0:0:0:
192,170,57488,1,0,0:0:0:0:
39,107,57702,1,0,0:0:0:0:
0,207,57916,1,0,0:0:0:0:
71,299,58130,5,6,0:0:0:0:
106,295,58237,1,0,0:0:0:0:
142,292,58344,1,2,0:0:0:0:
178,289,58451,1,0,0:0:0:0:
164,220,58559,5,6,0:0:0:0:
196,234,58666,1,0,0:0:0:0:
228,249,58773,1,2,0:0:0:0:
261,264,58880,1,0,0:0:0:0:
254,333,58988,5,6,0:0:0:0:
282,312,59095,1,0,0:0:0:0:
311,292,59202,1,2,0:0:0:0:
340,270,59309,1,0,0:0:0:0:
348,202,59416,5,6,0:0:0:0:
369,230,59523,1,0,0:0:0:0:
389,259,59630,1,2,0:0:0:0:
411,288,59737,1,0,0:0:0:0:
483,247,59857,6,0,L|476:184,1,64,6|0,0:0|0:0,0:0:0:0:
435,98,60178,1,0,0:0:0:0:
435,98,60285,2,0,L|371:98,1,64
215,86,60714,6,0,L|257:133,1,64
140,125,61142,1,0,0:0:0:0:
116,98,61249,1,0,0:0:0:0:
92,71,61357,2,0,L|72:45,1,32
25,133,61571,5,0,0:0:0:0:
27,164,61678,1,0,0:0:0:0:
27,196,61785,1,0,0:0:0:0:
166,221,62000,2,0,L|103:234,1,64
282,198,62428,2,0,L|344:211,1,64
233,307,62857,5,0,0:0:0:0:
344,211,63071,1,0,0:0:0:0:
375,205,63178,1,0,0:0:0:0:
406,199,63285,1,0,0:0:0:0:
300,80,63500,1,0,0:0:0:0:
295,111,63607,1,0,0:0:0:0:
290,143,63714,1,0,0:0:0:0:
375,127,63928,1,0,0:0:0:0:
492,129,64142,5,0,0:0:0:0:
406,199,64356,1,0,0:0:0:0:
389,46,64571,1,0,0:0:0:0:
359,57,64678,1,0,0:0:0:0:
329,68,64785,2,0,L|299:79,1,32
212,61,65000,5,0,0:0:0:0:
216,92,65107,1,0,0:0:0:0:
219,124,65214,2,0,L|222:155,1,32
170,224,65428,6,0,L|233:232,1,64
371,170,65857,2,0,L|307:161,1,64
332,267,66285,1,0,0:0:0:0:
337,298,66392,1,0,0:0:0:0:
343,329,66500,2,0,L|348:368,1,32
436,373,66714,6,0,L|454:311,1,64
476,240,67035,1,0,0:0:0:0:
476,240,67142,2,0,L|424:201,1,64
332,267,67571,2,0,L|272:291,1,64
184,161,68000,5,0,0:0:0:0:
211,177,68107,1,0,0:0:0:0:
239,193,68214,2,0,L|267:208,1,32
176,282,68428,5,0,0:0:0:0:
148,297,68535,1,0,0:0:0:0:
120,313,68642,2,0,L|92:329,1,32
56,248,68857,6,0,L|69:164,1,64
137,136,69285,2,0,L|146:72,1,64
62,65,69714,1,0,0:0:0:0:
225,51,69928,1,0,0:0:0:0:
246,74,70035,1,0,0:0:0:0:
268,97,70142,2,0,L|276:170,1,64
368,187,70464,1,0,0:0:0:0:
368,187,70571,2,0,L|326:236,1,64
348,102,71000,6,0,L|389:52,1,64
470,103,71428,1,0,0:0:0:0:
474,134,71535,1,0,0:0:0:0:
479,166,71642,2,0,L|483:198,1,32
415,247,71857,1,0,0:0:0:0:
410,278,71964,1,0,0:0:0:0:
405,310,72071,2,0,L|400:342,1,32
312,275,72285,6,0,L|306:211,1,64
208,177,72714,5,0,0:0:0:0:
176,172,72821,1,0,0:0:0:0:
144,168,72928,1,0,0:0:0:0:
173,262,73142,1,0,0:0:0:0:
173,262,73357,1,0,0:0:0:0:
131,57,73571,6,0,B|170:85|170:85|217:92,1,95.9999970703126
300,38,73892,1,0,0:0:0:0:
300,38,74000,2,0,B|297:85|297:85|313:131,1,95.9999970703126
416,73,74428,5,0,0:0:0:0:
200,89,74750,1,0,0:0:0:0:
326,263,75071,1,0,0:0:0:0:
424,158,75285,6,0,B|371:172|371:172|329:168,1,95.9999970703126
246,224,75607,1,0,0:0:0:0:
246,224,75714,2,0,B|198:213|198:213|151:219,1,95.9999970703126
192,323,76142,5,0,0:0:0:0:
283,126,76464,1,0,0:0:0:0:
68,147,76785,1,0,0:0:0:0:
178,54,77000,6,0,B|227:38|227:38|271:38,1,95.9999970703126
377,98,77321,1,0,0:0:0:0:
377,98,77428,2,0,B|363:48|363:48|379:7,1,95.9999970703126
486,129,77857,5,0,0:0:0:0:
276,180,78178,1,0,0:0:0:0:
447,312,78500,1,0,0:0:0:0:
311,359,78714,6,0,B|278:355|278:355|236:362|236:362|200:355,1,111.999996582031
154,186,79142,1,0,0:0:0:0:
227,274,79357,1,0,0:0:0:0:
73,243,79571,2,0,B|57:201|57:201|76:117|76:117|104:93,1,167.999994873047
127,80,80000,2,0,B|176:95|176:95|237:92,1,111.999996582031
402,172,80428,6,0,B|393:119|393:119|367:85,1,95.9999970703126
488,54,80750,1,0,0:0:0:0:
488,54,80857,2,0,B|469:105|469:105|476:145,1,95.9999970703126
450,243,81285,5,0,0:0:0:0:
413,29,81607,1,0,0:0:0:0:
251,172,81928,1,0,0:0:0:0:
330,291,82142,6,0,B|321:233|321:233|331:195,1,95.9999970703126
251,280,82464,1,0,0:0:0:0:
251,280,82571,2,0,B|194:291|194:291|157:280,1,95.9999970703126
204,143,83000,5,0,0:0:0:0:
248,354,83321,1,0,0:0:0:0:
46,276,83642,1,0,0:0:0:0:
174,210,83857,6,0,B|210:217|210:217|274:195,1,95.9999970703126
136,135,84178,1,0,0:0:0:0:
136,135,84285,2,0,B|73:147|73:147|43:136,1,95.9999970703126
156,46,84714,5,0,0:0:0:0:
105,270,85035,1,0,0:0:0:0:
322,193,85357,1,0,0:0:0:0:
173,154,85571,5,0,0:0:0:0:
228,297,85785,1,0,0:0:0:0:
322,98,86000,1,0,0:0:0:0:
171,69,86214,1,0,0:0:0:0:
337,247,86428,1,0,0:0:0:0:
384,245,86535,1,0,0:0:0:0:
432,244,86642,1,0,0:0:0:0:
294,168,86857,1,0,0:0:0:0:
484,321,87071,1,0,0:0:0:0:
310,351,87285,6,0,P|264:325|215:310,1,103.999995239258
153,153,87714,2,0,P|185:193|229:220,1,103.999995239258
139,67,88142,1,0,0:0:0:0:
68,183,88357,1,0,0:0:0:0:
250,124,88571,1,0,0:0:0:0:
61,98,88785,1,0,0:0:0:0:
229,220,89000,6,0,P|277:200|328:192,1,103.999995239258
155,322,89428,2,0,P|206:321|258:331,1,103.999995239258
64,216,89857,1,0,0:0:0:0:
62,241,89964,1,0,0:0:0:0:
60,267,90071,1,0,0:0:0:0:
0,122,90285,1,0,0:0:0:0:
2,147,90392,1,0,0:0:0:0:
4,173,90499,1,0,0:0:0:0:
153,62,90714,6,0,P|101:61|50:50,1,103.999995239258
190,157,91142,1,0,0:0:0:0:
251,52,91357,1,0,0:0:0:0:
315,159,91571,2,0,P|366:158|417:147,1,103.999995239258
478,314,92000,2,0,P|451:269|408:241,1,103.999995239258
233,373,92428,6,0,P|261:330|278:281,1,103.999995239258
156,153,92857,1,0,0:0:0:0:
181,280,93071,1,0,0:0:0:0:
249,87,93285,1,0,0:0:0:0:
46,183,93500,2,0,B|53:213|67:229,1,51.999997619629
254,179,93714,2,0,P|206:157|155:152,1,103.999995239258
363,49,94142,6,0,P|365:100|352:151,1,103.999995239258
197,64,94571,1,0,0:0:0:0:
280,17,94785,1,0,0:0:0:0:
203,175,95000,2,0,P|152:167|101:171,1,103.999995239258
273,103,95428,1,0,0:0:0:0:
304,188,95642,1,0,0:0:0:0:
93,31,95857,6,0,P|139:53|176:89,1,103.999995239258
10,211,96285,1,0,0:0:0:0:
18,186,96392,1,0,0:0:0:0:
23,161,96499,1,0,0:0:0:0:
37,296,96714,2,0,P|87:287|139:284,1,103.999995239258
237,361,97142,1,0,0:0:0:0:
303,295,97357,1,0,0:0:0:0:
180,147,97571,5,0,0:0:0:0:
266,183,97785,1,0,0:0:0:0:
401,95,98000,1,0,0:0:0:0:
369,182,98214,1,0,0:0:0:0:
397,351,98428,6,0,P|362:312|336:267,1,103.999995239258
498,138,98857,2,0,P|453:165|403:178,1,103.999995239258
186,33,99285,5,0,0:0:0:0:
315,120,99500,1,0,0:0:0:0:
340,118,99607,1,0,0:0:0:0:
366,113,99714,1,0,0:0:0:0:
205,235,99928,1,0,0:0:0:0:
116,107,100142,5,0,0:0:0:0:
300,269,100357,1,0,0:0:0:0:
325,269,100464,1,0,0:0:0:0:
359,305,100571,5,0,0:0:0:0:
380,292,100678,1,0,0:0:0:0:
402,277,100785,6,0,L|512:294,1,111.999996582031
489,321,101374,6,0,L|471:210,1,111.999996582031
56,227,102285,5,2,0:0:0:0:
56,227,102392,1,2,0:0:0:0:
189,195,102500,2,0,B|208:184|208:184|183:173|151:177,1,80,2|0,0:0|0:0,0:0:0:0:
63,319,102714,6,0,B|123:296|123:296|177:287|223:306,1,160,4|0,0:0|0:0,0:0:0:0:
389,373,103035,1,0,0:0:0:0:
389,373,103142,2,0,P|361:295|361:213,1,160,8|0,0:0|0:0,0:0:0:0:
483,129,103464,1,0,0:0:0:0:
483,129,103571,2,0,B|418:98|418:98|327:82|255:124,1,240,4|0,0:0|0:0,0:0:0:0:
20,265,104000,2,0,P|83:217|111:143,1,160,8|0,0:0|0:0,0:0:0:0:
216,46,104321,1,0,0:0:0:0:
216,46,104428,6,0,B|188:80|188:80|175:123|190:171,1,136.000002593994,4|0,0:0|0:0,0:0:0:0:
358,298,104750,1,0,0:0:0:0:
359,298,104857,2,0,B|386:263|386:263|399:220|384:172,1,136.000002593994,8|0,0:0|0:0,0:0:0:0:
154,261,105285,1,4,0:0:0:0:
398,370,105500,1,0,0:0:0:0:
218,149,105714,1,8,0:0:0:0:
254,355,105928,1,0,0:0:0:0:
489,84,106142,6,0,B|429:117|360:90|360:90|319:97|295:115,1,204.000003890991,4|0,0:0|0:0,0:0:0:0:
437,315,106571,2,0,L|432:157,1,136.000002593994,8|0,0:0|0:0,0:0:0:0:
312,315,106892,1,0,0:0:0:0:
312,314,107000,2,0,P|287:338|257:353,1,68.0000012969971,4|0,0:0|0:0,0:0:0:0:
154,206,107214,2,0,P|178:229|208:244,1,68.0000012969971,4|0,0:0|0:0,0:0:0:0:
283,32,107428,6,0,B|288:106|272:169|272:169|293:232,1,204.000003890991,8|0,0:0|0:0,0:0:0:0:
185,107,107857,2,0,P|118:107|60:141,1,136.000002593994,4|0,0:0|0:0,0:0:0:0:
112,338,108178,1,0,0:0:0:0:
112,338,108285,2,0,P|133:264|136:193,1,136.000002593994,8|0,0:0|0:0,0:0:0:0:
43,34,108607,1,0,0:0:0:0:
43,34,108714,2,0,P|108:50|176:51,1,136.000002593994,4|0,0:0|0:0,0:0:0:0:
441,80,109142,2,0,P|409:70|376:63,1,68.0000012969971,8|0,0:0|0:0,0:0:0:0:
364,195,109357,2,0,P|330:199|297:208,1,68.0000012969971,8|0,0:0|0:0,0:0:0:0:
246,349,109571,6,0,B|226:285|199:263|199:263|139:248,1,160,4|0,0:0|0:0,0:0:0:0:
12,90,109892,1,0,0:0:0:0:
12,90,110000,2,0,P|31:124|43:162,1,80,8|0,0:0|0:0,0:0:0:0:
35,330,110214,2,0,P|42:290|56:253,1,80,8|0,0:0|0:0,0:0:0:0:
181,117,110428,2,0,P|246:102|313:111,1,136.000002593994,12|0,0:0|0:0,0:0:0:0:
362,360,110857,2,0,P|357:326|357:292,1,68.0000012969971,8|0,0:0|0:0,0:0:0:0:
490,186,111071,2,0,P|494:152|494:118,1,68.0000012969971,8|0,0:0|0:0,0:0:0:0:
374,14,111285,6,0,P|392:79|385:146,1,136.000002593994,4|0,0:0|0:0,0:0:0:0:
222,212,111607,1,0,0:0:0:0:
222,212,111714,2,0,P|293:203|359:224,1,136.000002593994,8|0,0:0|0:0,0:0:0:0:
135,321,112142,2,0,P|142:254|137:186,1,136.000002593994,4|0,0:0|0:0,0:0:0:0:
30,117,112464,1,0,0:0:0:0:
29,116,112571,2,0,P|63:117|97:111,1,68.0000012969971,8|0,0:0|0:0,0:0:0:0:
166,46,112785,2,0,P|196:63|229:73,1,68.0000012969971,8|0,0:0|0:0,0:0:0:0:
407,27,113000,6,0,P|340:33|275:17,1,136.000002593994,4|0,0:0|0:0,0:0:0:0:
458,101,113321,1,0,0:0:0:0:
458,101,113428,2,0,P|466:178|445:233,1,136.000002593994,8|0,0:0|0:0,0:0:0:0:
183,186,113857,5,4,0:0:0:0:
340,110,114071,1,0,0:0:0:0:
293,384,114285,1,8,0:0:0:0:
210,61,114500,6,0,L|200:200,1,139.999995727539,4|0,0:0|2:0,0:0:0:0:
156,140,115142,2,0,L|167:247,1,107.999996704102,4|0,0:0|2:0,0:0:0:0:
104,230,115571,6,0,L|124:268,1,44.0000013427735,12|0,0:0|0:0,0:0:0:0:
256,278,115785,2,0,L|240:319,1,44.0000013427735,8|0,0:0|0:0,0:0:0:0:
164,88,116000,6,0,L|155:140,1,51.999997619629,12|0,0:0|0:0,0:0:0:0:
369,303,116214,2,0,L|320:321,1,51.999997619629,8|0,0:0|0:0,0:0:0:0:
281,62,116428,6,0,B|323:144|323:144|387:164,1,160,4|0,0:0|0:0,0:0:0:0:
80,93,116857,2,0,B|73:168|73:168|96:249,1,160,8|0,0:0|0:0,0:0:0:0:
282,331,117285,2,0,B|265:267|265:267|253:258,1,80,4|0,0:0|0:0,0:0:0:0:
85,340,117500,2,0,B|153:340|153:340|163:334,1,80,4|0,0:0|0:0,0:0:0:0:
266,164,117714,2,0,L|188:183,1,80,4|0,0:0|0:0,0:0:0:0:
349,272,117928,2,0,L|426:291,1,80,4|0,0:0|0:0,0:0:0:0:
445,33,118142,6,0,B|410:129|410:129|411:162,1,136.000002593994,4|0,0:0|0:0,0:0:0:0:
271,46,118464,1,0,0:0:0:0:
271,46,118571,2,0,B|329:59|329:59|403:42,1,136.000002593994,8|0,0:0|0:0,0:0:0:0:
296,159,119000,2,0,L|231:137,1,68.0000012969971,4|0,0:0|0:0,0:0:0:0:
97,27,119214,2,0,L|161:48,1,68.0000012969971,4|0,0:0|0:0,0:0:0:0:
91,147,119428,2,0,B|24:161,1,68.0000012969971,4|0,0:0|0:0,0:0:0:0:
230,235,119642,2,0,B|296:249,1,68.0000012969971,4|0,0:0|0:0,0:0:0:0:
59,323,119857,6,0,B|45:237|45:237|182:275,1,204.000003890991,4|0,0:0|0:0,0:0:0:0:
275,353,120285,2,0,B|383:323|383:323|384:231,1,204.000003890991,8|0,0:0|0:0,0:0:0:0:
218,169,120714,2,0,L|196:34,1,136.000002593994,4|0,0:0|0:0,0:0:0:0:
294,227,121035,1,0,0:0:0:0:
294,227,121142,2,0,B|233:258,1,68.0000012969971,8|0,0:0|0:0,0:0:0:0:
303,85,121357,2,0,B|389:128|389:128|467:55,1,204.000003890991,4|0,0:0|0:0,0:0:0:0:
376,32,121785,1,8,0:0:0:0:
486,187,122000,5,4,0:0:0:0:
312,318,122214,1,0,0:0:0:0:
260,34,122428,5,6,0:0:0:0:
257,67,122535,1,0,0:0:0:0:
254,101,122642,1,2,0:0:0:0:
252,135,122749,1,0,0:0:0:0:
201,116,122857,5,6,0:0:0:0:
204,149,122964,1,0,0:0:0:0:
206,183,123071,1,2,0:0:0:0:
209,217,123178,1,0,0:0:0:0:
133,210,123285,6,0,B|177:251|190:321|190:321|233:282|287:265,1,240,6|0,0:0|0:0,0:0:0:0:
488,325,123714,2,0,B|467:273|412:246|412:246|406:293,1,160,8|0,0:0|0:0,0:0:0:0:
294,370,124035,1,0,0:0:0:0:
293,369,124142,2,0,P|255:359|215:353,1,80,4|0,0:0|0:0,0:0:0:0:
233,203,124357,2,0,P|271:192|311:186,1,80,4|0,0:0|0:0,0:0:0:0:
76,253,124571,2,0,B|50:206|73:148|73:148|42:154|27:170,1,160,8|0,0:0|0:0,0:0:0:0:
31,336,124892,1,0,0:0:0:0:
31,336,125000,6,0,P|118:340|167:268,1,160,12|0,0:0|0:0,0:0:0:0:
168,123,125321,1,0,0:0:0:0:
167,123,125428,2,0,P|203:189|277:177,1,160,8|0,0:0|0:0,0:0:0:0:
365,30,125750,1,0,0:0:0:0:
365,30,125857,2,0,P|329:48|290:57,1,80,4|0,0:0|0:0,0:0:0:0:
93,95,126071,2,0,P|128:113|167:122,1,80,4|0,0:0|0:0,0:0:0:0:
356,225,126285,2,0,P|373:143|451:112,1,160,8|0,0:0|0:0,0:0:0:0:
412,308,126607,1,0,0:0:0:0:
412,308,126714,6,0,B|326:285|237:310|237:310|255:282|277:262,1,240,12|0,0:0|0:0,0:0:0:0:
436,149,127142,2,0,P|421:227|411:307,1,160,8|0,0:0|0:0,0:0:0:0:
153,177,127464,1,0,0:0:0:0:
153,177,127571,2,0,P|224:204|275:148,1,160,12|0,0:0|0:0,0:0:0:0:
131,51,127892,1,0,0:0:0:0:
130,51,128000,2,0,P|114:87|89:117,1,80,8|0,0:0|0:0,0:0:0:0:
79,226,128214,6,0,B|44:233|4:225|4:225|45:281|66:357|66:357|2:336|2:336|106:288|186:300,1,480,12|0,0:0|0:0,0:0:0:0:
338,348,129071,5,0,0:0:0:0:
164,132,129285,5,6,0:0:0:0:
203,144,129392,1,0,0:0:0:0:
243,155,129499,1,2,0:0:0:0:
283,167,129606,1,0,0:0:0:0:
252,214,129714,5,6,0:0:0:0:
292,202,129821,1,0,0:0:0:0:
332,191,129928,1,2,0:0:0:0:
372,179,130035,1,0,0:0:0:0:
339,116,130142,6,0,L|339:356,1,240,6|0,0:0|0:0,0:0:0:0:
256,192,131535,12,0,136142,0:0:0:0:
150,183,137214,5,0,0:0:0:0:
90,276,137428,2,0,P|129:281|168:291,1,80
385,169,137857,5,0,0:0:0:0:
440,267,138071,1,0,0:0:0:0:
267,115,138285,1,0,0:0:0:0:
215,214,138500,1,0,0:0:0:0:
276,307,138714,6,0,P|315:302|355:301,1,80
191,203,139142,2,0,P|230:204|270:208,1,80
159,44,139571,5,0,0:0:0:0:
113,145,139785,1,0,0:0:0:0:
285,20,140000,1,0,0:0:0:0:
326,123,140214,1,0,0:0:0:0:
200,176,140428,6,0,P|160:182|120:185,1,80
343,112,140857,2,0,P|303:108|263:102,1,80
471,143,141285,5,0,0:0:0:0:
422,244,141500,1,0,0:0:0:0:
312,93,141714,1,0,0:0:0:0:
420,64,141928,1,0,0:0:0:0:
303,242,142142,6,0,P|300:288|302:325,1,80
217,149,142571,2,0,P|219:188|218:228,1,80
321,57,143000,5,0,0:0:0:0:
307,168,143214,1,0,0:0:0:0:
126,89,143428,1,0,0:0:0:0:
231,51,143642,1,0,0:0:0:0:
204,134,143857,6,0,L|204:166,2,32
283,171,144178,1,0,0:0:0:0:
283,171,144285,2,0,L|272:234,1,64
369,201,144714,5,0,0:0:0:0:
372,232,144821,1,0,0:0:0:0:
375,264,144928,1,0,0:0:0:0:
459,150,145142,2,0,L|450:213,1,64
345,40,145571,6,0,L|347:71,2,32
267,73,145892,1,0,0:0:0:0:
267,73,145999,2,0,L|198:49,1,64
184,137,146428,5,0,0:0:0:0:
153,145,146535,1,0,0:0:0:0:
122,154,146642,1,0,0:0:0:0:
245,228,146857,2,0,L|182:214,1,64
312,319,147285,6,0,L|317:350,2,32
230,352,147607,1,0,0:0:0:0:
230,352,147714,2,0,L|167:342,1,64
82,268,148142,1,0,0:0:0:0:
50,272,148249,1,0,0:0:0:0:
18,276,148356,1,0,0:0:0:0:
159,322,148571,1,0,0:0:0:0:
43,186,148785,1,0,0:0:0:0:
36,42,148999,6,0,L|28:73,2,32
118,87,149321,1,0,0:0:0:0:
118,87,149428,2,0,L|181:81,1,64
173,190,149857,1,0,0:0:0:0:
186,219,149964,1,0,0:0:0:0:
199,248,150071,2,0,L|212:278,1,32
315,240,150285,1,0,0:0:0:0:
302,269,150392,1,0,0:0:0:0:
289,298,150499,2,0,L|276:328,1,32
373,321,150714,6,0,L|379:353,2,32
434,274,151035,1,0,0:0:0:0:
434,274,151142,2,0,L|442:210,1,64
341,157,151571,1,0,0:0:0:0:
334,125,151678,1,0,0:0:0:0:
327,94,151785,1,0,0:0:0:0:
284,209,151999,1,0,0:0:0:0:
368,21,152214,1,0,0:0:0:0:
239,135,152428,6,0,L|207:138,2,32
171,63,152749,1,0,0:0:0:0:
171,63,152857,2,0,L|124:106,1,64
43,55,153285,1,0,0:0:0:0:
33,85,153392,1,0,0:0:0:0:
23,115,153499,2,0,L|9:143,1,32
95,184,153714,2,0,L|97:221,2,32
24,300,154142,6,0,L|281:261,1,256
277,261,155428,1,0,0:0:0:0:
420,5,155857,6,0,L|393:259,1,256
392,259,157142,1,0,0:0:0:0:
71,134,157571,5,0,0:0:0:0:
71,134,157678,1,0,0:0:0:0:
71,134,157785,1,0,0:0:0:0:
71,134,157892,1,0,0:0:0:0:
71,134,157999,2,0,B|124:133|154:156|154:156|177:132|177:132|200:129,1,143.999995605469
223,213,158428,6,0,B|204:278|204:278|206:306,1,95.9999970703126
300,250,158749,2,0,B|312:188|312:188|307:155,1,95.9999970703126
265,86,159071,1,0,0:0:0:0:
360,73,159499,5,0,0:0:0:0:
360,73,159607,1,0,0:0:0:0:
360,73,159714,2,0,B|391:93|410:123|410:123|451:116|451:116|482:154,1,143.999995605469
462,232,160142,6,0,B|428:247|393:236|393:236|378:256,1,95.9999970703126
283,251,160464,2,0,B|287:214|314:189|314:189|303:166,1,95.9999970703126
356,86,160785,2,0,B|385:107|393:143|393:143|419:146,1,95.9999970703126
221,183,161214,5,0,0:0:0:0:
221,183,161321,1,0,0:0:0:0:
221,183,161428,1,0,0:0:0:0:
190,311,161857,5,0,0:0:0:0:
92,40,162178,1,0,0:0:0:0:
373,99,162499,1,0,0:0:0:0:
242,208,162714,6,0,B|219:199|186:194|186:194|159:211|159:211|129:211|106:202,1,143.999995605469
56,133,163142,1,0,0:0:0:0:
56,133,163357,1,0,0:0:0:0:
148,300,163571,2,0,B|171:291|203:286|203:286|230:302|230:302|261:302|283:293,1,143.999995605469
350,344,163999,2,0,B|361:301|405:262|405:262|417:220,1,143.999995605469
357,158,164428,5,0,0:0:0:0:
357,158,164535,1,0,0:0:0:0:
357,158,164642,1,0,0:0:0:0:
357,158,164749,1,0,0:0:0:0:
357,158,164857,1,0,0:0:0:0:
269,119,165285,5,0,0:0:0:0:
216,187,165607,1,0,0:0:0:0:
251,264,165928,2,0,L|320:282,1,71.9999978027344
275,364,166357,5,0,0:0:0:0:
275,364,166464,1,0,0:0:0:0:
275,364,166571,2,0,L|206:340,1,71.9999978027344
139,268,166999,5,0,0:0:0:0:
40,352,167321,1,0,0:0:0:0:
40,352,167428,2,0,L|28:280,1,71.9999978027344
0,143,167857,6,0,P|20:150|40:160,1,44.0000013427735
135,189,168071,2,0,P|129:210|126:232,1,44.0000013427735
63,76,168285,2,0,P|42:37|11:6,1,88.000002685547
143,44,168714,2,0,P|189:54|270:28,2,132.00000402832
302,136,169571,6,0,P|264:121|232:148,1,88.000002685547
390,47,169999,2,0,P|374:86|389:126,1,88.000002685547
494,246,170428,2,0,P|416:206|329:212,1,176.000005371094
221,344,171285,5,0,0:0:0:0:
221,344,171499,1,0,0:0:0:0:
143,263,171714,2,0,P|130:285|110:300,1,51.999997619629
87,154,171928,2,0,P|89:179|83:205,1,51.999997619629
241,128,172142,6,0,P|217:116|191:113,1,51.999997619629
256,222,172357,1,0,0:0:0:0:
318,118,172571,1,0,0:0:0:0:
156,193,172785,1,0,0:0:0:0:
326,301,172999,5,0,0:0:0:0:
457,278,173214,1,0,0:0:0:0:
246,359,173428,1,0,0:0:0:0:
246,359,173535,1,0,0:0:0:0:
246,359,173642,1,0,0:0:0:0:
411,355,173857,1,0,0:0:0:0:
411,355,173964,1,0,0:0:0:0:
411,355,174071,1,0,0:0:0:0:
317,227,174285,1,0,0:0:0:0:
317,227,174392,1,0,0:0:0:0:
317,227,174499,1,0,0:0:0:0:
148,254,174714,6,0,P|143:158|48:144,1,207.999990478516
59,311,175357,1,0,0:0:0:0:
301,248,175571,2,0,P|259:218|242:170,1,103.999995239258
455,293,175999,2,0,P|404:289|359:313,1,103.999995239258
506,222,176428,2,0,P|479:179|433:156,1,103.999995239258
428,375,176857,1,0,0:0:0:0:
428,375,176964,1,0,0:0:0:0:
428,375,177071,1,0,0:0:0:0:
272,328,177285,1,0,0:0:0:0:
261,304,177392,1,0,0:0:0:0:
250,280,177499,1,0,0:0:0:0:
332,199,177714,1,0,0:0:0:0:
342,175,177821,1,0,0:0:0:0:
353,151,177928,1,0,0:0:0:0:
171,88,178142,6,0,L|169:37,1,51.999997619629
204,188,178357,2,0,L|237:141,1,51.999997619629
99,138,178571,2,0,L|83:80,2,51.999997619629
165,277,178892,1,0,0:0:0:0:
165,277,178999,2,0,L|216:270,1,51.999997619629
356,217,179214,2,0,L|304:210,1,51.999997619629
287,354,179428,2,0,L|302:304,1,51.999997619629
228,130,179642,2,0,L|217:187,1,51.999997619629
107,346,179857,6,0,P|91:313|79:294,1,51.999997619629
100,170,180071,2,0,P|113:193|123:217,1,51.999997619629
3,345,180285,2,0,P|12:290|13:240,1,103.999995239258
135,294,180714,5,0,0:0:0:0:
160,298,180821,1,0,0:0:0:0:
186,302,180928,1,0,0:0:0:0:
277,232,181143,1,0,0:0:0:0:
302,227,181250,1,0,0:0:0:0:
328,223,181357,1,0,0:0:0:0:
447,98,181571,6,0,B|327:77|327:77|266:138,1,207.999990478516
325,361,182214,1,0,0:0:0:0:
228,56,182428,1,0,0:0:0:0:
105,278,182642,1,0,0:0:0:0:
430,209,182857,1,0,0:0:0:0:
430,209,183285,6,0,B|362:200|362:200|280:81|280:81|179:193|179:193|272:318|272:318|342:242|342:242|369:376|449:248|369:376|491:360,1,831.999961914064
112,167,185857,6,0,L|166:174,1,51.999997619629,0|0,3:0|3:0,3:0:0:0:
373,206,186071,2,0,L|321:212,1,51.999997619629,0|0,3:0|3:0,3:0:0:0:
201,270,186285,6,0,L|186:273,2,15.0000005722046,0|0|0,3:0|3:0|3:0,3:0:0:0:
235,336,186499,6,0,P|237:290|247:245,1,92.0000017547608,2|0,3:0|3:0,3:0:0:0:
365,94,186714,6,0,B|293:110|293:110|194:113|139:57,1,240,4|0,0:0|0:0,0:0:0:0:
25,206,187142,2,0,B|60:163|60:163|115:153|163:173,1,160,8|0,0:0|0:0,0:0:0:0:
191,313,187464,1,0,0:0:0:0:
190,313,187571,2,0,B|106:354|106:354|62:353|39:328,1,160,4|0,0:0|0:0,0:0:0:0:
251,245,187999,2,0,B|305:217|366:226|366:226|408:261,1,160,8|0,0:0|0:0,0:0:0:0:
304,359,188321,1,0,0:0:0:0:
304,359,188428,6,0,B|305:257|330:168|330:168|326:145|314:113,1,240,4|0,0:0|0:0,0:0:0:0:
424,39,188857,2,0,P|422:127|467:51,1,240,8|0,0:0|0:0,0:0:0:0:
249,163,189285,2,0,B|189:166|151:208|151:208|97:204,1,160,4|0,0:0|0:0,0:0:0:0:
48,84,189607,1,0,0:0:0:0:
48,84,189714,2,0,P|54:123|45:162,1,80,8|0,0:0|0:0,0:0:0:0:
27,321,189928,2,0,P|57:295|95:283,1,80,8|0,0:0|0:0,0:0:0:0:
250,282,190142,6,0,P|186:184|199:67,1,240,4|0,0:0|0:0,0:0:0:0:
320,213,190571,2,0,B|361:236|410:243|410:243|445:221|457:200,1,160,8|0,0:0|0:0,0:0:0:0:
257,118,190999,2,0,P|217:124|184:145,1,80,4|0,0:0|0:0,0:0:0:0:
217,296,191214,2,0,P|239:263|250:224,1,80,4|0,0:0|0:0,0:0:0:0:
86,120,191428,2,0,B|81:161|92:206|92:206|139:208|163:222,1,160,8|0,0:0|0:0,0:0:0:0:
292,364,191749,1,0,0:0:0:0:
292,364,191857,6,0,B|234:360|173:383|173:383|132:333|74:324,1,240,4|0,0:0|0:0,0:0:0:0:
174,111,192285,6,0,L|190:278,1,167.999994873047,8|0,0:0|0:0,0:0:0:0:
269,190,192714,2,0,P|239:241|250:304,1,120,4|0,0:0|0:0,0:0:0:0:
361,235,193142,6,0,P|344:246|332:262,1,40,8|0,0:0|0:0,0:0:0:0:
190,121,193357,2,0,P|183:139|178:159,1,40,8|0,0:0|0:0,0:0:0:0:
449,269,193571,6,0,P|431:191|376:134,1,160,4|0,0:0|0:0,0:0:0:0:
165,120,193892,1,0,0:0:0:0:
165,120,193999,2,0,P|239:133|255:207,1,160,8|0,0:0|0:0,0:0:0:0:
19,358,194428,2,0,P|72:301|77:222,1,160,4|0,0:0|0:0,0:0:0:0:
5,77,194749,1,0,0:0:0:0:
5,77,194857,2,0,P|69:122|150:124,1,160,8|0,0:0|0:0,0:0:0:0:
392,8,195285,6,0,L|233:26,1,160,4|0,0:0|0:0,0:0:0:0:
253,297,195714,2,0,L|309:144,1,160,8|0,0:0|0:0,0:0:0:0:
463,246,196035,1,0,0:0:0:0:
463,246,196142,2,0,B|354:252|354:252|335:299,1,160,4|0,0:0|0:0,0:0:0:0:
425,158,196571,2,0,L|505:154,1,80,8|0,0:0|0:0,0:0:0:0:
290,186,196785,2,0,L|210:190,1,80,8|0,0:0|0:0,0:0:0:0:
221,30,196999,6,0,P|279:82|291:159,1,160,4|0,0:0|0:0,0:0:0:0:
95,97,197321,1,0,0:0:0:0:
95,97,197428,2,0,P|141:106|212:202,1,160,8|0,0:0|0:0,0:0:0:0:
105,355,197749,1,0,0:0:0:0:
105,354,197857,2,0,P|134:281|110:207,1,160,4|0,0:0|0:0,0:0:0:0:
31,284,198285,1,8,0:0:0:0:
344,313,198499,6,0,B|307:346|307:346|198:362,1,160,4|0,0:0|0:0,0:0:0:0:
435,298,199142,2,0,B|354:300|354:300|272:243,1,180.000006866455,4|0,0:0|0:0,0:0:0:0:
318,148,199571,5,6,0:0:0:0:
357,156,199678,1,0,0:0:0:0:
396,164,199785,1,2,0:0:0:0:
435,172,199892,1,0,0:0:0:0:
392,236,199999,5,6,0:0:0:0:
332,239,200106,1,0,0:0:0:0:
272,243,200213,1,2,0:0:0:0:
212,247,200320,1,0,0:0:0:0:
135,291,200428,6,0,B|97:262|97:262|110:139,1,160,6|0,0:0|0:0,0:0:0:0:
208,48,200749,1,0,0:0:0:0:
208,48,200857,2,0,B|232:128|232:128|306:144,1,160,8|0,0:0|0:0,0:0:0:0:
512,44,201285,2,0,B|445:48|445:48|379:114,1,160,4|0,0:0|0:0,0:0:0:0:
486,302,201607,1,0,0:0:0:0:
486,302,201714,2,0,B|397:269|397:269|332:276,1,160,8|0,0:0|0:0,0:0:0:0:
70,203,202142,6,0,B|174:195|174:195|255:222,1,160
369,367,202464,1,0,0:0:0:0:
369,367,202571,2,0,B|318:371|318:371|219:324,1,160
401,134,202999,2,0,B|334:260|334:260|305:167,1,240,4|0,0:0|0:0,0:0:0:0:
243,82,203428,2,0,B|213:37|213:37|313:70,1,160,8|0,0:0|0:0,0:0:0:0:
226,167,203749,1,0,0:0:0:0:
226,167,203857,6,0,B|103:147|103:147|76:170,1,160,4|0,0:0|0:0,0:0:0:0:
134,278,204178,1,0,0:0:0:0:
134,278,204285,2,0,B|267:241|267:241|283:255,1,160,8|0,0:0|0:0,0:0:0:0:
350,357,204607,1,0,0:0:0:0:
350,357,204714,2,0,B|386:217|386:217|371:214,1,160,4|0,0:0|0:0,0:0:0:0:
211,103,205142,2,0,B|192:124|192:124|243:122,1,80,8|0,0:0|0:0,0:0:0:0:
448,54,205357,6,0,B|365:89|365:89|300:61,1,160,4|0,0:0|0:0,0:0:0:0:
508,157,205999,5,0,0:0:0:0:
223,25,206214,1,0,0:0:0:0:
268,345,206428,5,6,0:0:0:0:
270,305,206535,1,0,0:0:0:0:
273,265,206642,1,2,0:0:0:0:
276,225,206749,1,0,0:0:0:0:
352,255,206857,5,6,0:0:0:0:
349,215,206964,1,0,0:0:0:0:
346,175,207071,1,6,0:0:0:0:
343,135,207178,1,0,0:0:0:0:
417,162,207285,6,0,B|426:92|378:21|378:21|345:33|326:59,1,215.999993408203,6|0,0:0|0:0,0:0:0:0:
252,223,207714,2,0,B|212:262|207:328|207:328|163:355|101:355,1,215.999993408203,8|0,0:0|0:0,0:0:0:0:
41,275,208142,2,0,P|44:240|40:204,1,71.9999978027344,4|0,0:0|0:0,0:0:0:0:
89,63,208357,2,0,P|102:96|123:125,1,71.9999978027344,4|0,0:0|0:0,0:0:0:0:
272,213,208571,2,0,P|222:164|234:95,1,143.999995605469,8|0,0:0|0:0,0:0:0:0:
411,210,208892,5,0,0:0:0:0:
409,210,208999,2,0,B|366:222|366:222|359:279|293:323|238:300,1,215.999993408203,4|0,0:0|0:0,0:0:0:0:
138,179,209428,2,0,P|161:246|137:318,1,143.999995605469
235,189,209857,2,0,P|263:168|297:155,1,71.9999978027344,4|0,0:0|0:0,0:0:0:0:
417,137,210071,2,0,P|385:123|356:101,1,71.9999978027344,4|0,0:0|0:0,0:0:0:0:
171,42,210285,2,0,P|240:53|299:13,1,143.999995605469,8|0,0:0|0:0,0:0:0:0:
6,33,210714,6,0,B|37:105|5:162|5:162|56:154|84:172,1,215.999993408203,4|0,0:0|0:0,0:0:0:0:
188,327,211142,2,0,B|167:276|134:243|134:243|81:262|35:301,1,215.999993408203,8|0,0:0|0:0,0:0:0:0:
251,275,211571,2,0,B|276:317|285:353|285:353|317:336|337:326,1,143.999995605469,4|0,0:0|0:0,0:0:0:0:
497,372,211999,1,8,0:0:0:0:
285,129,212214,6,0,P|351:200|370:104,1,240,4|0,0:0|0:0,0:0:0:0:
370,104,213071,1,2,0:0:0:0:
284,297,213285,5,6,0:0:0:0:
266,265,213392,1,0,0:0:0:0:
252,232,213499,1,2,0:0:0:0:
241,198,213606,1,0,0:0:0:0:
185,238,213714,5,6,0:0:0:0:
191,202,213821,1,0,0:0:0:0:
195,166,213928,1,2,0:0:0:0:
195,131,214035,1,0,0:0:0:0:
256,192,214142,12,0,220142,0:0:0:0:
