osu file format v14

[General]
AudioFilename: audio.mp3
AudioLeadIn: 0
PreviewTime: 94240
Countdown: 0
SampleSet: Soft
StackLeniency: 0.7
Mode: 0
LetterboxInBreaks: 0
WidescreenStoryboard: 1

[Editor]
Bookmarks: 3685,21462,28573,35684,42796,49907,57018,64129,71240,78351,85462,94351,101462,108573,115684,122796,137018,144129,154796,161907,169018,176129,183240,190351,197462,204573,211684,218796,225907,233018,241907,249018,256129,263240,270351,284573,291684,298796,305907,313018,320129,327240,334351,345018,352129,359240,366351,373462,380573,389462,396573,403684,410796,421462,428573,435684,442796,449907
DistanceSpacing: 1.5
BeatDivisor: 12
GridSize: 4
TimelineZoom: 3.099999

[Metadata]
Title:Unreal Player
TitleUnicode:Unreal Player
Artist:Mitose Noriko
ArtistUnicode:みとせのりこ
Creator:Mao
Version:Blind Collab
Source:デモニオン 魔王の地下要塞
Tags:Myxomatosis Nozhomi Venix MkGuh Regraz Trynna Kibbleru jonathanlfj MaridiuS Yauxo Andrea handsome Mirash Kuron-kun Asagi Lasse MrSergio Gero Realazy -M4x dsco p3n Net0 Doormat Mir celerih Yales Ephemeral -Mo- Gabe Hobbes2 BOUYAAA ailv Xexxar bossandy Marianna Delis LMT Niva Secretpipe fanzhen0019 byfar NeilPerry Zetera Sieg pishifat ProfessionalBox Skystar UndeadCapulet Okoratu Leader Mismagius Kyubey PoNo Blue Dragon Okorin Desperate-kun
BeatmapID:1735958
BeatmapSetID:828563

[Difficulty]
HPDrainRate:4
CircleSize:4
OverallDifficulty:8
ApproachRate:9.3
SliderMultiplier:1.4
SliderTickRate:1

[Events]
//Background and Video events
0,0,"collab_bg.png",0,0
//Break Periods
2,126329,136418
2,273884,283084
//Storyboard Layer 0 (Background)
//Storyboard Layer 1 (Fail)
//Storyboard Layer 2 (Pass)
//Storyboard Layer 3 (Foreground)
//Storyboard Sound Samples

[TimingPoints]
3685,444.444444444444,4,2,0,60,1,0
3685,-133.333333333333,4,2,0,60,0,0
7240,-250,4,2,0,60,0,0
8129,-250,4,2,0,20,0,0
8796,-133.333333333333,4,2,0,60,0,0
10796,-200,4,2,0,60,0,0
11462,-100,4,2,0,60,0,0
12129,-250,4,2,0,60,0,0
13240,-133.333333333333,4,2,0,60,0,0
14351,-200,4,2,0,60,0,0
21462,-76.9230769230769,4,2,0,60,0,0
28573,-66.6666666666667,4,2,0,60,0,0
30018,-100,4,2,0,60,0,0
30351,-66.6666666666667,4,2,0,60,0,0
30907,-100,4,2,0,60,0,0
31240,-66.6666666666667,4,2,0,60,0,0
32684,-100,4,2,0,60,0,0
33018,-66.6666666666667,4,2,0,60,0,0
33573,-100,4,2,0,60,0,0
33907,-33.3333333333333,4,2,0,60,0,0
34129,-100,4,2,0,60,0,0
34796,-40,4,2,0,60,0,0
35462,-33.3333333333333,4,2,0,60,0,0
35684,-76.9230769230769,4,2,0,60,0,0
37462,-55.5555555555556,4,2,0,60,0,0
37907,-40,4,2,0,60,0,0
38351,-50,4,2,0,60,0,0
39240,-55.5555555555556,4,2,0,60,0,0
40129,-62.5,4,2,0,60,0,0
41018,-55.5555555555556,4,2,0,60,0,0
42796,-66.6666666666667,4,2,0,60,0,0
44351,-133.333333333333,4,2,0,60,0,0
45796,-66.6666666666667,4,2,0,60,0,0
47240,-133.333333333333,4,2,0,60,0,0
48129,-66.6666666666667,4,2,0,60,0,0
49907,-62.5,4,2,0,70,0,0
57018,-71.4285714285714,4,2,0,60,0,0
63684,-58.8235294117647,4,2,0,60,0,0
64129,-100,4,2,0,60,0,0
73462,-86.9565217391304,4,2,0,60,0,0
73684,-76.9230769230769,4,2,0,60,0,0
73907,-68.9655172413793,4,2,0,60,0,0
74796,-100,4,2,0,60,0,0
75684,-90.9090909090909,4,2,0,60,0,0
76573,-83.3333333333333,4,2,0,60,0,0
77018,-76.9230769230769,4,2,0,60,0,0
77462,-71.4285714285714,4,2,0,60,0,0
77907,-66.6666666666667,4,2,0,60,0,0
78351,-100,4,2,0,60,0,0
85462,-62.5,4,2,22,60,0,0
92573,-55.5555555555556,4,2,22,60,0,0
92740,-55.5555555555556,4,2,22,5,0,0
92796,-125,4,2,22,60,0,0
93018,-125,4,2,22,5,0,0
93129,-117.647058823529,4,2,22,60,0,0
93407,-117.647058823529,4,2,22,5,0,0
93462,-83.3333333333333,4,2,22,60,0,0
93629,-83.3333333333333,4,2,22,5,0,0
93684,-83.3333333333333,4,2,22,60,0,0
93851,-83.3333333333333,4,2,22,5,0,0
93907,-71.4285714285714,4,2,22,60,0,0
94073,-71.4285714285714,4,2,22,5,0,0
94129,-71.4285714285714,4,2,22,60,0,0
94351,-83.3333333333333,4,2,0,80,0,1
101462,-100,4,2,0,80,0,1
106684,-100,4,2,0,80,0,0
108573,-83.3333333333333,4,2,51,80,0,1
115684,-55.5555555555556,4,2,0,80,0,1
119240,-76.9230769230769,4,2,0,80,0,0
121018,-62.5,4,2,0,80,0,0
121462,-55.5555555555556,4,2,0,80,0,0
121907,-50,4,2,0,80,0,0
122796,-50,4,2,0,80,0,1
122907,-50,4,2,0,20,0,0
137018,-125,4,2,51,80,0,1
137129,-125,4,2,51,80,0,0
137907,-55.5555555555556,4,2,51,80,0,0
138351,-50,4,2,51,80,0,0
138796,-40,4,2,51,80,0,0
139240,-71.4285714285714,4,2,51,80,0,0
139684,-125,4,2,51,80,0,0
140573,-50,4,2,51,80,0,0
141907,-125,4,2,51,80,0,0
142351,-33.3333333333333,4,2,51,80,0,0
142796,-50,4,2,51,80,0,0
143240,-125,4,2,51,80,0,0
144129,-111.111111111111,4,2,34,80,0,1
144240,-111.111111111111,4,2,34,80,0,0
144573,-111.111111111111,4,2,34,80,0,0
145018,-166.666666666667,4,2,34,80,0,0
145462,-166.666666666667,4,2,34,80,0,0
145684,-166.666666666667,4,2,34,80,0,0
145907,-166.666666666667,4,2,34,80,0,0
146351,-111.111111111111,4,2,34,80,0,0
147240,-111.111111111111,4,2,34,80,0,0
147684,-146.198830409357,4,2,34,80,0,0
148073,-146.198830409357,4,2,34,5,0,0
148129,-41.6666666666667,4,2,34,80,0,0
148240,-41.6666666666667,4,2,34,5,0,0
148351,-41.6666666666667,4,2,34,80,0,0
148462,-41.6666666666667,4,2,34,5,0,0
148573,-83.3333333333333,4,2,34,80,0,0
149462,-83.3333333333333,4,2,34,80,0,0
149907,-45.4545454545455,4,2,34,80,0,0
150296,-45.4545454545455,4,2,34,5,0,0
150351,-83.3333333333333,4,2,34,80,0,0
150740,-83.3333333333333,4,2,34,5,0,0
150796,-250,4,2,34,80,0,0
151129,-250,4,2,34,20,0,0
151240,-111.111111111111,4,2,34,80,0,0
152018,-111.111111111111,4,2,34,20,0,0
152129,-33.3333333333333,4,2,34,80,0,0
152157,-33.3333333333333,4,2,34,60,0,0
152573,-166.666666666667,4,2,34,60,0,0
152962,-166.666666666667,4,2,34,5,0,0
153018,-71.4285714285714,4,2,34,70,0,0
153407,-166.666666666667,4,2,34,5,0,0
153462,-50,4,2,34,80,0,0
153518,-50,4,2,34,5,0,0
153684,-50,4,2,34,80,0,0
153740,-50,4,2,34,5,0,0
153907,-50,4,2,34,80,0,0
154351,-100,4,2,34,80,0,0
154796,-133.333333333333,4,2,0,60,0,0
155573,-133.333333333333,4,2,0,5,0,0
155684,-133.333333333333,4,2,0,60,0,0
160129,-66.6666666666667,4,2,0,60,0,0
160462,-66.6666666666667,4,2,0,5,0,0
160573,-133.333333333333,4,2,0,60,0,0
161018,-66.6666666666667,4,2,0,70,0,0
161907,-125,4,2,0,60,0,0
164573,-50,4,2,0,60,0,0
165462,-100,4,2,0,60,0,0
166240,-100,4,2,0,5,0,0
166351,-125,4,2,0,60,0,0
167240,-50,4,2,0,60,0,0
168129,-40,4,2,0,60,0,0
168434,-40,4,2,0,5,0,0
168573,-40,4,2,0,60,0,0
168879,-40,4,2,0,5,0,0
169018,-200,4,2,0,60,0,0
173462,-200,4,2,0,5,0,0
174129,-200,4,2,0,60,0,0
176351,-200,4,2,0,60,0,0
176796,-400,4,2,0,60,0,0
177462,-133.333333333333,4,2,0,60,0,0
178796,-50,4,2,0,60,0,0
179684,-1000,4,2,0,60,0,0
181407,-1000,4,2,0,5,0,0
181462,-200,4,2,0,60,0,0
183240,-100,4,2,0,60,0,0
190351,-66.6666666666667,4,2,0,60,0,0
196351,-38.4615384615385,4,2,0,60,0,0
197240,-100,4,2,0,60,0,0
197462,-50,4,2,51,60,0,0
200796,-33.3333333333333,4,2,51,60,0,0
201018,-100,4,2,51,60,0,0
201684,-33.3333333333333,4,2,51,60,0,0
201907,-50,4,2,51,60,0,0
204573,-66.6666666666667,4,2,51,60,0,0
211684,-66.6666666666667,4,2,51,60,0,0
218796,-76.9230769230769,4,2,51,60,0,0
225907,-66.6666666666667,4,2,0,60,0,0
226351,-100,4,2,0,60,0,0
226796,-66.6666666666667,4,2,0,60,0,0
227240,-100,4,2,0,60,0,0
233351,-66.6666666666667,4,2,0,60,0,0
240018,-66.6666666666667,4,2,0,5,0,0
240240,-66.6666666666667,4,2,0,60,0,0
241907,-100,4,2,0,60,0,0
245462,-166.666666666667,4,2,0,60,0,0
245907,-100,4,2,0,60,0,0
247018,-250,4,2,0,60,0,0
248907,-142.857142857143,4,2,0,60,0,0
249684,-142.857142857143,4,2,0,30,0,0
249907,-142.857142857143,4,2,0,60,0,0
250573,-142.857142857143,4,2,0,60,0,0
251462,-166.666666666667,4,2,0,60,0,0
252573,-111.111111111111,4,2,0,60,0,0
253462,-111.111111111111,4,2,0,30,0,0
253684,-111.111111111111,4,2,0,60,0,0
254240,-142.857142857143,4,2,0,60,0,0
256129,-76.9230769230769,4,2,0,60,0,0
263240,-66.6666666666667,4,2,0,60,0,0
283684,-77.777777778037,4,2,34,60,0,0
284573,-77.777777778037,4,2,34,70,0,0
291684,-66.6666666666667,4,2,0,70,0,0
298796,-100,4,2,0,70,0,0
302018,-33.3333333333333,4,2,0,70,0,0
302462,-100,4,2,0,70,0,0
305907,-125,4,2,0,70,0,0
308796,-100,4,2,0,70,0,0
309129,-83.3333333333333,4,2,0,70,0,0
309684,-71.4285714285714,4,2,0,70,0,0
310018,-66.6666666666667,4,2,0,70,0,0
310907,-62.5,4,2,0,70,0,0
313018,-103.092783505155,4,2,0,70,0,0
320129,-100,4,2,0,70,0,0
327240,-133.333333333333,4,2,0,70,0,0
333907,-111.111111111111,4,2,0,70,0,0
334351,-90.9090909090909,4,2,0,70,0,0
340351,-76.9230769230769,4,2,0,70,0,0
341462,-100,4,2,0,70,0,0
341573,-100,4,2,0,20,0,0
345018,-500,4,2,0,80,0,1
345129,-500,4,2,0,80,0,0
345907,-25,4,2,0,80,0,0
346351,-50,4,2,0,80,0,0
346796,-66.6666666666667,4,2,0,80,0,0
347240,-500,4,2,0,80,0,0
347684,-33.3333333333333,4,2,0,80,0,0
349907,-66.6666666666667,4,2,0,80,0,0
350796,-40,4,2,0,80,0,0
352129,-200,4,2,0,80,0,1
352240,-200,4,2,0,80,0,0
353018,-50,4,2,0,80,0,0
353907,-100,4,2,0,80,0,0
354351,-66.6666666666667,4,2,0,80,0,0
354796,-50,4,2,0,80,0,0
356129,-25,4,2,0,80,0,0
356573,-50,4,2,0,80,0,0
357907,-25,4,2,0,80,0,0
358796,-50,4,2,0,80,0,0
359240,-35.7142857142857,4,2,0,80,0,1
359351,-35.7142857142857,4,2,0,80,0,0
360129,-29.4117647058824,4,2,0,80,0,0
360796,-25,4,2,0,80,0,0
361462,-35.7142857142857,4,2,0,80,0,0
361907,-29.4117647058824,4,2,0,80,0,0
362796,-35.7142857142857,4,2,0,80,0,0
363684,-29.4117647058824,4,2,0,80,0,0
365462,-35.7142857142857,4,2,0,80,0,0
366351,-62.5,4,2,0,80,0,1
366462,-62.5,4,2,0,80,0,0
366796,-31.25,4,2,0,80,0,0
367240,-40,4,2,0,80,0,0
367462,-25,4,2,0,50,0,0
367573,-25,4,2,1,60,0,0
367684,-25,4,2,0,70,0,0
367796,-25,4,2,1,80,0,0
367907,-25,4,2,0,90,0,0
368129,-100,4,2,0,80,0,0
368277,-76.9230769230769,4,2,0,80,0,0
368425,-62.5,4,2,0,80,0,0
369018,-31.25,4,2,0,80,0,0
369351,-133.333333333333,4,2,0,80,0,0
369907,-12.5,4,2,0,80,0,0
370215,-19.2307692307692,4,2,0,80,0,0
370796,-41.6666666666667,4,2,0,80,0,0
372573,-50,4,2,0,80,0,0
373018,-33.3333333333333,4,2,0,80,0,0
373462,-71.4285714285714,4,2,71,60,0,0
374351,-58.8235294117647,4,2,71,60,0,0
375240,-58.8235294117647,4,2,71,60,0,0
377018,-200,4,2,71,60,0,0
377462,-47.6190476190476,4,2,71,60,0,0
380796,-100,4,3,0,60,0,0
381018,-80,4,3,0,60,0,0
381462,-88.8888888888889,4,3,0,55,0,0
382351,-100,4,3,0,50,0,0
383240,-114.285714285714,4,3,0,45,0,0
384129,-114.285714285714,4,3,0,45,0,0
384351,-100,4,3,0,45,0,0
384573,-80,4,3,0,50,0,0
385018,-66.6666666666667,4,3,0,55,0,0
385462,-57.1428571428571,4,3,0,60,0,0
385907,-50,4,3,0,65,0,0
386351,-44.4444444444445,4,3,0,70,0,0
386796,-40,4,3,0,75,0,0
387018,-33.3333333333333,4,3,0,75,0,0
387240,-28.5714285714286,4,3,0,80,0,0
387462,-25,4,3,0,80,0,0
387684,-100,4,2,0,60,0,0
388518,-100,4,2,0,5,0,0
388573,-10,4,2,0,100,0,0
388740,-10,4,2,0,5,0,0
388796,-50,4,2,0,60,0,0
388962,-50,4,2,0,5,0,0
389018,-10,4,2,0,100,0,0
389184,-10,4,2,0,5,0,0
389240,-100,4,2,0,60,0,0
389407,-100,4,2,0,5,0,0
389462,-25.0000000000001,4,2,51,90,0,1
391240,-23.2558139534884,4,2,51,90,0,1
392129,-20,4,2,51,90,0,1
392796,-25,4,2,51,90,0,1
393018,-18.1818181818182,4,2,51,90,0,1
393907,-16.6666666666667,4,2,51,90,0,1
394796,-15.1515151515152,4,2,51,90,0,1
396573,-33.3333333333333,4,2,0,90,0,1
401796,-33.3333333333333,4,2,0,90,0,0
402351,-40,4,2,0,90,0,0
402796,-50,4,2,0,90,0,0
403240,-66.6666666666667,4,2,0,90,0,0
403462,-33.3333333333333,4,2,0,90,0,0
403684,-100,4,2,85,90,0,1
410796,-50,4,2,85,90,0,1
411240,-50,4,2,51,90,0,1
412573,-43.4782608695652,4,2,51,90,0,1
414351,-43.4782608695652,4,2,85,90,0,0
416573,-43.4782608695652,4,2,0,90,0,0
417462,-38.4615384615385,4,2,0,90,0,0
417907,-1000,4,2,0,60,0,0
420351,-100,4,2,0,60,0,0
421240,-50,4,2,0,60,0,0
421462,-41.3223140495868,4,2,51,80,0,1
422018,-38.1679389312977,4,2,51,80,0,1
422907,-41.3223140495868,4,2,51,80,0,1
423796,-38.1679389312977,4,2,51,80,0,1
424351,-41.3223140495868,4,2,51,80,0,1
425573,-38.1679389312977,4,2,51,80,0,1
425907,-41.3223140495868,4,2,51,80,0,1
427351,-38.1679389312977,4,2,51,80,0,1
428351,-45.045045045045,4,2,51,80,0,1
428573,-100,4,2,21,80,0,1
428796,-45.4545454545455,4,2,21,80,0,1
429462,-100,4,2,21,80,0,1
429684,-45.4545454545455,4,2,21,80,0,1
430351,-100,4,2,21,80,0,1
430573,-45.4545454545455,4,2,21,80,0,1
432129,-100,4,2,21,80,0,1
432351,-45.4545454545455,4,2,21,80,0,1
433907,-100,4,2,21,80,0,1
434129,-45.4545454545455,4,2,21,80,0,1
434796,-45.4545454545455,4,2,21,80,0,0
435240,-100,4,2,21,80,0,0
435684,-55.5555555555556,4,2,51,80,0,1
442796,-66.6666666666667,4,2,0,80,0,1
449018,-66.6666666666667,4,2,0,80,0,0
449907,-66.6666666666667,4,2,0,80,0,1
450018,-66.6666666666667,4,2,0,60,0,0

[Colours]
Combo1 : 248,73,121
Combo2 : 251,176,4
Combo3 : 23,253,219
Combo4 : 191,181,166
Combo5 : 249,97,70
Combo6 : 228,234,237
Combo7 : 2,119,189
Combo8 : 169,251,57

[HitObjects]
62,264,3685,6,0,P|138:280|201:326,1,157.500006008148,4|0,1:0|0:0,0:0:0:0:
255,216,4573,2,0,P|271:238|279:263,1,52.5000020027161,2|0,0:0|0:0,0:0:0:0:
401,364,5018,6,0,P|474:275|463:182,1,210.000008010865,4|0,0:0|0:0,0:0:0:0:
407,107,6129,1,2,0:0:0:0:
411,111,6573,1,0,0:0:0:0:
377,22,6796,1,2,0:0:0:0:
283,36,7018,1,0,0:0:0:0:
280,136,7240,6,0,L|294:258,1,112,4|0,0:0|0:0,0:0:0:0:
17,381,8796,1,2,0:0:0:0:
17,381,9018,6,0,P|24:344|24:308,2,52.5000020027161,2|0|0,0:0|0:0|0:0,0:0:0:0:
15,242,9684,1,0,0:0:0:0:
15,242,9796,1,0,0:0:0:0:
15,242,9907,1,2,0:0:0:0:
105,270,10129,1,0,0:0:0:0:
85,150,10351,1,2,0:0:0:0:
179,141,10573,1,0,0:0:0:0:
50,33,10796,6,0,L|124:54,1,70,4|0,1:0|0:0,0:0:0:0:
218,7,11462,2,0,P|202:42|178:141,1,140,2|0,0:0|0:0,0:0:0:0:
267,284,12129,6,0,P|265:225|270:170,1,112,4|0,0:0|0:0,0:0:0:0:
405,23,13240,5,0,0:0:0:0:
405,23,13351,1,0,0:0:0:0:
405,23,13462,1,2,0:0:0:0:
431,113,13684,1,0,0:0:0:0:
388,197,13907,1,2,0:0:0:0:
421,285,14129,1,0,0:0:0:0:
280,348,14351,6,0,B|215:382|166:332|167:328|167:324|118:273|54:308,1,245,4|0,1:0|0:0,0:0:0:0:
72,17,16573,6,0,L|85:58,1,35,2|0,0:0|0:0,0:0:0:0:
110,126,17018,2,0,L|123:167,1,35
143,236,17462,1,2,0:0:0:0:
257,81,17684,1,2,0:0:0:0:
252,107,17796,1,0,0:0:0:0:
247,132,17907,1,4,1:2:0:0:
256,192,18018,12,0,21018,0:0:0:0:
164,185,21240,5,2,0:0:0:0:
164,185,21314,1,0,0:0:0:0:
164,185,21388,1,0,0:0:0:0:
164,185,21462,6,0,P|102:209|40:184,1,136.499993751526,4|0,0:1|0:0,0:0:0:0:
40,184,21907,1,8,0:0:0:0:
102,116,22129,1,0,0:0:0:0:
256,251,22351,2,0,P|280:313|255:375,1,136.499993751526
255,375,22796,2,0,L|184:313,1,90.9999958343508,8|0,0:0|0:0,0:0:0:0:
348,185,23240,6,0,P|410:160|472:185,1,136.499993751526
472,185,23684,2,0,L|409:256,1,90.9999958343508,8|0,0:0|0:0,0:0:0:0:
256,132,24129,2,0,P|231:69|256:7,1,136.499993751526
256,7,24573,2,0,L|324:66,1,90.9999958343508,8|0,0:0|0:0,0:0:0:0:
151,66,25018,6,0,P|64:52|0:112,1,181.999991668702,0|8,0:0|0:0,0:0:0:0:
93,149,25684,1,0,0:0:0:0:
44,240,25907,1,0,3:0:0:0:
104,344,26129,1,0,3:0:0:0:
164,240,26351,1,8,0:0:0:0:
360,317,26796,6,0,P|447:331|512:272,1,181.999991668702,0|8,0:0|0:0,0:0:0:0:
419,235,27462,1,0,0:0:0:0:
468,144,27685,1,0,3:0:0:0:
408,40,27907,1,0,3:0:0:0:
348,144,28129,1,8,0:0:0:0:
256,100,28351,1,0,0:0:0:0:
256,68,28462,1,0,0:0:0:0:
256,36,28573,5,4,0:1:0:0:
137,138,28796,1,2,0:0:0:0:
137,138,28907,1,0,0:0:0:0:
137,138,29018,2,0,L|69:136,1,52.5000020027161,4|0,0:3|0:0,0:0:0:0:
187,214,29240,2,0,L|255:212,1,52.5000020027161,2|0,0:0|0:0,0:0:0:0:
349,145,29462,1,4,0:3:0:0:
349,145,29573,2,0,L|281:143,1,52.5000020027161
378,267,29796,1,2,0:0:0:0:
378,267,29907,1,4,0:3:0:0:
378,267,30018,6,0,P|426:238|437:198,1,70,2|0,0:0|0:0,0:0:0:0:
446,77,30351,5,4,0:3:0:0:
446,77,30462,2,0,L|451:159,1,52.5000020027161,2|0,0:0|0:0,0:0:0:0:
375,337,30684,1,0,0:0:0:0:
375,337,30796,1,4,0:3:0:0:
375,337,30907,6,0,L|378:267,1,70,2|0,0:0|0:0,0:0:0:0:
221,196,31240,1,4,0:3:0:0:
221,196,31351,2,0,P|256:220|298:224,1,52.5000020027161
195,97,31573,1,0,0:0:0:0:
195,97,31684,2,0,P|156:115|132:149,1,52.5000020027161,4|0,0:3|0:0,0:0:0:0:
51,61,31907,2,0,P|36:101|43:142,1,52.5000020027161,2|0,0:0|0:0,0:0:0:0:
51,323,32129,5,4,0:3:0:0:
51,323,32240,2,0,P|36:282|43:241,1,52.5000020027161,2|0,0:0|0:0,0:0:0:0:
188,219,32462,1,0,0:0:0:0:
188,219,32573,1,4,0:3:0:0:
188,219,32684,6,0,P|169:254|119:275,1,70,2|0,0:0|0:0,0:0:0:0:
150,121,33018,1,4,0:3:0:0:
380,181,33240,2,0,L|327:179,1,52.5000020027161
238,44,33462,1,6,0:3:0:0:
238,44,33573,6,0,P|268:57|305:106,1,70,2|0,0:0|0:0,0:0:0:0:
330,284,33907,6,0,L|327:179,1,105.000004005432,4|0,0:0|0:0,0:0:0:0:
377,36,34129,6,2,L|378:105,1,70,2|0,3:0|0:0,0:3:0:0:
133,105,34462,2,0,L|135:36,1,70,2|0,0:1|0:0,0:0:0:0:
209,195,34796,6,0,P|168:222|116:222,1,87.5,8|0,3:0|0:0,0:0:0:0:
303,195,35018,2,0,P|344:222|396:222,1,87.5,2|0,1:3|0:0,0:0:0:0:
256,43,35240,2,0,B|240:88|271:88|256:128,1,87.5,6|0,3:0|0:0,0:0:0:0:
256,267,35462,2,0,L|256:320,3,52.5000020027161,8|0|0|0,0:1|0:0|0:0|0:0,0:0:0:0:
262,353,35684,6,0,P|305:363|334:378,1,45.4999979171754,4|0,0:1|0:0,0:0:0:0:
368,299,35907,2,0,P|400:329|417:356,1,45.4999979171754
486,313,36129,1,8,1:0:0:0:
486,313,36351,1,0,0:0:0:0:
487,290,36462,1,0,0:0:0:0:
489,267,36573,1,2,0:0:0:0:
458,138,36796,1,2,0:0:0:0:
489,267,37018,1,8,1:0:0:0:
363,207,37240,1,2,0:0:0:0:
363,207,37351,1,0,0:0:0:0:
363,207,37462,6,0,P|298:183|240:147,1,125.999996154785,4|0,0:0|0:0,0:0:0:0:
260,326,37907,6,0,P|300:361|291:279,1,175,8|0,1:0|0:0,0:0:0:0:
171,324,38240,1,0,0:0:0:0:
171,324,38351,6,0,P|154:237|126:188,1,140,2|0,0:0|0:0,0:0:0:0:
245,81,38684,1,2,0:0:0:0:
245,81,38796,2,0,P|267:126|204:177,1,140,8|0,1:0|0:0,0:0:0:0:
51,352,39240,6,0,B|8:378|-30:332|1:270|67:255|97:370|192:314,1,251.999992309571,4|8,0:0|1:0,0:0:0:0:
286,125,39907,1,2,0:0:0:0:
280,147,40018,1,0,0:0:0:0:
344,208,40129,6,0,P|365:182|397:160,1,56,4|0,3:0|0:0,0:0:0:0:
291,284,40351,2,0,P|270:258|238:236,1,56,4|0,3:0|0:0,0:0:0:0:
355,371,40573,1,8,1:0:0:0:
355,371,40796,1,2,0:0:0:0:
355,371,40907,1,0,0:0:0:0:
355,371,41018,6,0,P|418:344|485:330,1,125.999996154785,4|0,0:0|0:0,0:0:0:0:
508,202,41462,5,8,1:0:0:0:
435,219,41684,1,0,0:0:0:0:
435,219,41796,5,4,3:0:0:0:
435,219,41907,1,0,3:0:0:0:
343,191,42129,1,4,3:0:0:0:
195,325,42351,5,8,1:0:0:0:
305,291,42573,1,4,3:0:0:0:
100,206,42796,5,4,0:0:0:0:
30,83,43018,1,0,0:0:0:0:
64,75,43129,1,0,0:0:0:0:
97,66,43240,1,2,1:2:0:0:
269,78,43462,6,0,P|333:93|374:114,1,105.000004005432,0|2,0:0|0:0,0:0:0:0:
217,221,43907,1,0,0:0:0:0:
356,197,44129,1,2,1:2:0:0:
291,322,44351,6,2,P|327:347|368:307,1,105.000004005432,2|0,1:2|0:0,0:0:0:0:
456,217,45018,1,2,1:2:0:0:
278,48,45240,5,0,0:0:0:0:
331,62,45351,1,2,0:0:0:0:
383,75,45462,1,2,0:2:0:0:
238,194,45684,1,0,0:0:0:0:
238,194,45796,2,0,L|243:302,1,105.000004005432,2|0,0:0|0:0,0:0:0:0:
246,337,46129,1,2,0:0:0:0:
146,273,46351,5,2,1:2:0:0:
206,190,46573,1,0,0:0:0:0:
109,130,46796,1,2,1:2:0:0:
261,63,47018,5,0,0:0:0:0:
261,63,47240,2,0,P|214:80|162:54,1,105.000004005432,2|0,1:2|0:0,0:0:0:0:
301,157,47907,5,2,0:0:0:0:
304,167,48018,1,0,0:0:0:0:
307,177,48129,2,0,P|367:176|444:155,1,105.000004005432,2|0,1:2|0:0,0:0:0:0:
471,223,48462,5,2,0:0:0:0:
222,331,48684,5,0,0:0:0:0:
193,318,48796,1,0,0:0:0:0:
159,312,48907,1,0,0:0:0:0:
113,315,49018,1,2,1:2:0:0:
254,171,49240,1,2,0:3:0:0:
63,111,49462,5,2,0:3:0:0:
137,229,49684,1,2,0:0:0:0:
194,35,49907,5,4,0:1:0:0:
416,67,50129,1,0,0:0:0:0:
416,67,50240,1,0,0:0:0:0:
416,67,50351,2,0,B|452:35|452:35|451:125,1,112,0|0,1:0|0:0,0:0:0:0:
252,219,50796,2,0,P|314:228|345:178,1,112,4|0,0:3|0:0,0:0:0:0:
340,161,51129,1,0,0:0:0:0:
340,161,51240,2,0,L|458:173,1,112,0|0,1:0|0:0,0:0:0:0:
246,93,51684,5,4,0:3:0:0:
69,241,51907,1,0,0:0:0:0:
69,241,52018,1,0,0:0:0:0:
69,241,52129,2,0,L|59:114,1,112,0|0,1:0|0:0,0:0:0:0:
34,316,52573,2,0,P|104:316|142:268,1,112,4|0,0:3|0:0,0:0:0:0:
201,228,52907,2,0,L|336:243,1,112,0|0,1:0|0:0,0:0:0:0:
368,312,53240,2,0,L|442:306,1,56,4|0,0:3|0:0,0:0:0:0:
282,340,53462,5,4,0:3:0:0:
425,205,53684,1,0,0:0:0:0:
425,205,53796,1,0,0:0:0:0:
425,205,53907,2,0,B|460:190|460:190|442:88,1,112,0|0,1:0|0:0,0:0:0:0:
439,77,54240,1,0,0:0:0:0:
439,77,54351,2,0,L|306:98,1,112,4|0,0:3|0:0,0:0:0:0:
243,254,54796,1,0,1:0:0:0:
139,111,55018,1,0,0:0:0:0:
113,101,55129,1,0,0:0:0:0:
85,88,55240,6,0,P|71:149|90:204,1,112,4|0,0:3|0:0,0:0:0:0:
229,35,55684,1,0,1:0:0:0:
369,153,55907,1,0,0:0:0:0:
367,173,56018,1,0,0:0:0:0:
363,194,56129,2,0,L|491:183,1,112,4|0,0:3|0:0,0:0:0:0:
301,270,56573,2,0,L|234:261,1,56,0|0,1:0|0:0,0:0:0:0:
156,266,56796,2,0,L|237:279,1,56,0|0,1:0|0:0,0:0:0:0:
406,299,57018,5,4,0:3:0:0:
317,348,57240,1,2,0:0:0:0:
297,343,57351,1,0,0:0:0:0:
277,337,57462,1,0,1:0:0:0:
94,353,57684,2,0,L|142:355,1,48.9999985046387,2|0,0:0|0:0,0:0:0:0:
197,297,57907,2,0,P|210:250|203:201,1,97.9999970092774,0|2,1:0|0:0,0:0:0:0:
121,147,58351,1,2,1:2:0:0:
278,80,58573,2,0,L|229:84,1,48.9999985046387,2|0,0:0|0:0,0:0:0:0:
353,117,58796,6,0,P|364:70|342:26,1,97.9999970092774,4|2,0:3|0:0,0:0:0:0:
244,0,59129,1,0,0:0:0:0:
244,0,59240,1,0,1:0:0:0:
264,168,59462,1,2,0:0:0:0:
126,46,59684,2,0,P|62:49|7:82,2,130.666662679037,0|2|2,1:0|0:0|0:0,0:0:0:0:
182,207,60573,5,4,0:3:0:0:
101,247,60796,1,2,0:0:0:0:
92,222,60907,1,0,0:0:0:0:
93,194,61018,1,0,1:0:0:0:
264,168,61240,1,2,0:0:0:0:
273,193,61351,1,0,0:0:0:0:
273,220,61462,2,0,B|346:201|334:253|416:232,2,146.999995513916,0|2|2,1:0|0:0|0:0,0:0:0:0:
196,274,62240,1,0,0:0:0:0:
196,274,62351,5,4,0:3:0:0:
221,83,62573,1,2,0:0:0:0:
234,56,62684,1,0,0:0:0:0:
259,40,62796,2,0,P|283:37|307:37,1,48.9999985046387,4|0,0:3|0:0,0:0:0:0:
146,134,63018,2,0,P|121:133|97:131,1,48.9999985046387,2|0,0:0|0:0,0:0:0:0:
309,164,63240,5,2,3:2:0:0:
337,157,63351,1,0,3:0:0:0:
365,151,63462,1,2,1:2:0:0:
393,142,63573,1,0,1:0:0:0:
421,134,63684,2,0,B|420:182|420:182|426:210|426:210|423:251,1,119.000002269745,4|0,0:3|0:0,0:0:0:0:
256,349,64129,5,4,0:1:0:0:
256,349,64573,2,0,P|224:334|189:330,1,70,2|0,0:0|0:0,0:0:0:0:
79,270,65018,2,0,B|148:281|139:229|213:247,1,140,4|2,0:0|0:0,0:0:0:0:
212,246,66351,6,0,L|195:157,1,70,2|0,0:0|0:0,0:0:0:0:
375,171,66796,2,0,L|361:102,1,70,2|0,0:3|0:0,0:0:0:0:
360,91,67129,1,0,0:0:0:0:
358,80,67240,2,0,L|437:92,1,70,2|0,0:3|0:0,0:0:0:0:
304,243,67684,6,0,P|246:238|174:292,1,140,4|0,0:0|0:0,0:0:0:0:
96,237,68351,2,0,P|74:184|72:91,1,140,2|0,0:0|0:0,0:0:0:0:
277,9,69018,2,0,P|280:46|274:85,1,70,2|0,0:3|0:0,0:0:0:0:
161,136,69462,6,0,B|230:135|219:169|295:168,1,140,2|0,0:0|0:0,0:0:0:0:
305,166,70018,1,0,0:0:0:0:
314,160,70129,1,0,0:0:0:0:
510,257,70351,2,0,P|448:250|384:308,1,140,2|0,0:0|0:0,0:0:0:0:
388,306,70907,1,0,0:0:0:0:
388,316,71018,1,0,0:0:0:0:
282,273,71240,5,4,0:0:0:0:
282,273,71462,2,0,P|262:268|241:266,1,35
125,346,71684,2,0,P|155:308|166:263,1,70,2|0,0:0|0:0,0:0:0:0:
181,200,72018,1,0,0:0:0:0:
181,200,72129,2,0,P|173:161|171:122,1,70,2|2,0:0|0:0,0:0:0:0:
241,60,72462,1,0,0:0:0:0:
241,60,72573,2,0,P|192:90|119:44,1,140,2|0,0:0|0:0,0:0:0:0:
107,31,73240,6,0,P|105:54|100:77,1,35,2|0,0:0|0:0,0:0:0:0:
44,195,73462,2,0,P|62:181|85:174,1,40.2500007677078
272,117,73684,2,2,P|243:144|229:152,1,45.4999979171754
106,264,73907,6,0,P|155:247|206:258,1,101.500003097534,2|0,0:0|0:0,0:0:0:0:
279,311,74240,1,0,0:0:0:0:
279,311,74351,2,0,L|331:308,1,50.7500015487671,2|2,0:0|0:0,0:0:0:0:
397,232,74573,2,0,L|447:235,1,50.7500015487671,2|0,0:0|0:0,0:0:0:0:
470,331,74796,5,0,0:0:0:0:
465,336,74907,1,0,0:0:0:0:
460,341,75018,2,0,L|408:340,1,35,2|0,0:0|0:0,0:0:0:0:
269,297,75240,1,0,0:0:0:0:
274,304,75351,1,0,0:0:0:0:
279,311,75462,2,0,L|330:309,1,35,2|0,0:0|0:0,0:0:0:0:
462,222,75684,5,0,0:0:0:0:
454,228,75795,1,0,0:0:0:0:
448,236,75906,2,0,L|391:234,1,38.5000011749268,2|0,0:0|0:0,0:0:0:0:
299,152,76129,2,0,P|295:131|295:102,1,38.5000011749268
433,83,76351,2,2,P|430:106|425:134,1,38.5000011749268
270,24,76573,5,0,0:0:0:0:
287,19,76684,1,0,0:0:0:0:
304,14,76796,2,0,L|351:33,1,41.9999987182618,2|0,0:0|0:0,0:0:0:0:
251,123,77018,1,0,0:0:0:0:
272,117,77129,1,0,0:0:0:0:
294,113,77241,2,0,L|344:134,1,45.4999979171754,2|0,0:0|0:0,0:0:0:0:
171,170,77462,6,0,P|164:151|160:108,1,48.9999985046387
289,224,77684,2,0,P|285:244|277:278,1,48.9999985046387,2|0,0:0|0:0,0:0:0:0:
119,277,77907,6,0,B|145:270|145:270|190:274,1,52.5000020027161,0|2,0:0|0:0,0:0:0:0:
335,130,78129,2,0,B|304:129|304:129|274:120,1,52.5000020027161,2|0,0:0|0:0,0:0:0:0:
80,164,78351,6,0,L|72:216,2,35,6|0|10,0:0|0:0|0:0,0:0:0:0:
321,265,78796,2,0,L|315:230,2,35,2|0|8,0:0|0:0|0:0,0:0:0:0:
56,233,79240,5,2,0:0:0:0:
62,260,79351,1,0,0:0:0:0:
68,287,79462,1,8,0:0:0:0:
297,197,79684,1,2,0:0:0:0:
303,169,79796,1,0,0:0:0:0:
309,141,79907,1,8,0:0:0:0:
177,73,80129,6,0,L|126:76,2,35,2|0|8,0:0|0:0|0:0,0:0:0:0:
169,249,80573,2,0,L|172:188,1,35,2|0,0:0|0:0,0:0:0:0:
235,140,80796,1,8,0:0:0:0:
343,249,81018,2,0,L|340:188,1,35,2|0,0:0|0:0,0:0:0:0:
277,140,81241,1,8,0:0:0:0:
258,282,81462,5,2,0:0:0:0:
254,40,81684,1,10,0:0:0:0:
419,163,81907,6,0,L|477:168,2,35,2|0|8,0:0|0:0|0:0,0:0:0:0:
350,284,82351,2,0,L|406:268,2,35,2|0|8,0:0|0:0|0:0,0:0:0:0:
162,284,82796,2,0,L|105:268,2,35,2|0|8,0:0|0:0|0:0,0:0:0:0:
93,163,83240,2,0,L|35:168,2,35,2|0|8,0:0|0:0|0:0,0:0:0:0:
429,14,83684,5,2,0:0:0:0:
420,83,83796,1,0,0:0:0:0:
414,157,83907,2,0,L|404:253,1,70,10|0,0:0|0:0,0:0:0:0:
315,371,84241,5,2,0:0:0:0:
251,291,84351,2,0,L|155:281,1,70,10|0,0:0|0:0,0:0:0:0:
27,217,84684,5,2,0:0:0:0:
110,135,84796,2,0,L|120:39,1,70,10|0,0:0|0:0,0:0:0:0:
291,0,85129,5,2,0:0:0:0:
267,140,85240,1,10,0:0:0:0:
483,358,85462,6,0,P|467:322|459:270,1,56,2|0,0:0|0:0,0:0:0:0:
416,228,85684,2,0,P|433:192|467:153,1,56
512,64,85907,2,0,P|460:85|404:92,1,112
312,180,86240,1,0,0:0:0:0:
312,180,86351,6,0,P|276:164|224:156,1,56,2|0,0:0|0:0,0:0:0:0:
180,116,86573,2,0,P|144:133|105:167,1,56
20,212,86796,2,0,P|41:160|48:104,1,112
28,12,87129,1,0,0:0:0:0:
28,12,87240,1,2,0:0:0:0:
184,232,87462,6,0,P|200:268|208:320,1,56,2|0,0:0|0:0,0:0:0:0:
88,348,87684,2,0,P|96:321|108:296,1,56,2|0,0:0|0:0,0:0:0:0:
176,132,87907,2,0,P|149:140|124:152,1,56,2|0,0:0|0:0,0:0:0:0:
292,240,88129,70,0,B|346:252|392:296|392:296|379:273|379:247,1,168,2|0,0:0|0:0,0:0:0:0:
432,184,88573,2,0,P|423:210|411:235,1,56
304,384,88796,2,0,P|291:358|283:332,1,56
168,228,89018,5,2,0:0:0:0:
202,197,89129,1,0,0:0:0:0:
243,173,89240,1,0,0:0:0:0:
287,159,89351,1,0,0:0:0:0:
335,150,89462,6,0,P|311:138|284:128,1,56,2|0,0:0|0:0,0:0:0:0:
212,248,89684,2,0,P|182:249|156:255,1,56
4,360,89907,5,2,0:0:0:0:
28,321,90018,1,0,0:0:0:0:
45,276,90129,1,0,0:0:0:0:
51,230,90240,1,0,0:0:0:0:
50,181,90351,6,0,P|71:233|78:289,1,112,2|0,0:0|0:0,0:0:0:0:
184,356,90684,1,0,0:0:0:0:
184,356,90796,6,0,P|128:363|76:384,1,112,2|0,0:0|0:0,0:0:0:0:
168,316,91129,2,0,P|219:336|275:343,1,112,2|0,0:0|0:0,0:0:0:0:
392,352,91462,2,0,P|373:332|351:313,1,56
264,212,91684,6,0,P|228:207|194:194,2,56,2|0|0,0:0|0:0|0:0,0:0:0:0:
355,224,92017,2,0,P|299:230|247:251,1,112,2|0,0:0|0:0,0:0:0:0:
180,308,92351,1,0,0:0:0:0:
172,316,92573,6,0,L|160:212,1,94.499997116089,2|0,0:3|0:0,0:0:0:0:
148,216,92796,6,0,L|155:271,1,56,2|0,3:0|0:0,0:0:0:0:
136,208,93129,6,0,L|146:289,1,74.3750014185906,2|0,0:0|0:0,0:0:0:0:
84,351,93462,6,0,L|22:358,1,62.9999980773926,4|0,0:3|0:0,0:0:0:0:
8,351,93684,2,0,L|70:343,1,62.9999980773926,2|0,0:3|0:0,0:0:0:0:
179,374,93907,6,0,L|256:365,1,73.4999977569581,2|0,0:0|0:0,0:0:0:0:
351,351,94129,1,12,0:0:0:0:
0,268,94351,6,0,B|24:232|24:232|24:184,1,83.9999974365235,4|0,0:0|0:0,0:0:0:0:
132,140,94796,1,2,0:0:0:0:
240,92,95018,1,0,0:0:0:0:
348,44,95240,2,0,P|420:44|460:76,2,125.999996154785,0|2|0,0:0|0:0|0:0,0:0:0:0:
240,92,96129,6,0,B|280:136|280:136|284:180|284:180|328:232,1,167.999994873047,0|2,0:0|0:0,0:0:0:0:
164,340,96796,1,0,0:0:0:0:
164,340,97018,2,0,P|92:340|52:308,2,125.999996154785,0|2|0,0:0|0:0|0:0,0:0:0:0:
144,224,97907,6,0,P|112:144|144:72,1,167.999994873047,0|2,0:0|0:0,0:0:0:0:
369,72,98573,2,0,P|400:148|368:224,1,167.999994873047
256,148,99240,1,2,0:0:0:0:
257,313,99462,2,0,B|279:231|231:231|255:147,1,167.999994873047
176,60,100129,1,2,0:0:0:0:
336,60,100351,5,0,0:0:0:0:
336,60,100462,1,0,0:0:0:0:
336,60,100573,2,0,P|380:60|412:84,1,83.9999974365235
452,196,101018,1,2,0:0:0:0:
411,302,101240,1,0,0:0:0:0:
400,328,101351,1,0,0:0:0:0:
388,353,101462,5,4,1:0:0:0:
280,142,101684,2,0,L|289:79,1,35,2|0,0:0|0:0,0:0:0:0:
169,232,101907,5,8,0:0:0:0:
98,186,102018,1,2,0:0:0:0:
169,232,102129,6,0,L|178:295,1,35
188,339,102351,2,0,L|308:358,1,105,4|0,0:3|0:0,0:0:0:0:
106,321,102796,5,10,1:2:0:0:
35,367,102907,1,0,0:0:0:0:
35,275,103018,5,2,0:0:0:0:
106,321,103129,1,0,0:0:0:0:
106,229,103240,5,4,1:3:0:0:
296,320,103462,2,0,L|291:354,1,35,2|0,0:0|0:0,0:0:0:0:
460,200,103684,5,8,0:0:0:0:
414,129,103795,1,2,0:0:0:0:
460,200,103907,6,0,L|494:195,1,35,2|0,0:0|0:0,0:0:0:0:
413,259,104129,2,0,L|309:242,1,105,4|0,3:0|0:0,0:0:0:0:
184,161,104573,5,10,1:2:0:0:
230,232,104684,1,0,0:0:0:0:
138,232,104796,5,2,0:0:0:0:
184,161,104907,1,0,0:0:0:0:
92,161,105018,5,4,0:0:0:0:
259,53,105240,2,0,L|224:48,1,35,2|0,0:0|0:0,0:0:0:0:
380,196,105462,5,8,0:0:0:0:
309,242,105573,1,2,0:0:0:0:
380,196,105684,6,0,L|414:191,1,35
230,232,105907,1,4,0:3:0:0:
357,78,106129,6,0,L|361:112,1,35,2|0,0:0|0:0,0:0:0:0:
423,34,106351,2,0,L|427:0,1,35,10|0,1:2|0:0,0:0:0:0:
230,232,106573,5,2,0:0:0:0:
276,303,106684,2,0,B|441:330|441:330|483:265|483:265|387:249|387:249|354:297,1,385,2|2,0:0|0:0,0:0:0:0:
276,303,108129,5,10,0:0:0:0:
230,232,108240,2,0,L|157:243,1,70,2|0,0:0|0:0,0:0:0:0:
16,192,108573,5,4,1:1:0:0:
119,162,108796,1,2,0:0:0:0:
119,162,108907,1,0,0:0:0:0:
119,162,109018,1,8,1:0:0:0:
73,70,109240,1,0,1:0:0:0:
239,174,109462,6,0,L|341:157,1,83.9999974365235,0|0,1:0|0:0,0:0:0:0:
321,160,109796,1,0,1:0:0:0:
321,160,109907,1,8,1:0:0:0:
462,212,110129,1,0,1:0:0:0:
419,72,110351,6,0,L|432:248,1,167.999994873047,4|8,1:2|1:0,0:0:0:0:
494,329,111018,1,2,0:0:0:0:
328,345,111240,1,0,1:0:0:0:
209,263,111462,1,0,0:0:0:0:
180,273,111573,1,8,1:0:0:0:
102,354,111796,1,0,1:0:0:0:
69,345,111907,1,8,1:0:0:0:
34,335,112018,1,0,0:0:0:0:
5,328,112129,2,0,P|7:281|8:234,1,83.9999974365235,4|0,1:0|0:0,0:0:0:0:
153,132,112462,5,0,1:0:0:0:
77,150,112573,2,0,P|75:197|75:214,1,41.9999987182618,8|0,1:0|0:0,0:0:0:0:
222,202,112796,2,0,P|228:148|229:93,1,83.9999974365235,2|0,0:0|1:0,0:0:0:0:
507,198,113240,5,0,1:0:0:0:
388,96,113462,1,10,1:0:0:0:
391,120,113573,1,0,0:0:0:0:
394,144,113684,1,2,1:0:0:0:
397,169,113796,1,0,0:0:0:0:
400,193,113907,1,2,1:0:0:0:
258,342,114129,5,2,1:0:0:0:
112,193,114351,1,8,1:0:0:0:
115,169,114462,1,2,1:0:0:0:
118,144,114574,1,2,1:0:0:0:
257,21,114796,5,0,1:0:0:0:
254,50,114907,1,10,1:0:0:0:
249,142,115129,1,2,1:0:0:0:
259,174,115240,1,8,1:0:0:0:
259,207,115351,1,0,0:0:0:0:
258,239,115462,1,10,1:0:0:0:
253,272,115573,1,0,0:0:0:0:
256,305,115684,6,0,P|215:334|130:332,1,125.999996154785,4|2,1:0|0:0,0:0:0:0:
328,353,116018,1,0,0:0:0:0:
328,353,116129,2,0,P|341:320|335:271,1,62.9999980773926,0|0,1:0|0:0,0:0:0:0:
164,198,116351,2,0,P|165:229|177:258,1,62.9999980773926,2|0,0:0|0:0,0:0:0:0:
412,264,116573,2,0,P|359:221|304:228,1,125.999996154785,4|2,3:0|0:0,0:0:0:0:
146,340,116907,1,0,0:0:0:0:
146,340,117018,2,0,B|117:353|117:353|80:352,1,62.9999980773926,0|0,1:0|0:0,0:0:0:0:
182,263,117240,1,2,0:0:0:0:
182,263,117351,1,0,0:0:0:0:
75,269,117462,6,0,P|34:231|26:144,1,125.999996154785,4|2,3:0|0:0,0:0:0:0:
88,64,117796,1,0,0:0:0:0:
88,64,117907,2,0,P|129:102|137:189,1,125.999996154785,0|2,1:0|0:0,0:0:0:0:
321,272,118240,1,0,0:0:0:0:
321,272,118351,2,0,P|362:219|425:230,1,125.999996154785,4|2,3:0|0:0,0:0:0:0:
464,331,118684,1,0,0:0:0:0:
464,331,118796,2,0,P|423:384|360:373,1,125.999996154785,0|0,1:0|1:0,0:0:0:0:
336,120,119240,6,0,P|394:117|499:188,1,181.999991668702,4|2,1:0|0:0,0:0:0:0:
112,110,119907,2,0,P|181:53|271:48,1,181.999991668702,0|2,0:0|0:0,0:0:0:0:
106,213,120573,1,0,0:0:0:0:
106,213,120684,1,0,0:0:0:0:
106,213,120796,2,0,L|52:208,1,45.4999979171754,2|0,0:0|0:0,0:0:0:0:
135,290,121018,6,0,L|192:282,1,56,4|0,0:1|0:0,0:0:0:0:
245,274,121240,2,0,L|189:281,1,56,2|0,0:3|0:0,0:0:0:0:
109,377,121462,2,0,L|175:367,1,62.9999980773926
310,348,121684,2,0,L|247:357,1,62.9999980773926,2|0,0:3|0:0,0:0:0:0:
37,324,121907,1,0,0:0:0:0:
332,200,122129,1,2,0:3:0:0:
332,200,122240,1,0,0:0:0:0:
332,200,122351,2,0,P|374:210|413:212,1,70
180,184,122573,2,0,P|138:174|99:172,1,70,2|0,0:3|0:0,0:0:0:0:
362,95,122796,5,4,1:0:0:0:
256,192,122907,12,0,126129,0:0:0:0:
407,66,137018,6,2,P|488:51|470:132,1,196,6|0,1:0|0:0,0:3:0:0:
370,186,137907,6,0,B|320:143|320:143|443:155,1,188.999994232178,8|0,1:0|0:0,0:0:0:0:
372,138,138351,6,2,L|225:125,1,140,2|4,0:1|3:0,0:1:0:0:
37,318,138796,6,0,L|26:260,1,58.3333333333333,2|0,1:3|0:0,0:0:0:0:
232,125,138944,2,0,L|221:182,1,58.3333333333333,2|0,0:3|0:0,0:0:0:0:
137,359,139092,2,0,L|126:301,1,58.3333333333333,2|0,0:3|0:0,0:0:0:0:
213,83,139240,6,0,L|188:227,1,146.999995513916,4|0,1:2|0:0,0:0:0:0:
339,350,139684,6,2,B|439:370|439:370|457:277,1,196,8|0,1:0|0:0,0:3:0:0:
411,180,140573,6,0,B|303:164|303:164|357:248,1,210,6|0,1:0|0:0,0:0:0:0:
437,167,141018,2,0,L|446:94,1,70,2|0,3:0|0:0,0:0:0:0:
335,6,141240,2,0,L|328:77,1,70,2|0,3:0|0:0,0:0:0:0:
221,235,141462,2,0,B|195:182|195:182|207:101,1,140,8|2,1:0|0:1,0:0:0:0:
214,96,141907,6,0,L|207:154,1,56,8|4,3:0|1:3,0:0:0:0:
0,249,142351,6,0,P|23:237|49:231,1,52.5000020027161,2|0,0:3|0:0,0:0:0:0:
53,251,142462,6,0,P|79:248|105:251,1,52.5000020027161,2|0,0:3|0:0,0:0:0:0:
111,271,142573,6,0,P|136:277|159:289,1,52.5000020027161,2|0,0:3|0:0,0:0:0:0:
156,310,142684,6,0,P|177:324|195:343,1,52.5000020027161,2|0,0:3|0:0,0:0:0:0:
190,364,142796,6,2,B|200:279|200:279|182:233|182:233|189:159,1,210,6|0,1:0|0:0,0:1:0:0:
279,46,143240,6,2,B|375:12|375:12|344:101,1,196,8|0,1:0|0:0,0:1:0:0:
305,211,144129,6,0,B|344:199|344:199|365:216|365:216|440:228,1,125.999996154785,4|0,3:3|0:0,0:0:0:0:
172,349,145018,2,0,L|88:340,1,83.9999974365235,10|0,0:0|0:0,0:0:0:0:
172,349,145684,1,0,3:0:0:0:
0,195,145907,5,2,0:1:0:0:
46,123,146055,1,2,0:1:0:0:
84,199,146203,1,2,0:1:0:0:
43,171,146351,5,2,3:2:0:0:
43,171,146796,2,0,B|86:175|86:175|117:201|117:201|159:206,1,125.999996154785,8|2,0:0|0:0,0:0:0:0:
379,29,147684,6,2,B|397:22|397:22|375:49|383:83,1,84,2|0,3:2|0:0,0:1:0:0:
465,74,148129,6,2,B|497:84|510:116|510:116|512:97,1,84,2|0,0:2|0:0,0:1:0:0:
431,149,148351,2,2,B|405:172|371:166|371:166|386:178,1,84,2|0,0:2|0:0,0:1:0:0:
383,83,148573,6,0,B|375:49|397:22|397:22|379:29,1,84,10|0,0:0|0:0,0:0:0:0:
320,236,149018,2,0,B|327:269|305:296|305:296|323:289,1,84,2|0,0:0|3:0,0:0:0:0:
183,69,149462,6,0,L|177:33,2,31.4999990386963,2|2|2,0:1|0:1|0:1,0:0:0:0:
105,130,149740,2,0,L|81:101,1,31.4999990386963,2|2,0:1|0:1,0:0:0:0:
37,28,149907,6,0,L|60:306,1,269.500008224488,2|0,3:2|0:0,0:0:0:0:
62,312,150351,2,0,B|100:298|100:298|149:335|214:304,1,146.999995513916,2|0,0:0|0:0,0:0:0:0:
213,316,150796,2,2,L|216:274,1,42,2|0,0:0|0:0,0:1:0:0:
163,171,151240,6,2,B|155:149|129:134|129:134|198:162|261:134|261:134|249:118|228:115,1,220.499993270874,0|0,0:0|0:0,0:1:0:0:
148,65,152129,6,0,B|123:58|123:58|128:59,8,26.2500010013581,2|0|0|0|0|0|0|0|2,0:0|0:0|0:0|0:0|0:0|0:0|0:0|0:0|0:0,0:0:0:0:
124,59,152573,2,2,L|204:52,1,73.4999977569581,2|0,0:0|0:0,1:2:0:0:
211,45,153018,6,0,B|228:52|245:51|245:51|258:71|259:85|259:85|280:85|294:93|294:93|299:125|335:153,1,171.499994766236,2|0,3:2|0:0,0:0:0:0:
342,152,153462,2,2,L|391:143,1,35,2|0,0:0|0:0,0:1:0:0:
228,297,153684,2,2,L|187:302,1,35,2|0,0:0|0:0,0:1:0:0:
452,338,153907,5,2,0:1:0:0:
406,266,154055,1,2,0:1:0:0:
368,342,154203,1,2,0:1:0:0:
490,262,154351,5,8,0:0:0:0:
481,235,154462,2,0,L|458:202,1,35,8|0,0:0|3:0,0:0:0:0:
201,29,154796,6,0,B|181:29|181:29|169:37|169:37|145:37|145:37|133:45|133:45|109:45|109:45|97:53|97:53|70:53|70:53|58:62|58:62|7:62,1,183.750007009506,6|0,3:2|0:0,0:0:0:0:
2,45,155684,6,0,L|9:116,1,52.5000020027161,0|0,1:0|0:0,0:0:0:0:
54,216,156129,1,2,0:0:0:0:
54,216,156351,2,0,L|61:145,2,52.5000020027161,4|0|0,0:3|0:0|0:0,0:0:0:0:
107,343,157018,2,0,L|100:272,1,52.5000020027161,4|0,0:3|0:0,0:0:0:0:
87,139,157462,6,0,L|97:138,28,6.56250025033952,0|0|0|0|0|0|0|0|0|0|0|0|0|0|0|0|0|0|0|0|0|0|0|0|0|0|0|0|0,1:0|0:0|0:0|0:0|0:0|0:0|0:0|0:0|0:0|0:0|0:0|0:0|0:0|0:0|0:0|0:0|0:0|0:0|0:0|0:0|0:0|0:0|0:0|0:0|0:0|0:0|0:0|0:0|0:0,0:0:0:0:
67,167,158351,5,4,0:3:0:0:
154,199,158573,1,0,0:0:0:0:
83,258,158796,1,2,0:0:0:0:
152,300,159018,1,0,0:0:0:0:
119,373,159240,1,2,1:2:0:0:
119,373,159462,1,0,0:0:0:0:
83,258,159684,1,0,0:0:0:0:
119,373,159907,1,4,0:3:0:0:
119,373,160129,6,0,B|115:361|115:361|123:357|123:357|115:353|115:353|123:349|123:349|115:345|115:345|123:341|123:341|115:337|115:337|123:333|123:333|115:329|115:329|123:325|123:325|115:321|115:321|123:317|123:317|115:313|115:313|123:309|123:309|119:261,1,157.500006008148,0|0,1:0|0:0,0:0:0:0:
93,138,160573,6,0,L|87:139,12,6.56250025033952,4|0|0|0|0|0|0|0|0|0|0|0|0,0:3|0:0|0:0|0:0|0:0|0:0|0:0|0:0|0:0|0:0|0:0|0:0|0:0,0:0:0:0:
132,160,161018,6,0,B|156:160|156:160|208:188|208:188|252:188,1,105.000004005432,6|0,0:0|0:0,0:0:0:0:
229,188,161462,2,0,B|207:188|207:188|155:216|155:216|131:216,1,105.000004005432,6|0,0:0|0:0,0:0:0:0:
201,29,161907,6,0,B|228:21|228:21|255:29,1,56,4|0,3:0|0:0,0:0:0:0:
368,104,162351,2,0,B|341:112|341:112|314:104,1,56
428,29,162796,2,0,B|458:59|458:59|466:62|466:62|461:67|461:67|469:70|469:70|500:101,1,112,2|0,1:2|0:0,0:0:0:0:
460,192,163462,1,4,3:0:0:0:
500,282,163684,2,0,P|507:309|500:336,1,56
338,309,164129,2,0,P|365:302|392:309,1,56,4|0,3:0|0:0,0:0:0:0:
230,336,164573,6,0,L|217:348,12,17.5,2|0|0|0|0|0|0|0|0|0|0|0|0,1:2|0:0|0:0|0:0|0:0|0:0|0:0|0:0|0:0|0:0|0:0|0:0|0:0,0:0:0:0:
152,292,165018,2,0,L|139:304,12,17.5
74,248,165462,6,2,B|34:193|74:141|74:141|70:129|70:129|106:77|70:21,1,245,4|0,3:0|0:0,0:1:0:0:
12,77,166351,5,2,1:2:0:0:
12,77,166573,1,0,0:0:0:0:
127,194,166796,1,0,0:0:0:0:
127,194,167018,1,4,3:0:0:0:
282,48,167240,6,0,L|295:36,12,17.5
360,92,167684,2,0,L|373:80,12,17.5,4|0|0|0|0|0|0|0|0|0|0|0|0,3:0|0:0|0:0|0:0|0:0|0:0|0:0|0:0|0:0|0:0|0:0|0:0|0:0,0:0:0:0:
438,136,168129,6,2,B|474:204|474:204|438:364,1,240.625,6|0,1:2|0:0,0:1:0:0:
360,319,168573,2,2,B|324:251|324:251|360:91,1,240.625,6|0,1:2|0:0,0:1:0:0:
282,48,169018,6,0,L|176:67,1,105,4|0,0:1|0:0,0:0:0:0:
74,28,169907,2,0,L|80:73,1,35,2|0,0:0|0:0,0:0:0:0:
31,150,170351,2,0,P|72:151|130:225,1,140,2|0,0:0|0:0,0:0:0:0:
117,323,171462,1,2,0:0:0:0:
117,323,171907,5,0,0:0:0:0:
129,223,172129,1,2,0:0:0:0:
117,323,172351,1,0,0:0:0:0:
210,283,172573,6,0,P|277:291|322:343,1,140,2|0,0:0|0:0,0:0:0:0:
322,343,174129,5,2,0:0:0:0:
426,304,174351,1,0,0:0:0:0:
322,343,174573,1,2,0:0:0:0:
322,343,175018,5,0,0:0:0:0:
325,329,175129,1,0,0:0:0:0:
328,315,175240,1,2,0:0:0:0:
318,230,175462,1,0,0:0:0:0:
253,185,175684,1,2,0:0:0:0:
181,199,175907,1,0,0:0:0:0:
133,292,176129,5,4,0:1:0:0:
133,292,176351,2,0,L|84:298,1,35,2|0,0:0|0:0,0:0:0:0:
379,92,176796,2,0,L|427:85,1,35,2|2,0:0|0:0,0:0:0:0:
362,80,177462,1,0,3:0:0:0:
349,97,177685,1,0,3:0:0:0:
366,109,177907,1,0,3:0:0:0:
379,92,178129,1,0,3:0:0:0:
362,80,178351,1,0,3:0:0:0:
210,116,178573,5,0,3:0:0:0:
210,116,178684,1,0,3:0:0:0:
210,116,178796,2,0,L|353:95,3,140,2|0|2|0,0:0|3:0|0:0|3:0,0:0:0:0:
504,64,179684,6,0,P|505:87|486:76,1,54.25,4|0,0:0|0:0,0:0:0:0:
486,76,181462,6,0,B|347:95|347:95|342:59|342:59|306:64|306:64|302:33|302:33|266:38,1,280,0|4,0:0|0:1,0:0:0:0:
266,37,183907,6,0,P|298:29|345:30,2,70,0|2|0,0:0|0:0|0:0,0:0:0:0:
225,110,184573,1,0,0:0:0:0:
225,110,184796,2,0,P|155:71|69:70,1,140,2|0,0:0|0:0,0:0:0:0:
104,73,185684,1,0,0:0:0:0:
104,73,185796,1,0,0:0:0:0:
104,73,185907,5,2,0:0:0:0:
166,228,186240,1,0,0:0:0:0:
2,206,186573,1,2,0:0:0:0:
90,169,186796,6,0,P|80:238|102:323,1,140,2|0,0:0|0:0,0:0:0:0:
163,353,187462,2,0,P|199:320|292:288,1,140,2|0,0:0|0:0,0:0:0:0:
291,296,188351,1,0,0:0:0:0:
291,296,188462,1,0,0:0:0:0:
291,296,188573,6,0,B|321:272|333:240|332:202|314:171|314:171|295:139|289:97|303:49|345:16|394:9|438:24|471:61,1,420,2|0,0:0|0:0,0:0:0:0:
465,54,190351,6,0,P|446:82|407:100,1,52.5000020027161
447,145,190573,2,0,P|415:216|357:272,1,157.500006008148,0|0,1:0|2:0,2:0:0:0:
320,290,191018,1,0,2:0:0:0:
131,136,191240,1,2,2:0:0:0:
447,145,191462,1,2,2:0:0:0:
197,242,191684,1,0,1:3:0:0:
355,82,191907,6,0,P|293:42|200:35,1,157.500006008148,0|0,2:0|2:0,2:0:0:0:
60,145,192351,2,0,L|5:123,1,52.5000020027161,2|0,1:2|2:0,1:0:0:0:
122,286,192573,2,0,L|48:284,1,52.5000020027161,0|0,3:0|1:0,1:0:0:0:
329,269,192796,5,0,1:0:0:0:
376,256,192907,1,0,3:0:0:0:
413,224,193018,2,0,P|432:198|438:124,1,105.000004005432,0|0,3:0|2:0,2:0:0:0:
325,110,193351,2,0,P|348:56|384:27,1,105.000004005432,0|0,2:0|3:0,2:0:0:0:
424,19,193684,1,0,3:0:0:0:
406,51,193907,6,0,P|311:54|150:7,1,262.500010013581,0|0,1:0|2:0,2:0:0:0:
35,189,194573,2,0,B|60:78|281:83|428:136,1,420.000016021729,0|0,1:0|3:0,2:0:0:0:
477,221,195573,1,0,3:0:0:0:
461,247,195684,2,0,B|388:318|388:318|347:315|322:278,1,175.00000667572,0|4,1:0|1:3,2:0:0:0:
25,176,196351,6,0,P|120:174|216:186,1,181.999991668702,0|2,1:0|3:0,1:0:0:0:
476,121,196796,2,0,P|381:123|287:112,1,181.999991668702,0|2,1:0|1:1,1:0:0:0:
56,33,197240,5,8,1:0:0:0:
66,52,197351,1,8,1:2:0:0:
76,71,197462,6,0,B|69:124|69:124|76:158|76:158|70:219,1,140,4|0,1:0|0:0,0:0:0:0:
48,333,197907,1,8,0:1:0:0:
70,209,198129,1,2,0:0:0:0:
159,291,198351,2,0,L|180:205,1,70,2|0,0:0|0:0,0:0:0:0:
244,375,198573,1,0,0:0:0:0:
275,252,198796,2,0,L|296:166,1,70,8|0,0:1|0:0,0:0:0:0:
360,336,199018,6,0,B|410:324|410:324|440:307|440:307|493:298,2,140,4|0|0,0:0|0:0|0:0,0:0:0:0:
159,291,199684,1,8,0:1:0:0:
275,252,199907,1,2,0:0:0:0:
283,218,200018,1,2,0:0:0:0:
292,184,200129,2,0,P|291:144|270:98,2,70,2|0|0,0:0|0:0|0:0,0:0:0:0:
198,162,200462,1,2,0:0:0:0:
198,162,200573,2,0,L|104:158,1,70,8|0,0:1|0:0,0:0:0:0:
386,205,200796,6,0,L|490:200,1,105.000004005432,2|0,3:0|0:0,0:0:0:0:
253,388,201018,6,0,B|256:335|256:335|270:303|270:303|275:252,1,140,4|8,1:0|0:1,0:0:0:0:
82,253,201684,6,0,L|186:263,1,105.000004005432,2|0,3:0|0:0,0:0:0:0:
42,178,201907,6,0,P|48:251|33:318,2,140,0|0|8,0:0|0:0|0:1,0:0:0:0:
136,105,202573,1,2,0:0:0:0:
102,96,202684,1,2,0:0:0:0:
68,88,202796,6,0,P|28:89|-17:109,2,70,2|0|0,0:0|0:0|0:0,0:0:0:0:
198,162,203240,2,0,P|238:161|283:140,2,70,8|0|0,0:1|0:0|0:0,0:0:0:0:
170,59,203684,2,0,P|169:20|148:-25,2,70
95,190,204129,2,0,B|96:230|96:230|117:275,1,70,8|0,0:1|0:0,0:0:0:0:
194,330,204351,2,0,L|197:366,1,35,2|0,3:0|0:0,0:0:0:0:
226,316,204462,2,0,L|223:280,1,35,2|0,3:0|0:0,0:0:0:0:
258,301,204573,6,0,B|324:276|324:276|392:316|392:316|450:293,1,210.000008010865,4|8,1:0|0:1,0:0:0:0:
504,152,205240,1,2,0:0:0:0:
504,152,205351,1,0,0:0:0:0:
504,152,205462,2,0,P|451:147|401:132,1,105.000004005432,4|0,0:3|0:0,0:0:0:0:
240,40,205907,2,0,P|287:17|338:5,1,105.000004005432,8|2,0:1|0:0,0:0:0:0:
504,152,206351,6,0,P|493:203|508:252,1,105.000004005432,4|0,3:0|0:0,0:0:0:0:
508,252,206684,1,0,0:0:0:0:
508,252,206796,1,8,0:1:0:0:
300,312,207018,1,2,0:0:0:0:
300,312,207129,1,0,0:0:0:0:
300,312,207240,2,0,P|310:260|295:211,1,105.000004005432,4|0,0:0|0:0,0:0:0:0:
232,168,207573,2,0,L|176:184,1,52.5000020027161,2|8,0:0|0:1,0:0:0:0:
276,28,207907,1,0,0:0:0:0:
412,88,208129,6,0,P|396:184|388:312,1,210.000008010865,6|8,0:0|0:1,0:0:0:0:
256,364,208796,1,2,0:0:0:0:
168,200,209018,2,0,L|280:184,1,105.000004005432,4|0,0:3|0:0,0:0:0:0:
263,274,209351,1,2,0:0:0:0:
263,274,209462,2,0,L|151:290,1,105.000004005432,8|0,0:1|0:0,0:0:0:0:
216,92,209907,5,4,0:0:0:0:
305,163,210129,1,2,0:0:0:0:
322,137,210240,1,0,0:0:0:0:
331,107,210351,1,0,0:0:0:0:
331,75,210462,1,2,0:0:0:0:
321,45,210573,1,0,1:0:0:0:
303,19,210684,2,0,L|199:10,1,105.000004005432,8|0,0:1|0:0,0:0:0:0:
305,163,211018,5,4,0:3:0:0:
305,163,211129,1,0,0:0:0:0:
305,163,211240,2,0,L|409:172,1,105.000004005432,8|0,1:0|0:0,0:0:0:0:
258,301,211684,6,0,P|331:290|374:300,1,105.000004005432,4|0,1:0|0:0,0:0:0:0:
450,363,212018,1,0,0:0:0:0:
450,363,212129,2,0,L|466:245,1,105.000004005432,8|2,0:1|0:0,0:0:0:0:
361,91,212573,2,0,L|375:195,1,105.000004005432,6|0,0:0|0:0,0:0:0:0:
272,197,212907,1,0,0:0:0:0:
272,197,213018,2,0,P|220:191|169:202,1,105.000004005432,8|0,0:1|0:0,0:0:0:0:
92,253,213351,1,0,0:0:0:0:
35,187,213462,6,0,B|21:135|21:135|58:68,1,105.000004005432,0|2,0:0|0:0,0:0:0:0:
119,31,213796,1,0,0:0:0:0:
119,31,213907,2,0,L|201:42,1,52.5000020027161,8|0,0:1|0:0,0:0:0:0:
243,93,214129,2,0,L|295:86,1,52.5000020027161,2|0,0:0|0:0,0:0:0:0:
150,186,214351,2,0,P|143:132|141:115,1,52.5000020027161,4|0,0:0|0:0,0:0:0:0:
257,191,214573,2,0,P|253:217|250:243,1,52.5000020027161,2|0,0:0|0:0,0:0:0:0:
74,264,214796,2,0,P|70:237|67:211,1,52.5000020027161,8|0,0:1|0:0,0:0:0:0:
328,273,215018,2,0,P|325:299|322:326,1,52.5000020027161,2|0,0:0|0:0,0:0:0:0:
499,223,215240,6,0,P|456:182|329:193,1,157.500006008148,4|0,1:0|0:0,0:0:0:0:
270,172,215684,2,0,P|263:112|262:60,1,105.000004005432,8|2,0:1|0:0,0:0:0:0:
336,22,216018,1,0,0:0:0:0:
336,22,216129,2,0,L|472:36,1,105.000004005432,0|2,0:0|0:0,0:0:0:0:
511,121,216462,1,0,0:0:0:0:
511,121,216573,2,0,L|375:135,1,105.000004005432,8|0,0:1|0:0,0:0:0:0:
373,211,216907,1,0,0:0:0:0:
441,273,217018,6,0,L|458:342,1,52.5000020027161,6|0,0:0|0:0,0:0:0:0:
292,245,217240,1,0,0:0:0:0:
292,245,217351,1,0,0:0:0:0:
292,245,217462,2,0,L|275:314,1,52.5000020027161,8|0,0:1|0:0,0:0:0:0:
113,287,217684,1,0,0:0:0:0:
113,287,217795,1,0,0:0:0:0:
113,287,217906,2,0,L|130:356,1,52.5000020027161,6|0,0:0|0:0,0:0:0:0:
193,207,218129,1,0,0:0:0:0:
193,207,218240,1,0,0:0:0:0:
193,207,218351,2,0,P|161:195|117:181,1,52.5000020027161,8|0,0:1|0:0,0:0:0:0:
261,141,218573,2,0,P|293:129|337:115,1,52.5000020027161,8|0,0:1|0:0,0:0:0:0:
36,27,218796,6,0,L|24:145,1,90.9999958343508,4|2,1:0|0:0,0:0:0:0:
90,222,219129,1,0,0:0:0:0:
105,234,219240,2,0,L|93:116,1,90.9999958343508,8|0,0:1|0:0,0:0:0:0:
172,50,219573,1,0,0:0:0:0:
187,38,219684,2,0,L|175:156,1,90.9999958343508,2|0,0:0|0:0,0:0:0:0:
254,222,220018,1,0,0:0:0:0:
269,234,220129,2,0,L|257:116,1,90.9999958343508,8|0,0:1|0:0,0:0:0:0:
311,43,220462,1,0,0:0:0:0:
326,31,220573,5,4,0:0:0:0:
286,254,220796,2,0,L|292:180,1,45.4999979171754,2|0,0:0|0:0,0:0:0:0:
175,47,221018,2,0,L|170:111,1,45.4999979171754,8|0,0:1|0:0,0:0:0:0:
273,123,221240,2,0,L|247:85,1,45.4999979171754,2|0,0:0|0:0,0:0:0:0:
72,153,221462,2,0,B|224:174,1,136.499993751526,4|2,0:0|0:0,0:0:0:0:
70,279,221907,2,0,L|50:217,1,45.4999979171754,8|0,0:1|0:0,0:0:0:0:
176,280,222129,1,2,0:0:0:0:
247,317,222240,1,0,0:0:0:0:
326,300,222351,6,0,L|344:181,1,90.9999958343508,4|0,1:0|0:0,0:0:0:0:
230,55,222796,2,0,L|235:113,1,45.4999979171754,8|0,0:1|1:0,0:0:0:0:
150,204,223018,2,0,L|155:146,1,45.4999979171754,0|0,1:0|0:0,0:0:0:0:
252,244,223240,1,4,3:0:0:0:
246,265,223462,1,4,3:0:0:0:
90,294,223684,1,8,0:1:0:0:
72,217,223796,1,0,1:0:0:0:
86,141,223907,2,0,L|151:125,1,45.4999979171754,2|0,1:2|0:0,0:0:0:0:
432,241,224240,5,2,0:3:0:0:
423,255,224352,2,0,L|356:260,1,45.4999979171754,8|0,0:0|0:0,0:0:0:0:
338,189,224684,1,2,0:3:0:0:
314,205,224796,2,0,L|247:210,1,45.4999979171754,8|0,0:0|0:0,0:0:0:0:
181,127,225129,1,2,0:3:0:0:
113,159,225241,2,0,L|46:164,2,45.4999979171754,8|0|4,1:0|0:0|0:0,0:0:0:0:
302,293,225684,2,0,L|369:298,1,45.4999979171754,8|0,0:1|0:0,0:0:0:0:
181,102,225907,6,0,L|340:87,1,157.500006008148,4|0,1:0|0:0,0:0:0:0:
356,70,226351,2,0,L|366:168,1,70,8|0,0:0|0:0,0:0:0:0:
186,288,226796,2,0,L|27:273,1,157.500006008148,2|0,1:0|0:0,0:0:0:0:
11,256,227240,2,0,L|1:354,1,70,8|0,0:0|0:0,0:0:0:0:
62,384,227573,1,0,0:0:0:0:
62,384,227684,5,2,1:2:0:0:
90,193,227907,1,0,0:0:0:0:
234,228,228129,5,8,0:0:0:0:
206,37,228352,1,0,1:0:0:0:
234,228,228573,1,2,1:0:0:0:
273,85,228796,1,0,0:0:0:0:
90,193,229018,5,8,0:0:0:0:
418,115,229240,1,0,1:0:0:0:
351,328,229462,6,0,L|340:188,1,140,2|8,1:2|0:0,0:0:0:0:
478,50,230129,1,0,1:0:0:0:
478,50,230240,1,0,1:0:0:0:
478,50,230351,2,0,L|467:189,1,140,2|8,1:2|0:0,0:0:0:0:
488,342,231018,1,0,0:0:0:0:
234,228,231240,6,0,P|191:236|95:308,1,140,2|8,1:2|0:0,0:0:0:0:
226,366,231907,1,0,0:0:0:0:
300,144,232129,2,0,L|295:96,1,35,2|0,1:0|0:0,0:0:0:0:
388,133,232351,2,0,L|383:85,1,35,0|0,1:0|0:0,0:0:0:0:
375,20,232573,5,10,1:0:0:0:
76,62,232796,2,0,L|79:96,1,35,0|0,1:0|0:0,0:0:0:0:
90,175,233018,5,6,1:0:0:0:
109,299,233240,1,0,0:0:0:0:
159,326,233351,1,2,0:0:0:0:
219,343,233462,2,0,P|275:316|422:320,1,210.000008010865,8|2,0:0|0:0,0:0:0:0:
387,185,234129,1,0,0:0:0:0:
387,185,234240,2,0,P|358:134|283:53,1,157.500006008148,2|0,0:0|0:0,0:0:0:0:
292,60,234684,1,2,0:0:0:0:
91,116,234796,5,12,0:0:0:0:
258,275,235018,1,2,0:0:0:0:
258,275,235240,1,4,0:0:0:0:
216,80,235462,1,2,0:0:0:0:
258,275,235684,1,0,0:0:0:0:
364,104,235907,1,0,0:0:0:0:
364,104,236018,1,2,0:0:0:0:
189,199,236240,1,0,0:0:0:0:
189,199,236351,1,2,0:0:0:0:
189,199,236462,1,0,0:0:0:0:
174,53,236573,6,0,B|72:97|73:203|73:203|38:195|38:195|15:264|60:261|71:324,1,367.500014019013,10|0,0:0|0:0,0:0:0:0:
70,322,237462,1,4,0:0:0:0:
248,122,237907,6,2,P|341:88|424:89,1,157.500006008148
398,85,238351,1,10,0:0:0:0:
103,35,238684,1,10,0:0:0:0:
192,321,239018,1,0,0:0:0:0:
192,321,239240,2,0,P|313:342|408:331,2,210.000008010865,4|4|0,0:0|0:0|0:0,0:0:0:0:
256,192,240351,12,0,241351,0:0:0:0:
289,310,241462,5,8,0:0:0:0:
289,310,241573,2,2,P|341:332|422:316,1,105.000004005432,6|2,0:0|0:0,0:0:0:0:
366,232,241907,6,0,L|310:189,1,70,6|0,1:2|0:0,0:0:0:0:
422,274,242351,1,2,0:0:0:0:
310,190,242573,1,0,0:0:0:0:
478,317,242796,1,2,0:0:0:0:
310,190,243018,1,0,0:0:0:0:
276,164,243129,2,0,L|220:121,1,70,2|0,0:0|0:0,0:0:0:0:
164,78,243462,2,0,L|136:56,1,35,2|0,0:0|0:0,0:0:0:0:
67,219,243684,5,2,0:0:0:0:
150,206,243907,1,0,0:0:0:0:
108,212,244018,1,0,0:0:0:0:
67,219,244129,1,2,0:0:0:0:
274,186,244351,1,2,0:0:0:0:
481,153,244573,2,0,L|411:163,1,70,2|0,0:0|0:0,0:0:0:0:
343,176,244907,2,0,L|273:186,1,70,2|0,0:0|0:0,0:0:0:0:
205,199,245240,2,0,L|170:204,1,35,2|0,0:0|0:0,0:0:0:0:
265,262,245462,6,0,L|258:325,1,62.9999980773926,6|0,0:0|0:0,0:0:0:0:
274,186,245907,2,0,L|278:151,1,35,2|0,0:0|0:0,0:0:0:0:
295,5,246129,2,0,L|287:74,1,70,6|0,0:0|0:0,0:0:0:0:
258,325,246573,2,0,L|266:256,1,70,6|0,0:0|0:0,0:0:0:0:
113,104,247018,6,0,L|122:159,1,56,6|0,0:0|0:0,0:0:0:0:
97,9,247684,1,6,0:0:0:0:
158,378,247907,1,2,0:0:0:0:
152,336,248018,1,0,0:0:0:0:
144,294,248129,1,6,0:0:0:0:
129,199,248351,1,6,0:0:0:0:
97,9,248573,1,6,0:0:0:0:
113,104,248796,1,6,0:0:0:0:
153,118,248907,6,0,P|219:134|313:96,1,171.499994766236,6|0,0:0|0:0,0:0:0:0:
408,48,249907,2,0,P|399:96|404:150,1,97.9999970092774,2|0,0:0|0:0,0:0:0:0:
467,277,250573,6,0,P|408:262|315:294,1,146.999995513916,2|0,0:0|0:0,0:0:0:0:
232,338,251462,2,0,P|173:353|101:320,1,125.999996154785,2|2,0:0|0:0,0:0:0:0:
114,331,252573,6,0,B|176:250|56:171|125:93,1,251.999992309571,2|0,0:0|0:0,0:0:0:0:
187,23,253684,5,2,0:0:0:0:
5,118,253907,1,0,0:0:0:0:
217,139,254129,1,2,0:0:0:0:
217,139,254240,2,0,P|345:151|488:153,1,269.499991775513
431,245,255684,1,2,0:0:0:0:
416,250,255796,1,0,0:0:0:0:
402,260,255907,2,0,L|361:265,1,24.4999992523194
295,303,256129,5,4,0:0:0:0:
295,303,256573,2,0,P|245:289|219:290,1,45.4999979171754,2|0,0:0|0:0,0:0:0:0:
177,342,256796,2,0,P|155:351|133:356,1,45.4999979171754,2|0,0:0|0:0,0:0:0:0:
55,309,257018,2,0,L|46:218,1,90.9999958343508,2|0,0:0|0:0,0:0:0:0:
139,94,257351,2,0,L|131:185,1,90.9999958343508,2|0,0:0|0:0,0:0:0:0:
31,57,257684,1,0,0:0:0:0:
58,39,257795,1,0,0:0:0:0:
93,29,257907,5,0,0:0:0:0:
93,29,258129,1,0,0:0:0:0:
93,29,258351,2,0,L|151:36,1,45.4999979171754,2|0,0:0|0:0,0:0:0:0:
197,103,258573,2,0,L|255:96,1,45.4999979171754,2|0,0:0|0:0,0:0:0:0:
310,157,258796,6,0,P|293:183|287:212,1,60.6666638895672,2|0,0:0|0:0,0:0:0:0:
435,194,259092,2,0,P|422:167|399:146,1,60.6666638895672,2|0,0:0|0:0,0:0:0:0:
341,285,259388,2,0,P|371:286|400:277,1,60.6666638895672,2|0,0:0|0:0,0:0:0:0:
281,354,259684,6,0,L|145:339,1,136.499993751526,6|0,0:0|0:0,0:0:0:0:
101,259,260129,1,2,0:0:0:0:
225,126,260351,2,0,L|214:216,1,90.9999958343508,2|0,0:0|0:0,0:0:0:0:
115,163,260684,1,0,0:0:0:0:
94,138,260796,2,0,L|83:47,1,90.9999958343508,2|0,0:0|0:0,0:0:0:0:
110,30,261129,1,0,0:0:0:0:
147,27,261240,1,2,0:0:0:0:
147,27,261462,1,0,0:0:0:0:
147,27,261684,6,0,L|237:38,1,90.9999958343508
379,102,262018,2,0,L|289:114,1,90.9999958343508
223,177,262351,6,0,P|211:235|217:290,1,90.9999958343508,2|0,0:0|0:0,0:0:0:0:
55,359,262796,2,0,P|65:314|65:269,1,90.9999958343508,2|0,0:0|0:0,0:0:0:0:
14,94,263240,6,0,B|43:60|126:72|111:100|100:125|184:152|220:98,1,210.000008010865,2|0,0:0|0:0,0:0:0:0:
266,29,263907,2,0,P|292:87|431:40,1,210.000008010865,2|0,0:0|0:0,0:0:0:0:
269,179,264573,1,2,0:0:0:0:
422,191,264796,6,0,P|464:228|434:353,1,157.500006008148,2|0,0:0|0:0,0:0:0:0:
445,346,265240,2,0,P|384:370|327:336,1,105.000004005432,2|0,0:3|0:0,0:0:0:0:
285,308,265573,2,0,P|229:298|176:338,1,105.000004005432,2|0,0:3|0:0,0:0:0:0:
71,368,265907,6,0,B|61:312|61:312|75:279|75:279|57:179,1,157.500006008148,2|0,0:0|0:0,0:0:0:0:
57,192,266351,2,0,B|77:156|49:119|49:119|58:105|58:105|41:67|74:25,1,157.500006008148,2|0,0:0|0:0,0:0:0:0:
171,35,266796,6,0,B|166:64|146:73|146:73|196:124|100:171|236:155|197:252,1,210.000008010865,2|2,0:0|0:0,0:0:0:0:
192,331,267462,6,0,B|213:299|290:278|257:370|368:307,1,157.500006008148,2|0,0:0|0:0,0:0:0:0:
492,301,267907,2,0,P|437:298|407:247,1,105.000004005432,2|0,0:0|0:0,0:0:0:0:
353,74,268351,6,0,B|378:13|479:26|499:140|423:165|368:181|421:287,1,315.000012016297,2|0,0:0|0:0,0:0:0:0:
192,129,269240,1,2,0:0:0:0:
270,149,269351,1,2,0:0:0:0:
306,221,269462,2,0,P|312:283|271:333,1,105.000004005432,2|2,0:0|0:0,0:0:0:0:
36,233,269907,2,0,P|41:176|81:128,1,105.000004005432,2|2,0:0|0:0,0:0:0:0:
324,80,270351,5,2,0:0:0:0:
256,192,270462,12,2,273684,0:0:0:0:
177,190,283684,5,8,0:0:0:0:
161,189,283907,1,4,0:1:0:0:
306,143,284129,1,8,0:0:0:0:
421,229,284351,5,0,0:0:0:0:
421,229,284462,1,0,0:0:0:0:
421,229,284573,1,6,1:0:0:0:
421,229,284796,6,0,P|392:233|315:250,1,90,2|0,0:1|0:0,0:0:0:0:
296,262,285129,2,2,P|252:252|208:246,1,90,2|0,0:1|0:0,0:3:0:0:
9,317,285573,5,0,0:0:0:0:
9,317,285684,2,0,P|38:321|115:338,1,90,2|0,0:1|0:0,0:0:0:0:
133,350,286017,2,0,P|176:340|197:336,1,45,2|0,0:0|0:0,0:0:0:0:
296,262,286240,2,0,P|283:189|276:164,1,90,2|0,0:1|0:0,0:0:0:0:
307,163,286573,2,0,P|311:132|318:103,1,45,2|0,0:0|0:0,0:0:0:0:
450,27,286907,2,2,P|460:70|467:115,1,90,2|0,0:0|0:0,0:3:0:0:
486,280,287351,5,0,0:0:0:0:
486,280,287462,2,0,P|424:272|375:268,1,90,2|0,0:1|0:0,0:0:0:0:
359,290,287796,1,2,0:1:0:0:
235,362,288018,1,2,0:0:0:0:
125,284,288240,1,0,0:0:0:0:
125,284,288351,2,0,P|125:234|130:193,1,90,2|0,0:1|0:0,0:0:0:0:
153,173,288684,2,2,P|153:128|148:83,1,90,2|0,0:1|0:0,0:1:0:0:
369,220,289129,5,0,0:0:0:0:
369,220,289240,2,0,P|311:222|275:220,1,90,2|0,0:1|0:0,0:0:0:0:
270,256,289573,2,0,P|227:249|197:248,1,45,2|0,0:0|0:0,0:0:0:0:
311,356,289796,2,0,P|369:354|405:356,1,90,2|0,0:1|0:0,0:0:0:0:
410,320,290129,2,0,P|453:327|483:328,1,45,2|0,0:0|0:0,0:0:0:0:
506,226,290462,2,2,P|507:160|501:119,1,90,2|0,0:0|0:0,0:3:0:0:
352,28,290796,5,2,0:0:0:0:
377,112,290907,1,0,0:0:0:0:
401,197,291018,1,2,0:1:0:0:
272,118,291129,5,2,0:0:0:0:
276,96,291240,1,2,0:1:0:0:
197,169,291351,5,2,0:0:0:0:
173,157,291462,1,0,0:0:0:0:
147,164,291573,1,0,0:0:0:0:
79,198,291684,6,0,L|86:286,1,52.5000020027161,4|0,0:0|0:0,0:0:0:0:
40,358,291907,2,0,L|167:349,1,105.000004005432,2|0,0:0|0:0,0:0:0:0:
333,284,292240,2,0,L|206:293,1,105.000004005432,2|0,0:0|0:0,0:0:0:0:
396,204,292573,1,0,0:0:0:0:
422,185,292684,1,0,0:0:0:0:
447,168,292796,2,0,B|466:220|466:220|449:294,1,105.000004005432,2|0,0:0|0:0,0:0:0:0:
277,193,293129,6,0,L|270:105,1,52.5000020027161,2|0,0:0|0:0,0:0:0:0:
371,10,293351,2,0,L|378:98,1,52.5000020027161,2|0,0:0|0:0,0:0:0:0:
185,199,293573,5,0,0:0:0:0:
145,213,293684,1,2,0:0:0:0:
102,212,293796,1,0,0:0:0:0:
61,201,293907,1,0,0:0:0:0:
28,175,294018,6,0,L|21:87,1,52.5000020027161,2|0,0:0|0:0,0:0:0:0:
128,306,294240,1,0,0:0:0:0:
128,306,294351,2,0,L|135:376,1,52.5000020027161
277,180,294573,2,0,B|288:131|288:131|269:79,1,105.000004005432,2|0,0:0|0:0,0:0:0:0:
53,26,294907,5,2,0:0:0:0:
465,201,295129,1,2,0:0:0:0:
236,322,295351,5,0,0:0:0:0:
283,267,295462,2,0,L|292:385,1,105.000004005432,2|0,0:0|0:0,0:0:0:0:
90,251,295796,2,0,B|71:199|71:199|82:150,1,105.000004005432,2|0,0:0|0:0,0:0:0:0:
210,39,296129,1,0,0:0:0:0:
277,61,296240,1,0,0:0:0:0:
343,85,296351,2,0,L|417:80,1,52.5000020027161,2|0,0:0|0:0,0:0:0:0:
275,169,296573,5,0,0:0:0:0:
218,211,296684,2,0,L|144:216,1,52.5000020027161,2|0,0:0|0:0,0:0:0:0:
410,298,296907,2,0,L|484:293,1,52.5000020027161,2|0,0:0|0:0,0:0:0:0:
266,301,297129,5,0,0:0:0:0:
209,342,297240,2,0,L|135:347,1,52.5000020027161,2|0,0:0|0:0,0:0:0:0:
275,169,297462,5,0,0:0:0:0:
329,124,297573,2,0,L|451:118,1,105.000004005432,2|0,0:0|0:0,0:0:0:0:
153,248,297907,5,0,0:0:0:0:
80,254,298018,1,4,0:0:0:0:
37,193,298129,1,0,0:0:0:0:
69,126,298240,1,4,0:0:0:0:
141,120,298351,1,0,0:0:0:0:
184,181,298462,1,4,0:0:0:0:
123,366,298684,5,2,0:0:0:0:
221,44,298907,6,0,L|259:38,1,35,2|2,0:0|0:1,0:0:0:0:
376,120,299129,1,0,0:0:0:0:
336,132,299240,2,0,L|300:141,1,35,2|2,0:0|0:1,0:0:0:0:
468,100,299462,5,0,0:0:0:0:
460,140,299573,1,0,0:0:0:0:
452,180,299684,1,0,0:0:0:0:
436,264,299796,6,0,L|428:304,1,35,2|2,0:0|0:1,0:0:0:0:
316,356,300018,1,0,0:0:0:0:
324,316,300129,2,0,L|332:276,1,35,2|2,0:0|0:1,0:0:0:0:
208,372,300351,1,0,0:0:0:0:
232,264,300462,2,0,L|240:224,1,35,2|0,0:1|0:0,0:0:0:0:
160,128,300684,6,0,L|152:168,1,35,2|2,0:0|0:1,0:0:0:0:
40,280,300907,1,0,0:0:0:0:
48,240,301018,2,0,L|56:200,1,35,2|2,0:0|0:1,0:0:0:0:
120,300,301240,1,0,0:0:0:0:
160,308,301351,1,0,0:0:0:0:
200,316,301462,1,0,0:0:0:0:
296,264,301573,6,0,L|336:260,1,35,2|2,0:0|0:1,0:0:0:0:
436,168,301796,1,0,0:0:0:0:
396,172,301907,1,2,0:0:0:0:
356,176,302018,6,0,P|296:152|344:100,1,157.500006008148,6|0,0:1|0:0,0:0:0:0:
422,244,302240,2,0,P|482:220|434:168,1,157.500006008148,2|0,0:1|0:0,0:0:0:0:
330,260,302462,6,0,L|296:264,1,35,2|2,0:0|0:1,0:0:0:0:
168,352,302684,1,0,0:0:0:0:
212,348,302796,2,0,L|246:344,1,35,2|2,0:0|0:1,0:0:0:0:
152,264,303018,5,0,0:0:0:0:
144,224,303129,1,0,0:0:0:0:
136,184,303240,1,0,0:0:0:0:
120,88,303351,6,0,L|124:52,1,35,2|2,0:0|0:1,0:0:0:0:
200,132,303573,1,0,0:0:0:0:
208,36,303684,2,0,L|212:0,1,35,2|2,0:0|0:1,0:0:0:0:
288,92,303907,6,0,L|284:132,1,35,0|2,0:0|0:1,0:0:0:0:
432,280,304129,1,0,0:0:0:0:
363,206,304240,2,0,L|366:165,1,35,2|2,0:0|0:1,0:0:0:0:
260,348,304462,1,0,0:0:0:0:
265,305,304573,1,2,0:0:0:0:
269,265,304684,2,0,L|274:215,2,35,2|0|0,0:1|0:0|0:0,0:0:0:0:
368,316,305018,5,2,0:0:0:0:
410,294,305129,1,2,0:1:0:0:
444,260,305240,1,0,0:0:0:0:
465,217,305351,1,2,0:1:0:0:
471,169,305462,1,0,0:0:0:0:
462,122,305573,1,2,0:1:0:0:
438,80,305684,1,0,0:0:0:0:
402,49,305795,1,2,0:1:0:0:
358,30,305906,5,0,0:0:0:0:
358,30,306018,1,0,0:0:0:0:
358,30,306129,2,0,P|354:56|360:85,1,56,2|0,0:0|0:0,0:0:0:0:
481,78,306462,2,0,P|460:61|432:52,1,56,2|0,0:0|0:0,0:0:0:0:
385,157,306796,2,0,P|398:152|409:145,1,28,2|0,0:0|0:0,0:0:0:0:
264,113,307018,6,0,L|208:109,1,56,2|0,0:0|0:0,0:0:0:0:
172,191,307351,2,0,L|227:194,1,56,0|2,0:0|0:0,0:0:0:0:
78,143,307684,5,0,0:0:0:0:
83,177,307795,1,0,0:0:0:0:
90,212,307907,6,0,L|98:267,1,56,2|0,0:0|0:0,0:0:0:0:
180,246,308240,6,0,L|171:190,1,56,2|0,0:0|0:0,0:0:0:0:
154,323,308573,2,0,P|167:327|181:328,1,28
325,289,308796,6,0,B|307:278|307:278|258:281,1,70,2|0,0:0|0:0,0:0:0:0:
97,244,309129,6,0,B|109:250|109:250|179:245,1,83.9999974365235,2|2,0:0|0:0,0:0:0:0:
265,92,309462,5,0,0:0:0:0:
259,136,309573,1,0,0:0:0:0:
253,183,309684,2,0,L|257:280,1,97.9999970092774,2|0,0:0|0:0,0:0:0:0:
432,337,310018,6,0,P|383:319|335:338,1,105.000004005432,2|0,0:0|0:0,0:0:0:0:
181,275,310351,5,0,0:0:0:0:
148,292,310462,1,0,0:0:0:0:
110,312,310573,2,0,P|62:330|13:313,1,105.000004005432,2|0,0:0|0:0,0:0:0:0:
8,156,310907,2,0,P|58:136|110:153,1,112,2|2,0:0|0:0,0:0:0:0:
256,192,311240,12,2,312684,0:0:0:0:
16,192,313018,6,0,L|160:192,1,135.800003211823,4|0,1:0|0:0,0:0:0:0:
232,192,313684,1,0,0:0:0:0:
312,192,313907,1,2,0:0:0:0:
392,192,314129,1,0,0:0:0:0:
472,192,314351,1,2,0:0:0:0:
472,112,314573,1,0,0:0:0:0:
392,112,314796,2,0,L|256:112,1,135.800003211823,0|0,1:0|0:0,0:0:0:0:
176,112,315462,2,0,B|104:80|40:112,1,135.800003211823,4|0,0:0|0:0,0:0:0:0:
32,192,316129,2,0,B|64:208|110:191,1,67.9000016059113,2|0,0:0|0:0,0:0:0:0:
176,192,316573,5,4,1:0:0:0:
256,192,316796,1,0,0:0:0:0:
256,192,316907,1,8,0:0:0:0:
256,272,317129,1,8,0:0:0:0:
176,272,317351,1,0,0:0:0:0:
176,272,317462,1,0,0:0:0:0:
96,272,317684,1,0,0:0:0:0:
96,272,317796,1,8,0:0:0:0:
16,272,318018,1,8,0:0:0:0:
16,232,318129,1,0,0:0:0:0:
16,192,318240,1,0,0:0:0:0:
16,152,318351,1,0,1:0:0:0:
16,72,318573,5,0,0:0:0:0:
16,72,318684,1,8,0:0:0:0:
96,72,318907,1,8,0:0:0:0:
136,72,319018,1,0,0:0:0:0:
176,72,319129,1,0,0:0:0:0:
216,72,319240,1,0,0:0:0:0:
256,72,319351,1,0,0:0:0:0:
296,72,319462,1,2,0:1:0:0:
336,72,319573,1,8,0:0:0:0:
336,112,319684,1,2,0:1:0:0:
336,152,319796,1,8,0:0:0:0:
336,192,319907,1,2,0:1:0:0:
336,232,320018,1,8,0:0:0:0:
336,272,320129,6,0,P|278:261|244:260,1,70,2|0,0:0|0:0,0:0:0:0:
156,288,320573,1,8,0:0:0:0:
146,312,320684,1,0,0:0:0:0:
139,339,320796,1,2,0:3:0:0:
4,184,321018,2,0,P|42:201|97:211,1,70,2|0,0:0|0:0,0:0:0:0:
190,164,321462,1,8,0:0:0:0:
194,141,321573,1,0,0:0:0:0:
196,118,321684,1,2,0:3:0:0:
197,95,321796,1,0,0:0:0:0:
193,73,321907,6,0,P|183:52|169:31,2,35,2|0|0,0:0|0:0|0:0,0:0:0:0:
81,86,322351,1,8,0:0:0:0:
62,70,322462,1,0,0:0:0:0:
35,57,322573,1,2,0:3:0:0:
88,210,322796,6,0,P|102:255|105:272,1,35,2|0,0:0|0:0,0:0:0:0:
178,263,323018,2,0,P|173:292|158:320,1,35,2|0,0:0|0:0,0:0:0:0:
176,179,323240,2,0,P|186:159|206:139,1,35,2|0,0:0|0:0,0:0:0:0:
255,218,323462,2,0,P|273:202|305:187,1,35,2|0,0:0|0:0,0:0:0:0:
274,316,323684,6,0,P|327:334|370:339,1,70,2|0,0:0|0:0,0:0:0:0:
470,314,324129,1,8,0:0:0:0:
451,298,324240,1,0,0:0:0:0:
424,285,324351,1,2,0:3:0:0:
403,175,324573,6,0,P|425:169|456:165,2,35,2|0|0,0:0|0:0|0:0,0:0:0:0:
325,136,324907,2,0,P|346:110|369:94,2,35,0|0|0,1:0|0:0|0:0,0:0:0:0:
237,148,325240,2,0,P|241:121|256:87,1,35,2|0,0:3|0:0,0:0:0:0:
232,250,325462,6,0,P|254:256|285:260,2,35,2|0|0,0:0|0:0|0:0,0:0:0:0:
154,289,325796,2,0,P|175:315|198:331,2,35,0|0|0,1:0|0:0|0:0,0:0:0:0:
66,277,326129,2,0,P|70:304|85:338,1,35,2|0,0:3|0:0,0:0:0:0:
95,165,326351,5,0,1:0:0:0:
96,138,326462,1,0,1:0:0:0:
110,105,326573,1,2,0:3:0:0:
139,76,326685,1,2,0:3:0:0:
89,56,326796,5,0,1:0:0:0:
132,99,326907,1,0,1:0:0:0:
160,151,327018,1,0,1:0:0:0:
167,217,327129,1,0,1:0:0:0:
152,284,327240,6,0,P|230:277|329:270,1,157.500006008148,6|0,1:2|0:0,0:0:0:0:
417,192,328129,2,0,P|390:191|360:189,1,52.5000020027161,2|0,3:2|0:0,0:0:0:0:
270,133,328573,2,0,P|371:140|431:51,1,210.000008010865,2|0,3:2|3:0,0:0:0:0:
421,215,329684,6,0,P|419:255|417:306,1,78.7500030040742,2|0,0:0|0:3,0:0:0:0:
416,322,330129,1,0,0:0:0:0:
322,290,330351,1,2,3:2:0:0:
243,351,330573,1,0,0:0:0:0:
146,268,330796,6,0,P|48:277|-7:187,1,210.000008010865,2|0,3:2|3:2,0:0:0:0:
242,175,332129,1,0,3:2:0:0:
246,277,332351,1,2,0:0:0:0:
208,380,332573,6,0,B|255:366|255:366|283:368|310:369,1,105.000004005432,2|0,3:2|3:2,0:0:0:0:
428,314,333240,1,0,0:0:0:0:
429,322,333351,1,0,0:0:0:0:
430,331,333462,6,0,P|432:363|436:399,1,52.5000020027161,2|0,3:2|0:0,0:0:0:0:
325,255,333907,2,0,P|323:287|321:341,1,62.9999980773926,2|0,3:2|0:0,0:0:0:0:
415,169,334351,6,0,P|421:125|402:82,1,77.0000023498536,4|0,0:2|0:0,0:0:0:0:
202,61,334796,1,0,0:0:0:0:
247,88,334907,2,0,L|335:94,1,77.0000023498536,2|0,0:0|0:0,0:0:0:0:
339,136,335240,1,2,2:2:0:0:
124,28,335462,1,2,0:0:0:0:
195,283,335684,1,0,0:0:0:0:
230,243,335796,2,0,L|222:181,1,38.5000011749268,2|0,0:0|0:0,0:0:0:0:
256,171,336018,1,0,0:0:0:0:
256,171,336129,5,4,0:0:0:0:
55,97,336351,2,0,L|44:200,1,77.0000023498536,2|0,0:0|0:0,0:0:0:0:
121,307,336796,2,0,P|121:283|108:252,1,38.5000011749268,2|0,0:0|0:0,0:0:0:0:
183,356,337018,2,0,L|262:351,1,77.0000023498536,8|0,0:0|0:0,0:0:0:0:
437,298,337462,2,0,P|400:282|352:290,1,77.0000023498536,8|0,0:0|0:0,0:0:0:0:
499,361,337907,5,4,0:0:0:0:
345,193,338129,1,0,0:0:0:0:
499,361,338351,1,2,0:0:0:0:
473,322,338462,2,0,L|483:240,1,77.0000023498536,2|0,0:0|0:0,0:0:0:0:
457,206,338796,1,2,0:0:0:0:
221,62,339018,6,0,L|228:118,1,38.5000011749268,2|0,0:0|0:0,0:0:0:0:
271,166,339240,1,2,0:0:0:0:
271,166,339351,2,0,L|257:261,1,77.0000023498536,2|0,0:0|0:0,0:0:0:0:
203,298,339684,2,0,L|162:303,3,38.5000011749268,4|0|0|0,0:0|0:0|0:0|0:0,0:0:0:0:
96,257,340129,2,0,L|50:253,1,38.5000011749268
186,166,340351,6,0,P|187:198|175:223,1,45.4999979171754,2|0,0:3|0:0,0:0:0:0:
83,102,340573,2,0,L|134:110,1,45.4999979171754,4|0,0:0|0:0,0:0:0:0:
220,36,340796,2,0,L|200:96,1,45.4999979171754,2|0,0:3|0:0,0:0:0:0:
303,146,341018,2,0,P|285:135|235:135,1,45.4999979171754,4|0,0:0|0:0,0:0:0:0:
356,260,341240,2,0,L|348:203,1,45.4999979171754,2|0,0:3|0:0,0:0:0:0:
427,109,341462,5,4,0:1:0:0:
256,192,341573,12,0,344462,0:0:0:0:
203,344,345018,6,0,L|198:294,1,49,4|0,0:0|0:0,0:0:0:0:
185,284,345907,6,0,L|194:375,6,70,2|0|2|0|2|0|2,0:0|0:0|0:0|0:0|0:0|0:0|0:0,0:0:0:0:
123,220,346351,6,2,P|122:184|140:133,1,70,2|0,0:0|0:0,1:0:0:0:
275,311,346573,1,0,1:0:0:0:
203,115,346796,6,0,L|207:174,1,35.0000013351441,0|0,3:0|0:0,0:0:0:0:
308,122,346944,2,0,L|312:181,1,35.0000013351441,0|0,3:0|0:0,0:0:0:0:
413,129,347092,2,0,L|417:188,1,35.0000013351441,0|0,3:0|0:0,0:0:0:0:
483,62,347240,6,0,L|485:39,1,23.3333333333333,4|0,1:0|0:0,0:0:0:0:
475,78,347684,6,0,P|393:14|492:162,1,735.000028038026,4|0,0:0|0:0,0:0:0:0:
482,198,348573,6,2,P|219:149|476:77,1,735.000028038026,0|0,1:0|0:0,0:1:0:0:
417,133,349462,6,0,L|350:123,6,52.5000020027161,2|0|2|0|2|0|2,0:0|0:0|0:0|0:0|0:0|0:0|0:0,0:0:0:0:
489,189,349907,6,0,P|486:224|472:243,1,52.5000020027161,4|0,0:0|0:0,0:0:0:0:
411,359,350129,1,0,1:0:0:0:
264,239,350351,6,0,L|231:242,1,26.2500010013581,0|0,3:0|0:0,0:0:0:0:
244,263,350462,2,0,L|211:266,1,26.2500010013581,0|0,3:0|0:0,0:0:0:0:
141,278,350573,2,0,L|108:281,1,26.2500010013581,0|0,3:0|0:0,0:0:0:0:
121,302,350684,2,0,L|88:305,1,26.2500010013581,0|0,3:0|0:0,0:0:0:0:
35,90,350796,6,0,P|174:76|246:201,1,262.5,0|0,1:0|0:0,0:0:0:0:
108,208,351240,6,2,P|274:29|506:167,1,525,4|0,0:0|0:0,1:0:0:0:
360,257,352129,6,0,B|367:318|367:318|373:319|373:319|382:381,1,122.5,6|0,0:2|0:0,0:0:0:0:
492,379,353018,6,0,B|427:390|401:345|401:345|402:289|360:258|360:258|301:359|173:336,1,420,8|0,1:2|0:0,0:0:0:0:
37,79,353907,2,0,L|41:44,1,23.3333333333333,2|0,0:0|0:0,0:0:0:0:
120,73,354055,2,0,L|124:38,1,23.3333333333333,2|0,0:0|0:0,0:0:0:0:
203,67,354203,2,0,L|207:32,1,23.3333333333333,2|0,0:0|0:0,0:0:0:0:
36,78,354351,6,0,P|108:106|144:174,1,157.500006008148,2|0,1:3|0:0,0:0:0:0:
53,331,354796,6,0,P|64:234|151:375,1,420,8|0,1:0|0:0,0:0:0:0:
131,292,355684,6,0,B|227:283|227:283|214:290|214:290|339:278,1,210,0|0,1:0|0:0,0:0:0:0:
385,357,356129,6,0,L|409:206,1,140,2|0,0:0|0:0,0:0:0:0:
466,372,356351,2,0,L|490:221,1,140,2|0,0:0|0:0,0:0:0:0:
504,108,356573,6,0,B|457:113|457:113|451:111|451:111|409:137|409:137|389:119|389:119|292:132,1,210,8|0,0:0|0:0,0:0:0:0:
226,138,357018,5,2,1:0:0:0:
220,165,357129,1,2,0:0:0:0:
172,73,357240,1,2,1:0:0:0:
178,46,357351,1,2,0:0:0:0:
87,65,357462,2,0,B|81:93|81:93|71:52,1,70,2|0,1:0|0:0,0:0:0:0:
130,318,357684,2,0,L|141:368,2,46.6666666666667
52,331,357907,6,0,P|63:234|150:375,1,420,2|0,1:0|0:0,0:0:0:0:
374,220,358351,2,0,L|234:233,1,140,8|0,1:0|0:0,0:0:0:0:
512,373,358573,2,0,L|372:359,1,140,0|0,1:0|0:0,0:0:0:0:
512,48,358796,6,0,B|464:34|419:75|419:75|375:115|319:95,1,210,8|0,1:0|0:0,0:0:0:0:
245,35,359240,6,0,B|199:21|175:64|175:64|266:33|322:33|329:75|416:50|472:1|472:1|376:-6|318:64|318:64|322:72|322:72|376:103|350:189,1,685.999979064942,6|0,0:0|0:0,0:0:0:0:
511,250,360129,6,0,B|389:274|389:274|403:260|403:260|243:288,1,297.500005674362,8|0,0:1|0:0,0:0:0:0:
252,287,360462,1,0,1:0:0:0:
252,287,360518,1,0,1:0:0:0:
251,286,360573,2,0,B|203:375|203:375|225:297,1,178.500003404617,2|0,1:0|0:0,0:0:0:0:
120,248,360796,6,2,B|149:270|186:232|162:227|198:171|302:207,1,140,2|2,0:1|0:1,0:1:0:0:
66,313,361018,6,0,B|10:256|59:240|41:176|-58:186|34:262,2,186.666666666667,2|2|2,0:0|0:0|0:0,0:0:0:0:
201,94,361462,6,0,B|231:17|363:-56|419:114|346:136|296:100,1,293.999991027832,8|0,3:1|0:0,0:0:0:0:
498,65,361907,6,2,B|437:94|438:179|438:179|422:160|422:160|386:199|386:199|327:237|327:237|307:199|307:199|250:193|200:93|200:93|232:155|242:214,1,595.000011348725,14|0,0:1|0:1,0:1:0:0:
225,331,362573,2,0,L|258:266,1,59.5000011348725,2|0,0:0|0:0,0:0:0:0:
211,335,362684,2,0,L|244:270,1,59.5000011348725,2|0,0:0|0:0,0:0:0:0:
193,338,362796,6,0,B|102:320|-6:368|-6:368|163:185|74:131|74:131|51:132|51:132|42:10|178:-13,1,685.999979064942,4|0,3:2|3:2,0:0:0:0:
260,89,363684,6,0,B|236:113|236:113|293:85|411:84,1,178.500003404617,10|0,0:1|0:0,0:0:0:0:
393,81,363907,2,0,P|436:18|353:13,1,178.500003404617,2|0,0:1|0:0,0:0:0:0:
347,12,364129,5,2,0:0:0:0:
262,6,364240,5,2,0:0:0:0:
179,63,364351,5,2,0:0:0:0:
199,186,364462,5,2,0:0:0:0:
254,342,364573,6,2,P|254:355|260:334,5,79.3333348464966,2|2|2|2|2|2,0:1|0:1|0:1|0:1|0:1|0:1,0:1:0:0:
129,294,365018,6,0,B|414:254|199:342|368:402|452:357|447:276,1,357.000006809235,4|0,3:1|0:0,0:0:0:0:
490,158,365462,6,2,B|404:146|357:169|315:242|359:312|407:302|356:217|356:217|366:203|366:203|246:167|254:28|386:-63|438:-5|400:85|221:49,1,685.999979064942,14|0,0:1|0:1,0:1:0:0:
88,19,366351,6,0,P|52:31|27:61,1,56,4|0,1:0|0:0,0:0:0:0:
187,233,366573,2,0,P|164:202|128:187,1,56,2|0,0:1|0:0,0:0:0:0:
192,101,366796,2,0,P|155:89|117:99,7,56,0|0|0|0|0|0|0|0,1:1|0:0|0:0|0:0|0:0|0:0|0:0|0:0,0:0:0:0:
113,348,367240,6,0,P|118:292|98:257,1,87.5,2|0,1:3|0:0,0:0:0:0:
2,270,367462,6,2,B|69:355|188:275|150:193|150:193|199:215|256:194|278:141|278:141|256:194|212:317|406:365|445:227,1,700,0|0,0:0|0:0,0:1:0:0:
512,27,368129,6,0,L|507:63,1,23.3333333333333,4|0,1:0|0:0,0:0:0:0:
444,112,368277,2,0,L|437:70,1,30.3333319447836,0|0,1:0|0:0,0:0:0:0:
371,25,368425,2,0,L|363:66,1,37.3333333333333,0|0,1:0|0:0,0:0:0:0:
352,219,368573,5,4,0:3:0:0:
363,217,368684,1,0,0:0:0:0:
267,237,368796,5,4,0:3:0:0:
278,235,368907,1,0,0:0:0:0:
193,252,369018,6,0,L|66:275,1,112,2|0,1:3|0:0,0:0:0:0:
461,271,369240,1,4,0:3:0:0:
194,171,369462,2,0,L|110:160,1,78.7500030040742,2|0,0:1|0:0,0:0:0:0:
115,160,369907,6,0,B|53:197|53:197|17:64|125:-18|125:-18|272:27|282:166|256:211|256:211|293:175|293:175|177:284|260:381|260:381,1,840,4|0,1:0|0:0,0:0:0:0:
442,206,370351,2,0,P|403:124|327:77,1,181.999991668702,2|0,1:3|0:0,0:0:0:0:
344,329,370573,2,0,P|433:336|512:294,1,181.999991668702,2|0,1:3|0:0,0:0:0:0:
150,293,370796,6,0,P|151:347|178:390,2,83.9999974365235,0|0|4,1:0|0:0|0:3,0:0:0:0:
150,293,371240,6,0,P|89:307|62:294,1,83.9999974365235,0|2,1:0|0:0,0:0:0:0:
97,205,371462,2,0,P|64:152|68:122,1,83.9999974365235,0|2,0:0|0:0,0:0:0:0:
172,134,371684,5,8,0:3:0:0:
422,66,371832,1,4,0:3:0:0:
355,313,371981,1,8,1:3:0:0:
318,173,372129,5,0,1:0:0:0:
504,138,372277,1,8,0:3:0:0:
452,318,372425,1,8,0:3:0:0:
414,220,372573,6,0,L|419:129,1,70,4|2,1:2|0:0,0:0:0:0:
337,9,372796,2,0,L|332:100,1,70,4|2,1:2|0:0,0:0:0:0:
268,268,373018,6,0,P|311:306|361:315,1,105.000004005432,2|0,1:2|0:0,0:0:0:0:
230,39,373240,2,0,P|180:51|142:87,1,105.000004005432,2|0,1:2|0:0,0:0:0:0:
58,352,373462,5,8,0:2:0:0:
274,216,373907,2,0,L|352:205,1,48.9999985046387,8|0,0:0|0:0,0:0:0:0:
211,283,374129,2,0,L|141:270,1,48.9999985046387
323,331,374351,2,0,P|419:324|445:174,1,238.00000453949,10|8,0:0|0:0,0:0:0:0:
373,37,375018,1,8,0:0:0:0:
369,241,375240,5,10,0:0:0:0:
319,219,375351,1,2,0:1:0:0:
259,222,375462,1,2,0:0:0:0:
177,183,375573,1,2,0:1:0:0:
99,227,375684,1,10,0:0:0:0:
79,281,375796,2,0,P|38:214|62:121,1,178.500003404617,0|8,0:0|0:0,0:0:0:0:
293,149,376351,1,0,0:0:0:0:
106,322,376573,1,10,0:0:0:0:
152,287,376684,1,2,0:1:0:0:
208,296,376796,1,2,0:0:0:0:
329,336,376907,1,2,0:1:0:0:
384,337,377018,2,0,P|413:335|436:324,1,52.5,8|0,0:0|0:0,0:0:0:0:
408,114,377462,6,0,L|396:263,1,146.999995513916,8|0,0:0|0:0,0:0:0:0:
356,193,377796,1,2,0:0:0:0:
367,136,377907,1,10,0:0:0:0:
345,90,378018,1,2,0:0:0:0:
354,44,378129,1,2,0:0:0:0:
332,17,378240,1,2,0:0:0:0:
304,40,378351,2,0,P|401:66|455:20,1,146.999995513916,8|0,0:0|0:0,0:0:0:0:
219,130,378796,6,0,P|134:75|69:102,1,146.999995513916,8|0,0:0|0:0,0:0:0:0:
18,87,379129,1,2,0:1:0:0:
40,132,379240,1,10,0:0:0:0:
33,187,379351,1,2,0:1:0:0:
26,281,379462,1,2,0:0:0:0:
45,340,379573,1,2,0:1:0:0:
85,362,379684,2,0,P|116:275|55:149,1,220.499993270874,8|0,0:0|0:0,0:0:0:0:
140,205,380129,2,0,B|177:188|235:208|235:208|224:165|224:165|266:137|253:73,1,220.499993270874,8|0,0:0|0:0,0:0:0:0:
181,104,380573,5,4,1:0:0:0:
181,104,380796,1,4,0:3:0:0:
181,104,381018,2,0,P|148:113|115:164,1,87.5,4|4,0:3|0:3,0:0:0:0:
293,334,381462,5,4,0:3:0:0:
293,334,381684,1,4,0:3:0:0:
293,334,381907,2,0,P|243:306|225:254,1,78.7500030040742,4|4,0:3|0:3,0:0:0:0:
392,191,382351,5,4,0:3:0:0:
392,191,382573,1,4,0:3:0:0:
392,191,382796,2,0,P|325:208|305:231,1,70,4|4,0:3|0:3,0:0:0:0:
476,352,383240,5,4,0:3:0:0:
476,352,383462,1,4,0:3:0:0:
476,352,383684,2,0,P|419:336|400:315,1,61.2500005841255,4|4,0:3|0:3,0:0:0:0:
464,226,384129,5,4,0:3:0:0:
472,227,384240,1,4,0:3:0:0:
480,229,384351,2,4,P|491:241|497:258,1,35,4|4,0:3|0:3,0:3:0:0:
337,357,384573,5,4,0:3:0:0:
341,365,384684,1,4,0:3:0:0:
346,372,384796,2,4,P|381:385|408:374,1,43.75,4|4,0:3|0:3,0:3:0:0:
348,130,385018,5,4,0:3:0:0:
356,132,385129,1,4,0:3:0:0:
364,135,385240,2,4,P|408:178|411:202,1,52.5000020027161,4|4,0:3|0:3,0:3:0:0:
206,261,385462,5,4,0:3:0:0:
207,269,385573,1,4,0:3:0:0:
208,278,385684,2,4,P|247:321|276:327,1,61.2500005841255,4|4,0:3|0:3,0:3:0:0:
284,31,385907,5,4,0:3:0:0:
291,27,386018,1,4,0:3:0:0:
299,24,386129,2,4,P|361:28|392:49,1,70,4|4,0:3|0:3,0:3:0:0:
90,229,386351,5,4,0:3:0:0:
85,235,386462,1,4,0:3:0:0:
80,243,386573,2,4,P|82:301|109:334,1,78.7500030040742,4|4,0:3|0:3,0:3:0:0:
329,106,386796,6,4,P|356:140|365:183,1,87.5,4|4,0:3|0:3,0:3:0:0:
163,270,387018,2,4,P|202:304|253:317,1,105.000004005432,4|4,0:3|0:3,0:3:0:0:
231,9,387240,6,4,P|280:35|272:40,1,122.500001168251,4|4,0:3|0:3,0:3:0:0:
67,180,387462,2,4,P|32:224|89:228,1,140,4|4,0:3|0:3,0:3:0:0:
49,4,387684,5,0,1:0:0:0:
49,4,387907,1,4,0:3:0:0:
49,4,388240,6,0,L|141:18,1,87.5,2|0,1:3|0:0,0:0:0:0:
143,28,388573,6,2,B|34:10|34:10|48:47|19:77|19:77|154:100|154:100|128:127|142:168|142:168|-31:139,1,525,6|0,3:1|0:0,0:1:0:0:
3,156,388796,6,0,L|119:176,1,105,4|0,0:3|0:0,0:0:0:0:
115,186,389018,6,2,B|96:335|96:335|27:325|27:325|36:253|36:253|174:274|174:274|161:376,1,525,6|0,3:1|0:0,0:1:0:0:
175,360,389240,6,0,L|182:302,1,52.5,8|0,0:1|0:0,0:0:0:0:
190,300,389462,6,0,B|354:271|287:404|455:369,1,280,4|0,1:0|0:0,0:0:0:0:
400,270,389796,1,0,0:0:0:0:
138,363,389907,6,0,P|62:375|-20:387,1,140,8|0,0:1|0:0,0:0:0:0:
259,152,390129,2,0,P|327:164|422:181,1,140,2|0,0:0|0:0,0:0:0:0:
38,303,390351,6,0,P|11:123|-1:16,1,280,4|0,0:0|0:0,0:0:0:0:
259,152,390684,1,0,0:0:0:0:
124,89,390796,6,0,P|133:158|144:227,1,140,8|0,0:1|0:0,0:0:0:0:
396,46,391018,2,0,P|389:116|382:189,1,140,2|0,0:0|0:0,0:0:0:0:
138,363,391240,6,0,B|75:327|75:327|360:368,1,301.000004592896,4|0,1:0|0:0,0:0:0:0:
453,181,391573,1,2,0:0:0:0:
502,292,391684,2,0,P|408:294|346:227,1,150.500002296448,8|0,0:1|0:0,0:0:0:0:
363,76,391907,2,0,P|434:68|539:58,1,150.500002296448,2|0,0:0|0:0,0:0:0:0:
327,362,392129,6,0,B|221:352|221:352|157:383|157:383|95:338|95:338|-8:324,1,350,4|0,0:0|0:0,0:0:0:0:
95,144,392462,6,0,B|223:158|223:158|275:249|275:249|450:263,1,350,2|0,0:0|0:0,0:0:0:0:
165,252,392796,6,0,L|16:235,1,140,2|0,0:0|0:0,0:0:0:0:
464,368,393018,6,0,P|520:281|328:151,1,385.000003671646,4|0,1:0|0:0,0:0:0:0:
165,252,393351,1,0,0:0:0:0:
272,384,393462,6,0,P|362:375|500:365,1,192.500001835823,8|0,0:1|0:0,0:0:0:0:
105,331,393684,2,0,P|68:235|121:162,1,192.500001835823,2|0,0:0|0:0,0:0:0:0:
323,68,393907,6,0,P|275:248|121:94,1,420.000016021729,4|0,0:0|0:0,0:0:0:0:
175,8,394240,1,0,0:0:0:0:
244,97,394351,6,0,P|249:176|193:112,1,210.000008010865,8|0,0:1|0:0,0:0:0:0:
477,97,394573,2,0,P|482:18|426:82,1,210.000008010865,4|0,0:0|0:0,0:0:0:0:
5,291,394796,6,0,P|116:272|384:247,1,231.000002202988,2|0,0:0|0:0,0:0:0:0:
410,316,395018,2,0,B|443:336|467:378|467:378|442:335|425:214,1,231.000002202988,2|0,0:0|0:0,0:0:0:0:
467,24,395240,6,0,P|350:38|221:53,1,231.000002202988,8|0,0:1|0:0,0:0:0:0:
28,0,395462,5,2,0:0:0:0:
16,136,395573,1,0,0:0:0:0:
5,291,395684,6,0,P|116:272|384:247,1,231.000002202988,10|0,0:1|0:0,0:0:0:0:
467,24,395907,2,0,P|350:38|221:53,1,231.000002202988,2|0,0:1|0:0,0:0:0:0:
167,367,396129,5,12,0:1:0:0:
307,375,396240,1,0,0:0:0:0:
419,289,396351,1,2,0:0:0:0:
445,150,396462,1,0,0:0:0:0:
373,28,396573,6,0,P|321:27|282:60,1,105.000004005432,0|0,1:0|0:0,0:0:0:0:
206,109,396796,2,0,P|163:80|112:87,1,105.000004005432,2|2,0:0|0:0,0:0:0:0:
30,198,397018,1,0,1:0:0:0:
30,198,397129,2,0,B|15:223|19:253|19:253|54:186|138:164,1,210.000008010865,2|0,0:0|0:0,0:0:0:0:
216,119,397462,5,0,1:0:0:0:
266,341,397684,1,2,0:0:0:0:
340,76,397907,2,0,B|313:88|300:116|300:116|366:79|449:106,1,210.000008010865,2|2,1:2|0:0,0:0:0:0:
496,309,398240,1,2,0:0:0:0:
449,377,398351,6,0,P|399:385|358:355,1,105.000004005432,0|0,1:0|0:0,0:0:0:0:
448,106,398573,2,0,P|417:177|427:336,1,210.000008010865,2|0,0:0|1:0,0:0:0:0:
279,124,398907,1,2,0:0:0:0:
272,108,399018,6,0,B|260:71|260:71|318:119,1,105.000004005432,2|2,0:0|0:0,0:0:0:0:
503,169,399240,2,0,P|456:217|327:189,1,210.000008010865,0|2,1:2|0:0,0:0:0:0:
13,111,399684,2,0,P|78:125|171:31,1,210.000008010865,2|2,1:2|0:0,0:0:0:0:
244,197,400018,1,2,0:0:0:0:
246,32,400129,6,0,P|286:80|271:145,1,105.000004005432,0|0,1:0|0:0,0:0:0:0:
327,189,400351,2,0,P|386:207|409:270,1,105.000004005432,2|2,0:0|0:0,0:0:0:0:
493,357,400573,1,0,1:0:0:0:
493,357,400684,2,0,P|452:254|470:119,1,210.000008010865,2|0,0:0|0:0,0:0:0:0:
499,88,401018,5,0,1:0:0:0:
252,85,401240,2,0,P|248:29|334:9,1,105.000004005432,2|0,0:0|0:0,0:0:0:0:
512,0,401462,2,0,P|450:57|300:44,1,210.000008010865,2|2,1:2|0:0,0:0:0:0:
206,161,401796,1,2,0:0:0:0:
335,167,401907,6,0,P|297:158|324:188,1,105.000004005432,0|2,0:0|0:0,0:0:0:0:
64,32,402129,2,0,P|98:71|109:122,1,105.000004005432,2|2,0:0|0:0,0:0:0:0:
324,187,402351,6,0,P|291:189|320:205,1,87.5,0|2,0:0|0:0,0:0:0:0:
89,106,402573,2,0,P|103:146|97:190,1,87.5,2|2,0:0|0:0,0:0:0:0:
320,205,402796,6,0,P|295:214|322:220,1,70,0|2,0:0|0:0,0:0:0:0:
84,179,403018,2,0,P|83:213|66:244,1,70,2|2,0:0|0:0,0:0:0:0:
322,219,403240,6,0,P|306:231|327:229,1,52.5000020027161,0|2,0:0|0:0,0:0:0:0:
94,319,403462,6,2,P|101:355|106:324,1,105.000004005432,2|0,1:2|0:0,0:0:0:0:
371,354,403684,5,4,1:0:0:0:
448,370,403907,1,2,0:0:0:0:
422,295,404018,1,0,0:0:0:0:
345,333,404129,2,0,L|288:342,1,35,2|0,1:2|0:0,0:0:0:0:
295,114,404351,1,0,0:0:0:0:
347,169,404462,2,0,L|340:203,2,35,2|0|0,0:0|1:0|0:0,0:0:0:0:
130,49,404796,6,0,L|127:-10,1,35,2|0,0:0|0:0,0:0:0:0:
11,106,405018,1,0,1:0:0:0:
56,169,405129,2,0,L|94:186,1,35,2|0,0:0|0:0,0:0:0:0:
176,295,405351,1,0,0:0:0:0:
76,384,405462,5,2,1:2:0:0:
26,328,405573,1,0,0:0:0:0:
110,277,405684,2,0,L|160:277,1,35,2|0,0:0|0:0,0:0:0:0:
343,356,405907,1,0,1:0:0:0:
448,292,406018,2,0,L|500:282,1,35,2|0,0:0|0:0,0:0:0:0:
497,103,406240,1,0,0:0:0:0:
394,184,406351,1,2,1:2:0:0:
325,155,406462,1,0,0:0:0:0:
312,47,406573,2,0,L|341:27,1,35,2|0,0:0|0:0,0:0:0:0:
276,261,406796,1,0,1:0:0:0:
186,102,406907,2,0,L|188:67,2,35,2|0|0,0:0|0:0|0:0,0:0:0:0:
115,148,407240,6,0,P|120:175|120:208,1,35,6|0,1:2|0:0,0:0:0:0:
242,331,407462,2,0,L|257:275,1,35,2|0,0:0|0:0,0:0:0:0:
404,172,407684,1,0,1:0:0:0:
493,300,407796,2,0,L|497:334,2,35,2|0|0,0:0|0:0|0:0,0:0:0:0:
361,101,408129,1,2,1:2:0:0:
320,173,408240,1,0,0:0:0:0:
241,84,408351,2,0,L|253:51,1,35,2|0,0:0|0:0,0:0:0:0:
93,21,408573,2,0,L|111:57,1,35,2|0,1:2|0:0,0:0:0:0:
157,235,408796,5,2,0:0:0:0:
118,311,408907,2,0,L|110:361,2,35,2|0|0,0:0|1:0|0:0,0:0:0:0:
298,150,409240,2,0,L|290:86,2,35,2|0|0,0:0|0:0|1:0,0:0:0:0:
414,328,409573,2,0,L|448:337,1,35,2|0,0:0|0:0,0:0:0:0:
304,362,409796,1,0,0:0:0:0:
174,301,409907,5,2,1:2:0:0:
122,248,410018,1,0,0:0:0:0:
111,139,410129,1,2,0:0:0:0:
176,67,410240,1,0,0:0:0:0:
251,60,410351,1,2,1:2:0:0:
293,85,410462,1,0,0:0:0:0:
321,94,410573,1,2,0:0:0:0:
347,86,410684,1,0,0:0:0:0:
415,12,410796,6,0,P|388:83|401:250,1,210,6|0,1:0|0:0,0:0:0:0:
421,301,411240,1,8,1:0:0:0:
290,174,411462,2,0,P|248:192|180:176,1,70,2|0,0:1|0:0,0:0:0:0:
145,141,411684,2,0,L|139:244,1,70,0|0,1:0|0:0,0:0:0:0:
203,303,411907,2,0,L|98:294,1,70
189,65,412129,2,0,P|223:92|216:165,1,70,10|0,1:0|0:0,0:0:0:0:
58,132,412351,1,2,0:1:0:0:
58,132,412462,1,0,0:0:0:0:
58,132,412573,6,0,P|121:61|296:46,1,241.500004606247,4|0,1:0|0:0,0:0:0:0:
413,248,413018,2,0,P|281:197|223:53,1,241.500004606247,8|0,1:0|0:0,0:0:0:0:
387,1,413462,2,0,P|387:75|288:155,1,161.000003070831,2|0,1:0|0:0,0:0:0:0:
268,303,413796,1,0,0:0:0:0:
245,270,413907,2,0,P|198:235|77:277,1,161.000003070831,10|0,1:0|0:0,0:0:0:0:
14,252,414240,1,0,0:0:0:0:
43,347,414351,5,4,1:0:0:0:
43,347,414573,1,0,0:0:0:0:
115,122,414796,1,8,0:0:0:0:
115,122,414907,1,0,0:0:0:0:
469,347,415240,5,4,1:0:0:0:
469,347,415462,1,0,0:0:0:0:
397,122,415685,1,8,0:0:0:0:
397,122,415796,1,0,0:0:0:0:
343,258,416018,1,8,0:0:0:0:
343,258,416129,6,0,B|184:304|209:162|67:158|26:248,1,322.000006141663,4|8,1:0|0:0,0:0:0:0:
248,113,416684,2,0,P|273:162|247:215,1,80.5000015354157,2|0,1:0|0:0,0:0:0:0:
136,306,416907,1,0,0:0:0:0:
136,306,417018,2,0,L|44:293,1,80.5000015354157,2|0,1:0|0:0,0:0:0:0:
269,185,417240,2,0,L|380:175,1,80.5000015354157,2|0,1:0|0:0,0:0:0:0:
146,20,417462,2,0,L|158:131,1,90.9999958343508,8|0,1:2|0:0,0:0:0:0:
258,376,417684,2,0,L|281:263,1,90.9999958343508,2|0,1:0|0:0,0:0:0:0:
57,132,417907,6,0,P|47:171|47:202,1,70,4|0,0:0|0:0,0:0:0:0:
134,260,420351,2,0,P|140:276|142:294,2,35
201,173,420796,1,0,0:0:0:0:
110,80,421018,1,0,0:0:0:0:
221,269,421240,2,0,L|319:279,1,70,0|0,1:0|0:0,0:0:0:0:
394,343,421462,5,6,1:0:0:0:
303,303,421573,1,0,0:0:0:0:
226,335,421684,2,0,P|139:312|109:311,1,84.6999976090241,2|0,0:1|0:0,0:0:0:0:
102,109,421907,5,8,0:1:0:0:
169,162,422018,2,0,B|290:139|210:210|396:212,1,183.400003358154,2|0,0:1|0:0,0:0:0:0:
472,82,422351,5,4,0:3:0:0:
441,169,422462,1,2,0:0:0:0:
470,247,422573,1,2,0:1:0:0:
458,284,422684,1,0,0:0:0:0:
466,303,422796,5,8,0:1:0:0:
374,263,422907,2,0,P|296:221|176:199,1,169.399995218048,2|0,0:1|0:0,0:0:0:0:
88,296,423240,5,4,0:0:0:0:
124,211,423351,1,0,0:0:0:0:
90,132,423462,2,0,P|72:47|72:35,1,84.6999976090241,2|0,0:1|0:0,0:0:0:0:
305,25,423684,5,8,0:1:0:0:
269,117,423796,2,0,B|296:225|228:184|285:343,1,183.400003358154,2|0,0:1|0:0,0:0:0:0:
459,192,424129,5,4,0:3:0:0:
409,118,424240,1,0,0:0:0:0:
340,124,424351,2,0,P|321:221|323:244,1,84.6999976090241,2|0,0:1|0:0,0:0:0:0:
446,334,424573,5,8,0:1:0:0:
368,307,424684,2,0,P|260:288|243:288,1,84.6999976090241,2|0,0:1|0:0,0:0:0:0:
137,349,424907,5,2,0:0:0:0:
178,240,425018,5,4,0:0:0:0:
140,157,425129,1,0,0:0:0:0:
69,121,425240,2,0,P|51:215|52:224,1,84.6999976090241,2|0,0:1|0:0,0:0:0:0:
223,80,425462,5,8,0:1:0:0:
313,78,425573,2,0,P|418:130|446:212,1,183.400003358154,2|0,0:1|0:0,0:0:0:0:
279,333,425907,5,4,3:0:0:0:
296,233,426018,1,0,0:0:0:0:
369,204,426129,2,0,P|407:303|411:335,1,84.6999976090241,2|0,0:1|0:0,0:0:0:0:
190,369,426351,5,8,0:1:0:0:
107,314,426462,2,0,P|87:276|73:236,1,84.6999976090241,2|0,0:1|0:0,0:0:0:0:
116,92,426684,5,2,0:0:0:0:
26,168,426796,5,4,0:0:0:0:
116,130,426907,1,0,0:0:0:0:
187,182,427018,2,0,P|276:162|303:164,1,84.6999976090241,2|0,0:1|0:0,0:0:0:0:
457,261,427240,1,8,0:1:0:0:
376,212,427351,2,0,B|262:197|297:317|176:292,1,183.400003358154,2|0,0:1|0:0,0:0:0:0:
58,237,427684,5,4,0:0:0:0:
145,203,427796,1,2,0:0:0:0:
243,318,427907,5,2,0:1:0:0:
401,342,428018,5,0,0:0:0:0:
474,272,428129,5,8,0:1:0:0:
419,207,428240,1,0,0:0:0:0:
356,259,428351,2,0,P|342:348|341:357,1,77.7000018969727,2|0,0:1|0:0,0:0:0:0:
300,169,428573,6,0,P|303:148|306:125,1,35,4|0,0:0|0:0,0:0:0:0:
211,21,428796,6,0,L|219:116,1,77.0000023498536,2|0,0:0|0:0,0:0:0:0:
155,205,429018,1,0,1:0:0:0:
279,293,429129,2,0,P|328:296|371:305,2,77.0000023498536,2|0|0,0:0|0:0|0:0,0:0:0:0:
69,345,429462,6,0,L|113:351,1,35,0|0,1:0|0:0,0:0:0:0:
187,129,429684,6,0,P|129:120|67:187,1,154.000004699707,2|0,0:0|1:0,0:0:0:0:
221,364,430018,2,0,L|308:375,1,77.0000023498536
474,295,430240,1,0,0:0:0:0:
405,185,430351,6,0,L|408:135,1,35,4|0,0:2|0:0,0:0:0:0:
487,58,430573,6,0,B|416:26|416:26|343:51,1,154.000004699707,2|0,0:0|1:0,0:0:0:0:
331,288,430907,2,0,B|402:320|402:320|475:295,1,154.000004699707,2|0,0:0|0:0,0:0:0:0:
406,185,431240,2,0,L|312:177,1,77.0000023498536,0|0,1:0|0:0,0:0:0:0:
91,249,431462,5,2,0:0:0:0:
170,262,431573,1,0,0:0:0:0:
249,276,431684,1,0,1:0:0:0:
226,196,431796,5,2,0:0:0:0:
160,337,431907,1,0,0:0:0:0:
135,183,432018,1,0,0:0:0:0:
245,354,432129,6,0,P|269:351|291:344,1,35,4|0,0:2|0:0,0:0:0:0:
479,202,432351,6,0,P|399:184|330:222,1,154.000004699707,2|0,0:0|1:0,0:0:0:0:
189,117,432684,2,0,P|269:135|338:97,1,154.000004699707,2|0,0:0|0:0,0:0:0:0:
456,37,433018,6,0,L|352:23,1,77.0000023498536,0|0,1:0|0:0,0:0:0:0:
252,17,433240,1,2,0:0:0:0:
252,17,433351,1,0,0:0:0:0:
133,230,433462,6,0,L|237:216,1,77.0000023498536,0|0,1:0|0:0,0:0:0:0:
352,201,433684,1,2,0:0:0:0:
352,201,433796,1,0,0:0:0:0:
433,354,433907,6,0,P|408:349|387:342,1,35,4|0,0:2|0:0,0:0:0:0:
134,230,434129,6,0,P|208:215|272:258,1,154.000004699707,2|0,0:0|1:0,0:0:0:0:
488,175,434462,2,0,P|425:215|351:200,1,154.000004699707,2|0,0:0|0:0,0:0:0:0:
210,93,434796,6,0,L|298:84,1,77.0000023498536,2|0,1:2|0:0,0:0:0:0:
302,291,435018,2,0,L|214:300,1,77.0000023498536,2|0,0:0|0:0,0:0:0:0:
34,164,435240,6,0,P|56:168|80:174,1,35,2|0,0:0|0:0,0:0:0:0:
157,199,435462,1,2,0:0:0:0:
157,199,435573,1,2,0:0:0:0:
236,163,435684,6,0,P|301:150|357:193,1,125.999996154785,4|2,1:0|0:0,0:0:0:0:
402,251,436018,1,0,0:0:0:0:
402,251,436129,2,0,P|435:252|472:241,1,62.9999980773926,8|2,1:0|0:0,0:0:0:0:
288,301,436351,2,0,P|255:300|218:311,1,62.9999980773926
146,344,436573,1,0,1:0:0:0:
59,326,436684,1,0,0:0:0:0:
8,253,436796,2,0,P|3:216|6:189,1,62.9999980773926,2|0,1:2|0:0,0:0:0:0:
177,68,437018,2,0,P|182:105|179:132,1,62.9999980773926,8|2,1:0|0:0,0:0:0:0:
56,97,437240,1,0,0:0:0:0:
56,97,437351,1,2,0:0:0:0:
133,203,437462,6,0,P|198:216|254:173,1,125.999996154785,4|2,1:2|0:0,0:0:0:0:
278,103,437796,1,0,0:0:0:0:
278,103,437907,2,0,P|307:92|348:91,1,62.9999980773926,8|2,1:0|0:0,0:0:0:0:
448,217,438129,2,0,P|479:214|508:204,1,62.9999980773926
433,94,438351,2,0,P|430:62|420:33,1,62.9999980773926,0|0,1:0|0:0,0:0:0:0:
353,209,438573,2,0,P|355:240|365:269,1,62.9999980773926,2|0,1:2|0:0,0:0:0:0:
472,344,438796,1,8,1:0:0:0:
472,344,438907,1,2,0:0:0:0:
305,377,439018,1,8,1:0:0:0:
305,377,439129,1,2,0:0:0:0:
353,209,439240,6,0,P|366:144|323:88,1,125.999996154785,4|2,1:0|0:0,0:0:0:0:
264,44,439573,1,0,0:0:0:0:
264,44,439684,2,0,P|227:44|194:56,1,62.9999980773926,8|2,1:0|0:0,0:0:0:0:
79,165,439907,2,0,P|48:173|17:172,1,62.9999980773926
40,40,440129,2,0,P|75:30|110:33,1,62.9999980773926,0|0,1:0|0:0,0:0:0:0:
260,151,440352,2,0,P|291:151|321:142,1,62.9999980773926,2|0,1:2|0:0,0:0:0:0:
374,73,440573,1,8,1:0:0:0:
374,73,440684,1,2,0:0:0:0:
431,203,440796,1,8,1:0:0:0:
431,203,440907,1,2,0:0:0:0:
260,151,441018,6,0,P|195:138|139:181,1,125.999996154785,4|2,1:2|0:0,0:0:0:0:
114,250,441351,1,0,0:0:0:0:
114,250,441462,2,0,P|57:253|35:244,1,62.9999980773926,8|2,1:0|0:0,0:0:0:0:
214,326,441684,2,0,P|271:323|293:332,1,62.9999980773926
431,237,441907,5,2,1:2:0:0:
460,153,442018,1,2,1:2:0:0:
376,124,442129,1,8,1:0:0:0:
347,208,442240,1,0,1:0:0:0:
434,244,442351,5,2,1:2:0:0:
467,149,442462,1,2,1:2:0:0:
372,116,442573,1,8,1:0:0:0:
339,211,442684,1,0,1:0:0:0:
471,352,442796,5,4,1:0:0:0:
195,325,443018,1,0,0:0:0:0:
270,333,443129,1,2,0:0:0:0:
346,342,443240,1,0,1:0:0:0:
471,352,443462,1,0,0:0:0:0:
195,325,443684,5,0,1:0:0:0:
212,254,443795,1,0,0:0:0:0:
150,214,443906,1,0,0:0:0:0:
94,262,444017,1,2,0:0:0:0:
121,330,444129,5,0,1:0:0:0:
195,325,444240,1,0,0:0:0:0:
212,254,444351,1,0,0:0:0:0:
150,214,444462,1,0,0:0:0:0:
17,143,444573,5,4,1:0:0:0:
293,116,444795,1,0,0:0:0:0:
218,124,444907,1,2,0:0:0:0:
142,133,445017,1,0,1:0:0:0:
17,143,445239,1,0,0:0:0:0:
293,116,445462,5,0,1:0:0:0:
281,188,445573,1,0,0:0:0:0:
353,200,445684,1,0,0:0:0:0:
365,128,445796,1,2,0:0:0:0:
284,103,445907,5,0,1:0:0:0:
268,196,446018,1,0,0:0:0:0:
361,212,446129,1,0,0:0:0:0:
377,119,446241,1,0,0:0:0:0:
345,22,446351,6,0,L|418:14,1,52.5000020027161,4|0,1:0|0:0,0:0:0:0:
273,277,446573,2,0,L|325:282,1,52.5000020027161,0|2,1:0|0:0,0:0:0:0:
218,70,446796,2,0,L|291:62,1,52.5000020027161,0|0,1:0|0:0,0:0:0:0:
146,325,447018,2,0,L|198:330,1,52.5000020027161,0|0,1:0|1:0,0:0:0:0:
129,72,447240,6,0,L|114:-13,1,52.5000020027161,4|0,1:0|0:0,0:0:0:0:
394,143,447462,2,0,L|409:58,1,52.5000020027161,0|2,1:0|0:2,0:0:0:0:
208,164,447684,2,0,L|193:79,1,52.5000020027161,0|0,1:0|0:0,0:0:0:0:
473,235,447906,2,0,L|488:150,1,52.5000020027161,0|0,1:0|1:0,0:0:0:0:
352,266,448129,5,4,1:0:0:0:
280,310,448240,1,0,1:0:0:0:
216,254,448351,1,0,1:0:0:0:
144,298,448462,1,0,1:0:0:0:
62,124,448573,5,0,1:0:0:0:
134,168,448684,1,0,1:0:0:0:
198,112,448795,1,0,1:0:0:0:
270,156,448906,1,0,1:0:0:0:
480,283,449018,5,0,0:0:0:0:
412,311,449129,1,2,0:0:0:0:
344,147,449240,5,0,0:0:0:0:
412,119,449351,1,2,0:0:0:0:
344,283,449462,5,0,0:0:0:0:
316,215,449573,1,2,0:0:0:0:
480,147,449684,5,0,0:0:0:0:
508,215,449796,1,2,0:0:0:0:
414,217,449907,5,2,1:2:0:0:
