osu file format v14

[General]
AudioFilename: audio.mp3
AudioLeadIn: 0
PreviewTime: 56003
Countdown: 0
SampleSet: Soft
StackLeniency: 0.2
Mode: 0
LetterboxInBreaks: 0
WidescreenStoryboard: 0

[Editor]
Bookmarks: 100282
DistanceSpacing: 1
BeatDivisor: 4
GridSize: 4
TimelineZoom: 1

[Metadata]
Title:Sakura
TitleUnicode:さくら
Artist:Mitose Noriko
ArtistUnicode:みとせのりこ
Creator:Nanabi
Version:SaKurA
Source:
Tags:カタン cotton old song ballad
BeatmapID:2060507
BeatmapSetID:984779

[Difficulty]
HPDrainRate:6
CircleSize:5
OverallDifficulty:6
ApproachRate:6
SliderMultiplier:2.6
SliderTickRate:1

[Events]
//Background and Video events
0,0,"bg.jpg",0,0
//Break Periods
//Storyboard Layer 0 (Background)
//Storyboard Layer 1 (Fail)
//Storyboard Layer 2 (Pass)
//Storyboard Layer 3 (Foreground)
//Storyboard Sound Samples

[TimingPoints]
0,681.818181818182,4,2,1,13,1,0
1363,740.740740740741,4,2,1,20,1,0
2844,722.89156626506,4,2,1,15,1,0
4289,681.818181818182,4,2,1,20,1,0
5652,674.157303370787,4,2,1,20,1,0
5652,-76.9230769230769,4,2,1,20,0,0
6157,-76.9230769230769,4,2,1,5,0,0
6326,-76.9230769230769,4,2,1,20,0,0
7000,-76.9230769230769,4,2,1,5,0,0
7168,645.161290322581,4,2,1,20,1,0
8458,705.882352941176,4,2,1,20,1,0
9155,-71.4285714285714,4,2,1,20,0,0
9932,677.966101694915,4,2,1,20,1,0
11287,-71.4285714285714,4,2,1,20,0,0
11796,-71.4285714285714,4,2,1,5,0,0
11965,-71.4285714285714,4,2,1,20,0,0
12474,-71.4285714285714,4,2,1,5,0,0
12643,-71.4285714285714,4,2,1,20,0,0
13152,-71.4285714285714,4,2,1,5,0,0
13321,-55.5555555555556,4,2,1,20,0,0
13830,-55.5555555555556,4,2,1,5,0,0
14169,628.272251308901,4,2,1,20,1,0
15508,689.655172413793,4,2,1,20,1,0
16887,-71.4285714285714,4,2,1,20,0,0
21025,-58.8235294117647,4,2,1,20,0,0
22442,718.562874251497,4,2,1,20,1,0
22442,-50,4,2,1,20,0,0
23160,-133.333333333333,4,2,1,20,0,0
23879,-50,4,2,1,20,0,0
24418,-50,4,2,1,5,0,0
24597,-43.4782608695652,4,2,1,20,0,0
25316,-71.4285714285714,4,2,1,20,0,0
25941,689.655172413793,4,2,1,20,1,0
25941,-62.5,4,2,1,20,0,0
27320,722.89156626506,4,2,1,20,1,0
28090,722.89156626506,4,2,1,20,1,0
28812,582.52427184466,4,2,1,20,1,0
29470,674.157303370787,4,2,1,20,1,0
29470,-71.4285714285714,4,2,1,20,0,0
33602,674.157303370787,4,2,1,20,1,0
33602,-50,4,2,1,20,0,0
34276,-38.4615384615385,4,2,1,20,0,0
34950,-38.4615384615385,4,2,1,20,0,0
35624,-100,4,2,1,20,0,0
36389,674.157303370787,4,2,1,20,1,0
36389,-41.6666666666667,4,2,1,20,0,0
37063,722.89156626506,4,2,1,20,1,0
37785,705.882352941176,4,2,1,20,1,0
37785,-41.6666666666667,4,2,1,20,0,0
39196,-83.3333333333333,4,2,1,20,0,0
42020,666.666666666667,4,2,1,20,1,0
43353,722.89156626506,4,2,1,20,1,0
44869,681.818181818182,4,2,1,20,1,0
46295,674.157303370787,4,2,1,20,1,0
47695,681.818181818182,4,2,1,20,1,0
49101,681.818181818182,4,2,1,20,1,0
50485,697.674418604651,4,2,1,20,1,0
51182,-71.4285714285714,4,2,1,20,0,0
53302,722.89156626506,4,2,1,20,1,0
54024,681.818181818182,4,2,1,20,1,0
56132,722.89156626506,4,2,1,20,1,0
56132,-66.6666666666667,4,2,1,20,0,0
56854,-38.4615384615385,4,2,1,20,0,0
57577,697.674418604651,4,2,1,20,1,0
58972,-50,4,2,1,20,0,0
59670,-33.3333333333333,4,2,1,20,0,0
60367,681.818181818182,4,2,1,20,1,0
61389,740.740740740741,4,2,1,20,1,0
61759,-71.4285714285714,4,2,1,20,0,0
62472,674.157303370787,4,2,1,20,1,0
62472,-35.7142857142857,4,2,1,25,0,0
63188,722.89156626506,4,2,1,20,1,0
63188,-133.333333333333,4,2,1,28,0,0
63910,740.740740740741,4,2,1,20,1,0
63910,-45.4545454545455,4,2,1,20,0,0
64576,722.89156626506,4,2,1,20,1,0
65226,674.157303370787,4,2,1,20,1,0
65937,740.740740740741,4,2,1,20,1,0
65937,-58.8235294117647,4,2,1,20,0,0
66613,681.818181818182,4,2,1,20,1,0
67124,-58.8235294117647,4,2,1,7,0,0
67322,722.89156626506,4,2,1,20,1,0
67322,-43.4782608695652,4,2,1,20,0,0
67997,652.173913043478,4,2,1,20,1,0
68697,681.818181818182,4,2,1,20,1,0
68697,-58.8235294117647,4,2,1,20,0,0
70060,-45.4545454545455,4,2,1,20,0,0
70803,681.818181818182,4,2,1,20,1,0
70803,-40,4,2,1,20,0,0
71550,625,4,2,1,20,1,0
72175,714.285714285713,4,2,1,20,1,0
72889,-58.8235294117647,4,2,1,20,0,0
73425,-58.8235294117647,4,2,1,5,0,0
73603,-55.5555555555556,4,2,1,27,0,0
74139,-55.5555555555556,4,2,1,5,0,0
74317,-41.6666666666667,4,2,1,36,0,0
74853,-41.6666666666667,4,2,1,5,0,0
75032,659.340659340659,4,2,1,20,1,0
75691,681.818181818182,4,2,1,20,1,0
75691,-66.6666666666667,4,2,1,20,0,0
76372,-50,4,2,1,20,0,0
77115,740.740740740741,4,2,1,20,1,0
77485,-66.6666666666667,4,2,1,12,0,0
77793,722.89156626506,4,2,1,17,1,0
78154,-66.6666666666667,4,2,1,20,0,0
78543,681.818181818182,4,2,1,18,1,0
78543,-66.6666666666667,4,2,1,18,0,0
78883,-66.6666666666667,4,2,1,5,0,0
79224,-66.6666666666667,4,2,1,18,0,0
79565,-66.6666666666667,4,2,1,23,0,0
79906,-50,4,2,1,20,0,0
80418,-50,4,2,1,5,0,0
80588,-50,4,2,1,20,0,0
80929,-50,4,2,1,26,0,0
81338,652.173913043478,4,2,1,17,1,0
81990,-50,4,2,1,25,0,0
82697,705.882352941176,4,2,1,20,1,0
83374,697.674418604651,4,2,1,25,1,0
84071,769.230769230769,4,2,1,30,1,0
84071,-50,4,2,1,30,0,0
84647,-50,4,2,1,5,0,0
84818,681.818181818182,4,2,1,30,1,0
85552,681.818181818182,4,2,1,30,1,0
85552,-58.8235294117647,4,2,1,30,0,0
88325,705.882352941176,4,2,1,30,1,0
88325,-40,4,2,1,30,0,0
89030,-40,4,2,1,5,0,0
89243,625,4,2,1,30,1,0
89779,740.740740740741,4,2,1,25,1,0
89779,-76.9230769230769,4,2,1,27,0,0
90519,789.473684210526,4,2,1,25,1,0
90519,-90.9090909090909,4,2,1,25,0,0
91368,952.380952380952,4,2,1,20,1,0
91368,-111.111111111111,4,2,1,17,0,0
92521,810.810810810811,4,2,1,13,1,0
92521,-333.333333333333,4,2,1,17,0,0
94142,-158.478605388273,4,2,1,10,0,0
101439,-158.478605388273,4,2,1,5,0,0

[Colours]
Combo1 : 164,100,240
Combo2 : 230,110,150
Combo3 : 100,200,200
Combo4 : 130,120,255

[HitObjects]
136,80,0,5,2,0:0:0:0:
112,160,340,1,2,0:0:0:0:
148,240,681,1,2,0:0:0:0:
124,320,1021,1,2,0:0:0:0:
224,320,1363,5,2,0:0:0:0:
312,272,1733,1,2,0:0:0:0:
400,320,2103,1,2,0:0:0:0:
312,368,2474,1,2,0:0:0:0:
476,368,2844,6,2,P|496:304|488:236,1,130
436,168,3566,2,2,P|396:128|312:100,1,130
228,68,4289,5,2,0:0:0:0:
276,156,4629,1,2,0:0:0:0:
228,236,4970,1,2,0:0:0:0:
180,156,5311,1,2,0:0:0:0:
120,96,5652,6,2,B|64:192|116:284|116:284|128:244|172:224,1,253.499988395691
228,236,6326,2,2,B|296:256|304:324|304:324|256:388|176:368|228:332|152:312|96:372,1,337.999984527589
88,364,7168,5,2,0:0:0:0:
44,272,7483,1,2,0:0:0:0:
160,236,7813,1,2,0:0:0:0:
256,152,8135,1,2,0:0:0:0:
352,236,8458,1,2,0:0:0:0:
468,272,8806,1,2,0:0:0:0:
448,136,9163,6,2,P|420:228|440:332,1,181.999994445801
216,332,9932,1,2,0:0:0:0:
280,252,10270,1,2,0:0:0:0:
212,176,10609,1,2,0:0:0:0:
124,236,10948,1,2,0:0:0:0:
320,244,11287,6,2,B|368:276|452:232|452:232|376:164|332:180,1,272.999991668701
320,244,11965,2,2,B|360:276|452:232|452:232|396:144|332:160,1,272.999991668701
320,244,12643,2,2,B|360:276|452:232|452:232|424:140|344:128,1,272.999991668701
320,244,13321,6,2,B|360:280|452:232|452:232|396:192|380:140|448:144|428:88|336:52,1,350.99998928833
124,44,14169,5,2,0:0:0:0:
183,129,14483,1,2,0:0:0:0:
198,231,14797,1,2,0:0:0:0:
167,330,15111,1,2,0:0:0:0:
84,78,15508,5,2,0:0:0:0:
79,220,15852,1,2,0:0:0:0:
167,330,16197,1,2,0:0:0:0:
308,350,16542,1,2,0:0:0:0:
472,268,16887,6,2,P|392:292|288:248,1,181.999994445801
39,116,17576,2,2,P|126:92|210:123,1,181.999994445801
332,64,18266,1,2,0:0:0:0:
344,128,18439,1,2,0:0:0:0:
344,192,18611,1,2,0:0:0:0:
200,196,18956,1,2,0:0:0:0:
92,292,19301,1,2,0:0:0:0:
328,268,19645,5,2,0:0:0:0:
380,304,19818,1,2,0:0:0:0:
408,360,19990,1,2,0:0:0:0:
487,257,20335,1,2,0:0:0:0:
441,136,20680,1,2,0:0:0:0:
364,52,21025,2,2,P|256:79|132:40,3,221.000004215241
72,239,22442,6,2,B|102:170|160:148|160:148|188:198|158:283,1,260
232,352,23160,2,2,P|275:332|301:291,1,97.50000371933
464,300,23879,2,2,B|488:184|356:144|356:144|344:184|288:192|288:192|239:147|268:95,1,390
268,56,24597,2,2,B|300:100|216:108|284:192|284:192|416:168|304:104|420:84,1,299.000005702973
464,300,25316,6,2,P|336:308|292:268,1,181.999994445801
36,300,25941,6,2,P|176:308|220:268,1,208
192,80,26630,1,2,0:0:0:0:
160,208,26975,1,2,0:0:0:0:
100,84,27320,5,2,0:0:0:0:
244,16,27681,1,2,0:0:0:0:
328,128,28090,2,2,P|400:240|472:272,1,195
468,204,28812,1,2,0:0:0:0:
336,344,29103,1,2,0:0:0:0:
160,340,29470,6,2,P|120:204|168:68,1,272.999991668701
200,136,30144,1,2,0:0:0:0:
40,216,30481,1,2,0:0:0:0:
224,252,30818,1,2,0:0:0:0:
269,295,30986,1,2,0:0:0:0:
331,313,31155,1,2,0:0:0:0:
324,160,31492,1,2,0:0:0:0:
316,12,31829,1,2,0:0:0:0:
232,44,32166,5,2,0:0:0:0:
109,11,32503,1,2,0:0:0:0:
115,184,32840,2,2,B|115:198|115:198|121:210|121:210|121:224|121:224|125:235|125:235|125:246|125:246|130:259|130:259|128:272|120:274,1,90.9999972229005
238,147,33177,1,2,0:0:0:0:
472,184,33602,6,2,B|440:328|332:212|284:400,1,260
456,352,34276,2,2,B|340:176|272:364|120:140,1,337.999984527589
229,323,34950,2,2,B|100:372|-8:260|4:148,1,337.999984527589
136,48,35624,2,2,B|148:60|148:60|136:72|136:72|152:76|152:76|144:96|144:96|148:128|184:148,1,130
312,144,36389,6,2,B|384:120|412:164|464:172|464:172|416:184|400:244|256:224,1,311.999990478516
280,320,37063,1,2,0:0:0:0:
288,344,37424,1,2,0:0:0:0:
68,300,37785,2,2,B|116:276|56:212|108:156|108:156|180:204|132:276|212:288,1,311.999990478516
380,268,38490,1,2,0:0:0:0:
436,152,38843,1,2,0:0:0:0:
80,40,39196,6,2,B|-4:176|84:236|76:320|76:320|76:334|76:334|85:336|85:336|92:324|92:324|132:212|264:292|304:188|304:188|306:171|306:171|312:171|312:171|312:188|312:188|320:280|464:254|505:372|505:372|472:321|552:276|440:192,1,1091.99996667481
344,56,42020,5,2,0:0:0:0:
392,164,42353,1,2,0:0:0:0:
180,72,42686,5,2,0:0:0:0:
128,200,43020,1,2,0:0:0:0:
284,168,43353,5,2,0:0:0:0:
384,192,43714,1,2,0:0:0:0:
424,288,44075,1,2,0:0:0:0:
352,368,44437,1,2,0:0:0:0:
212,284,44869,5,2,0:0:0:0:
204,308,45209,1,2,0:0:0:0:
92,216,45550,5,2,0:0:0:0:
128,352,45891,1,2,0:0:0:0:
192,152,46295,5,2,0:0:0:0:
224,172,46632,1,2,0:0:0:0:
344,88,46969,5,2,0:0:0:0:
452,160,47306,1,2,0:0:0:0:
320,244,47695,5,2,0:0:0:0:
304,316,48035,1,2,0:0:0:0:
296,188,48376,5,2,0:0:0:0:
328,376,48717,1,2,0:0:0:0:
76,316,49100,5,2,0:0:0:0:
220,152,49441,1,2,0:0:0:0:
120,136,49782,5,2,0:0:0:0:
184,336,50123,1,2,0:0:0:0:
252,256,50485,5,2,0:0:0:0:
44,216,50833,1,2,0:0:0:0:
288,139,51182,6,2,P|367:136|440:61,1,181.999994445801
178,43,51880,2,2,P|177:167|223:229,1,181.999994445801
343,248,52578,2,2,P|284:337|197:372,1,181.999994445801
430,252,53302,5,2,0:0:0:0:
426,229,53663,1,2,0:0:0:0:
277,167,54024,1,2,0:0:0:0:
411,61,54364,1,2,0:0:0:0:
299,287,54705,5,2,0:0:0:0:
103,240,55046,1,2,0:0:0:0:
224,233,55387,1,2,0:0:0:0:
222,247,55728,1,2,0:0:0:0:
378,330,56132,6,2,B|356:285|399:211|441:279|456:174|456:174|407:137|351:162,1,292.50001115799
284,144,56854,2,2,B|271:206|246:228|196:199|138:294|83:195|92:141|92:141|229:129|200:343,1,506.999976791383
269,350,57577,1,2,0:0:0:0:
272,375,57925,1,2,0:0:0:0:
400,220,58274,5,2,0:0:0:0:
428,356,58623,1,2,0:0:0:0:
456,152,58972,6,2,B|380:120|308:152|352:192|268:232|176:160,1,260
128,48,59670,2,2,B|60:92|112:176|152:144|188:224|116:288|112:288|112:288|24:204|-132:312,1,390.00001487732
231,157,60367,1,2,0:0:0:0:
239,273,60707,1,2,0:0:0:0:
322,355,61048,1,2,0:0:0:0:
360,241,61389,5,2,0:0:0:0:
420,265,61574,1,2,0:0:0:0:
474,228,61759,2,2,P|432:145|453:39,1,181.999994445801
308,20,62472,2,2,B|162:98|253:184|202:254|202:254|273:226|310:157,1,363.999988891602
365,366,63188,2,2,P|393:329|392:231,1,146.250005578995
383,211,63910,2,2,B|217:233|334:312|106:357,1,286.000008728028
72,265,64576,1,2,0:0:0:0:
189,213,64937,1,2,0:0:0:0:
223,101,65226,5,2,0:0:0:0:
365,161,65563,1,2,0:0:0:0:
464,140,65937,6,2,B|463:233|365:315|303:216|267:233|202:323,1,331.500006322861
152,291,66613,1,2,0:0:0:0:
397,316,66953,2,2,B|404:331|404:331|403:342|403:342|409:352|409:352|409:367|409:367|415:383,1,65
334,352,67322,6,2,B|255:310|222:270|202:210|280:117|171:93|171:93|115:141|178:215,1,448.500008554459
152,291,67997,1,2,0:0:0:0:
327,206,68323,1,2,0:0:0:0:
475,102,68697,6,2,B|507:143|495:210|477:263|477:263|433:224|377:175|384:123,1,331.500006322861
411,57,69378,1,2,0:0:0:0:
279,103,69719,1,2,0:0:0:0:
178,60,70060,6,2,B|169:133|225:207|156:291|156:291|119:239|55:241|55:241|92:179|147:198,1,429.000013092041
264,243,70803,2,2,B|241:284|278:303|296:336|296:336|314:304|372:304|398:255|324:220|313:182|376:131,1,325
318,16,71550,1,2,0:0:0:0:
383,71,71862,1,2,0:0:0:0:
492,57,72175,1,2,0:0:0:0:
453,224,72532,1,2,0:0:0:0:
365,215,72889,6,2,B|390:271|353:317|324:370|324:370|288:321|248:277|260:219,1,331.500006322861
199,162,73603,2,2,B|197:220|135:239|74:278|74:278|60:203|29:149|97:80,1,350.99998928833
264,61,74317,2,2,B|355:48|411:107|469:152|469:152|413:199|373:262|214:212,1,467.999985717774
274,146,75032,1,2,0:0:0:0:
299,337,75361,1,2,0:0:0:0:
185,293,75691,6,2,B|118:283|45:321|6:366,1,195.00000743866
269,221,76372,2,2,B|340:211|451:272|478:359,1,260
309,371,77115,1,2,0:0:0:0:
299,337,77485,1,2,0:0:0:0:
362,166,77793,1,2,0:0:0:0:
283,39,78154,1,2,0:0:0:0:
97,98,78543,6,2,B|153:169|53:194|142:260|142:260|230:231|185:112,1,292.50001115799
200,107,79224,1,2,0:0:0:0:
353,197,79565,1,2,0:0:0:0:
508,175,79906,6,2,B|446:246|518:324|441:376|441:376|319:361|399:269|275:251,1,390
249,235,80588,1,2,0:0:0:0:
105,337,80929,1,2,0:0:0:0:
99,359,81338,5,2,0:0:0:0:
20,264,81664,1,2,0:0:0:0:
132,226,81990,1,2,0:0:0:0:
88,100,82316,1,2,0:0:0:0:
130,31,82697,5,2,0:0:0:0:
193,75,83049,1,2,0:0:0:0:
309,46,83374,1,2,0:0:0:0:
414,128,83722,1,2,0:0:0:0:
512,157,84071,6,2,B|452:180|419:256|485:247|457:331|402:368|402:368|340:335|321:280|341:197,1,390
388,216,84818,1,2,0:0:0:0:
205,294,85158,1,2,0:0:0:0:
150,181,85552,6,2,B|161:229|104:267|62:302|62:302|43:262|17:196|43:150|43:150|104:144|125:105|163:75|163:75|111:66|60:0|-38:73,1,663.000012645722
205,136,86915,1,2,0:0:0:0:
307,214,87256,1,2,0:0:0:0:
418,127,87597,1,2,0:0:0:0:
338,314,87938,1,2,0:0:0:0:
107,154,88325,6,2,B|117:217|187:218|272:234|281:294|236:325|227:364|227:364|201:335|139:315|126:262|188:236|255:193|278:146|236:52,1,650
344,43,89243,1,2,0:0:0:0:
348,28,89555,1,2,0:0:0:0:
482,121,89779,6,2,P|433:183|346:199,1,168.999992263794
380,294,90519,2,2,B|290:301|238:214,1,143.000004364014
202,332,91368,2,2,P|163:264|164:202,1,116.999996429443
53,217,92521,2,2,P|91:171|180:146,1,136.499995834351
229,167,94142,6,2,B|188:91|229:50|250:21|250:21|278:43|321:81|306:158|306:158|349:97|399:121|437:128|437:128|425:151|426:222|335:224|335:224|397:249|398:297|399:336|399:336|361:335|307:351|284:266|284:266|269:358|216:354|187:358|187:358|180:329|151:287|218:238|218:238|123:252|120:196|101:166|101:166|136:148|176:120|227:164|227:164,1,1476.53998332764
