osu file format v14

[General]
AudioFilename: audio.mp3
AudioLeadIn: 0
PreviewTime: 27973
Countdown: 0
SampleSet: Soft
StackLeniency: 0.4
Mode: 0
LetterboxInBreaks: 0
WidescreenStoryboard: 1

[Editor]
Bookmarks: 17251,27918,41251,62584,83918,105251,129251,150584,171918,182584
DistanceSpacing: 1.4
BeatDivisor: 8
GridSize: 16
TimelineZoom: 2.4

[Metadata]
Title:EXEC_RIG=VEDA/.
TitleUnicode:EXEC_RIG=VEDA/.
Artist:Mitose Noriko
ArtistUnicode:みとせのりこ
Creator:Shurelia
Version:Scub's Hard
Source:アルトネリコ ~世界の終わりで詩い続ける少女~
Tags:mir ar tonelico 1 melody of elemia Sekai no Owari de Utai Tsuzukeru Shoujo The Girl Who Continues to Sing at the End of the World scubdomino gust visual novel jrpg hymn video game japanese
BeatmapID:2239409
BeatmapSetID:1069802

[Difficulty]
HPDrainRate:5
CircleSize:3
OverallDifficulty:6
ApproachRate:8
SliderMultiplier:0.999999999999999
SliderTickRate:1

[Events]
//Background and Video events
0,0,"mirbg.jpg",0,0
//Break Periods
2,84172,93889
2,118639,128556
//Storyboard Layer 0 (Background)
//Storyboard Layer 1 (Fail)
//Storyboard Layer 2 (Pass)
//Storyboard Layer 3 (Foreground)
//Storyboard Layer 4 (Overlay)
//Storyboard Sound Samples

[TimingPoints]
11973,666.666666666667,4,2,1,45,1,0
17306,-66.6666666666667,4,2,1,45,0,0
27973,-66.6666666666667,4,2,1,53,0,0
28306,-66.6666666666667,4,2,1,45,0,0
28473,-66.6666666666667,4,2,1,53,0,0
29139,-66.6666666666667,4,2,1,45,0,0
29306,-66.6666666666667,4,2,1,53,0,0
29639,-66.6666666666667,4,2,1,45,0,0
29806,-66.6666666666667,4,2,1,53,0,0
36473,-66.6666666666667,4,2,1,45,0,0
36639,-66.6666666666667,4,2,1,53,0,0
37139,-66.6666666666667,4,2,1,45,0,0
37306,-66.6666666666667,4,2,1,53,0,0
41306,-66.6666666666667,4,2,1,33,0,0
56472,-66.6666666666667,4,2,1,45,0,0
56639,-66.6666666666667,4,2,1,33,0,0
62639,-66.6666666666667,4,2,1,45,0,0
83306,-55.5555555555556,4,2,1,45,0,0
105306,-50,4,2,1,53,0,0
106806,-50,4,2,1,45,0,0
107139,-50,4,2,1,53,0,0
109473,-50,4,2,1,45,0,0
109806,-50,4,2,1,53,0,0
112139,-50,4,2,1,45,0,0
112472,-50,4,2,1,53,0,0
114805,-50,4,2,1,45,0,0
114972,-50,4,2,1,53,0,0
116973,-133.333333333333,4,2,0,45,0,0
117139,-133.333333333333,4,2,1,53,0,0
129306,-50,4,2,1,53,0,0
129639,-50,4,2,1,55,0,0
132805,-50,4,2,1,45,0,0
132973,-50,4,2,1,55,0,0
134139,-50,4,2,1,45,0,0
134306,-50,4,2,1,55,0,0
138805,-50,4,2,1,45,0,0
138973,-50,4,2,1,55,0,0
139472,-50,4,2,1,45,0,0
139640,-50,4,2,1,55,0,0
144805,-50,4,2,1,45,0,0
144972,-50,4,2,1,55,0,0
150139,-50,4,2,1,45,0,0
150306,-50,4,2,1,55,0,0
151472,-50,4,2,1,45,0,0
151639,-50,4,2,1,55,0,0
152806,-50,4,2,1,45,0,0
152973,-50,4,2,1,55,0,0
154139,-50,4,2,1,45,0,0
154306,-50,4,2,1,55,0,0
156805,-50,4,2,1,45,0,0
156972,-50,4,2,1,55,0,0
161306,-45.4545454545455,4,2,1,55,0,0
162139,-45.4545454545455,4,2,1,45,0,0
162306,-45.4545454545455,4,2,1,55,0,0
162806,-45.4545454545455,4,2,1,45,0,0
162973,-45.4545454545455,4,2,1,55,0,0
163472,-45.4545454545455,4,2,1,45,0,0
163639,-45.4545454545455,4,2,1,55,0,0
164139,-45.4545454545455,4,2,1,45,0,0
164472,-45.4545454545455,4,2,1,55,0,0
164805,-45.4545454545455,4,2,1,45,0,0
164973,-45.4545454545455,4,2,1,55,0,0
167472,-45.4545454545455,4,2,1,45,0,0
167639,-45.4545454545455,4,2,1,55,0,0
168139,-45.4545454545455,4,2,1,45,0,0
168306,-45.4545454545455,4,2,1,55,0,0
168805,-45.4545454545455,4,2,1,45,0,0
168973,-45.4545454545455,4,2,1,55,0,0
169472,-45.4545454545455,4,2,1,45,0,0
169639,-45.4545454545455,4,2,1,55,0,0
170139,-45.4545454545455,4,2,1,45,0,0
170306,-45.4545454545455,4,2,1,55,0,0
173472,-45.4545454545455,4,2,1,45,0,0
173639,-45.4545454545455,4,2,1,55,0,0
174805,-45.4545454545455,4,2,1,45,0,0
174973,-45.4545454545455,4,2,1,55,0,0
176139,-45.4545454545455,4,2,1,45,0,0
176306,-45.4545454545455,4,2,1,55,0,0
176805,-45.4545454545455,4,2,1,45,0,0
176973,-45.4545454545455,4,2,1,55,0,0

[Colours]
Combo1 : 179,175,132
Combo2 : 118,113,138
Combo3 : 184,151,187
Combo4 : 223,219,187

[HitObjects]
256,192,11972,12,0,16639,0:0:0:0:
322,101,17306,6,0,P|284:28|214:12,1,150.000005722046,6|0,0:0|0:0,0:0:0:0:
145,48,18306,1,4,0:3:0:0:
138,132,18639,2,0,P|83:179|10:172,1,150.000005722046,4|2,0:3|0:0,0:0:0:0:
116,271,19972,2,0,L|205:284,3,75.000002861023,4|0|0|4,0:3|0:0|0:0|0:3,0:0:0:0:
229,358,21306,2,0,L|207:188,1,150.000005722046,4|2,0:3|0:0,0:0:0:0:
321,378,22639,6,0,P|394:340|410:270,1,150.000005722046,4|0,0:3|0:0,0:0:0:0:
374,201,23639,1,4,0:3:0:0:
290,194,23973,2,0,P|242:139|249:66,1,150.000005722046,4|2,0:3|0:0,0:0:0:0:
421,114,25306,2,0,L|433:23,3,75.000002861023,4|0|0|4,0:3|0:0|0:0|0:3,0:0:0:0:
353,0,26639,2,0,P|293:42|201:27,1,150.000005722046,4|2,0:3|0:0,0:0:0:0:
219,36,27973,6,0,L|205:117,1,75.000002861023,4|0,0:0|0:0,0:0:0:0:
191,195,28473,2,0,L|129:206,1,37.5000014305115,8|4,0:3|0:3,0:0:0:0:
336,149,28973,2,0,L|382:185,1,37.5000014305115,4|0,0:3|0:0,0:0:0:0:
457,150,29306,2,0,P|465:213|453:245,1,75.000002861023,4|0,0:3|0:0,0:0:0:0:
438,314,29806,2,0,L|488:306,2,37.5000014305115,8|2|4,0:3|0:0|0:3,0:0:0:0:
368,370,30306,2,0,L|268:352,1,75.000002861023,4|4,0:3|0:3,0:0:0:0:
331,216,30973,5,0,0:0:0:0:
269,272,31139,1,8,0:3:0:0:
203,221,31306,2,0,L|97:205,1,75.000002861023,0|4,0:0|0:3,0:0:0:0:
78,140,31806,1,0,0:0:0:0:
130,68,31973,2,0,L|234:59,1,75.000002861023,8|0,0:3|0:0,0:0:0:0:
291,77,32473,2,0,L|303:18,1,37.5000014305115,4|2,0:3|0:0,0:0:0:0:
431,175,32973,2,0,L|445:236,1,37.5000014305115
482,288,33306,6,0,P|423:321|408:349,1,75.000002861023,4|0,0:3|0:0,0:0:0:0:
353,372,33806,2,0,L|284:365,1,37.5000014305115,8|0,0:3|0:0,0:0:0:0:
138,238,34306,1,4,0:3:0:0:
76,295,34473,1,0,0:0:0:0:
106,374,34639,2,0,L|210:363,1,75.000002861023,4|0,0:3|0:0,0:0:0:0:
252,309,35139,2,0,L|262:253,1,37.5000014305115,0|2,0:0|0:0,0:0:0:0:
141,117,35639,1,4,0:3:0:0:
218,147,35806,1,0,0:0:0:0:
261,73,35973,6,0,L|244:-25,1,75.000002861023,4|8,0:3|0:3,0:0:0:0:
335,29,36473,1,0,0:0:0:0:
402,79,36639,2,0,P|485:57|500:43,1,75.000002861023,2|4,0:0|0:3,0:0:0:0:
425,163,37139,1,0,0:0:0:0:
464,258,37306,2,0,L|390:242,1,75.000002861023,4|2,0:3|0:0,0:0:0:0:
330,297,37806,1,0,0:0:0:0:
263,248,37973,1,4,0:3:0:0:
163,384,38306,1,2,0:0:0:0:
237,340,38473,1,2,0:0:0:0:
160,294,38639,1,0,0:0:0:0:
260,133,41306,6,0,B|372:141|314:63|410:52,1,150.000005722046,2|2,0:3|0:3,0:0:0:0:
300,228,42639,2,0,B|237:320|333:309|295:398,1,150.000005722046,2|2,0:3|0:0,0:0:0:0:
202,212,43973,2,0,B|153:111|115:200|57:122,2,150.000005722046,2|2|2,0:3|0:3|0:3,0:0:0:0:
256,384,45973,1,2,0:0:0:0:
395,115,46639,6,0,P|313:113|248:144,1,150.000005722046,2|2,0:3|0:3,0:0:0:0:
252,352,47973,2,0,P|294:281|300:210,1,150.000005722046,2|2,0:3|0:0,0:0:0:0:
119,113,49306,2,0,P|158:185|217:225,2,150.000005722046,2|2|2,0:3|0:3|0:3,2:0:0:0:
256,0,51306,1,2,0:0:0:0:
412,93,51973,6,0,L|250:112,1,150.000005722046,2|2,0:3|0:3,0:0:0:0:
336,257,53306,2,0,L|320:141,1,112.500004291534,2|0,0:3|0:0,0:0:0:0:
412,93,53973,1,2,0:0:0:0:
100,291,54639,2,0,L|262:272,1,150.000005722046,2|2,0:3|0:3,0:0:0:0:
176,127,55972,2,0,L|192:243,1,112.500004291534,2|0,0:3|0:0,0:0:0:0:
100,291,56639,1,2,0:0:0:0:
271,383,57306,6,0,P|305:320|300:234,1,150.000005722046,2|2,0:3|0:3,0:0:0:0:
5,66,58639,2,0,P|42:126|119:165,1,150.000005722046,2|2,0:3|0:0,0:0:0:0:
428,0,59973,2,0,P|356:2|284:49,1,150.000005722046,2|2,0:3|0:3,0:0:0:0:
422,140,61306,2,0,P|404:86|377:153,1,150.000005722046,2|2,0:3|0:0,0:0:0:0:
490,288,62639,6,0,L|326:308,1,150.000005722046,4|2,0:3|0:3,0:0:0:0:
130,180,63973,2,0,P|53:188|-7:243,1,150.000005722046,2|2,0:3|0:0,0:0:0:0:
158,349,64973,2,0,L|170:281,1,37.5000014305115,4|0,0:3|0:0,0:0:0:0:
232,248,65306,6,0,L|206:81,1,150.000005722046,4|2,0:3|0:3,0:0:0:0:
496,363,66639,2,0,B|470:289|470:289|414:349,1,150.000005722046,4|2,0:3|0:0,0:0:0:0:
16,271,67973,6,0,L|185:250,1,150.000005722046,4|2,0:3|0:3,0:0:0:0:
377,348,69306,2,0,P|454:340|514:285,1,150.000005722046,2|2,0:3|0:0,0:0:0:0:
512,87,70306,2,0,L|508:139,1,37.5000014305115,4|0,0:3|0:0,0:0:0:0:
438,239,70639,6,0,L|413:62,1,150.000005722046,4|2,0:3|0:3,0:0:0:0:
274,51,71639,1,4,0:3:0:0:
204,97,71806,1,4,0:3:0:0:
203,255,72139,2,0,P|236:220|257:263,1,112.500004291534,4|2,0:3|0:0,0:0:0:0:
17,55,73306,6,0,L|167:27,1,150.000005722046,4|2,0:3|0:3,0:0:0:0:
376,154,74639,2,0,L|226:126,1,150.000005722046,2|2,0:3|0:0,0:0:0:0:
90,57,75639,2,0,L|83:122,1,37.5000014305115,4|0,0:3|0:0,0:0:0:0:
70,257,75973,6,0,L|220:229,1,150.000005722046,4|2,0:3|0:3,0:0:0:0:
482,34,77306,2,0,B|432:91|432:91|417:4,1,150.000005722046,4|2,0:3|0:0,0:0:0:0:
463,270,78639,2,0,P|389:235|303:248,1,150.000005722046,4|2,0:3|0:3,0:0:0:0:
129,113,79973,2,0,P|203:78|289:91,1,150.000005722046,2|2,0:3|0:0,0:0:0:0:
445,175,80973,1,4,0:3:0:0:
363,150,81139,1,0,0:0:0:0:
425,95,81306,6,0,L|400:269,1,150.000005722046,4|2,0:3|0:3,0:0:0:0:
235,230,82306,1,4,0:3:0:0:
251,307,82473,1,4,0:3:0:0:
90,280,82806,2,0,L|69:380,1,75.000002861023,4|4,0:3|0:3,0:0:0:0:
201,384,83306,2,0,B|208:275|162:321|172:180,1,179.999994506836,2|4,0:0|0:0,0:0:0:0:
86,234,94639,6,0,P|148:180|150:144,1,89.999997253418,4|0,0:0|0:0,0:0:0:0:
195,103,95139,2,0,L|296:88,1,89.999997253418,8|0,0:3|0:0,0:0:0:0:
337,14,95639,1,4,0:3:0:0:
427,131,95973,1,4,0:3:0:0:
364,188,96139,2,0,P|348:254|368:305,1,89.999997253418,0|8,0:0|0:3,0:0:0:0:
401,343,96639,2,0,P|350:310|251:313,1,134.999995880127,2|0,0:0|0:0,0:0:0:0:
201,355,97306,6,0,L|90:335,1,89.999997253418
26,320,97806,2,0,P|17:351|-1:380,2,44.999998626709,8|0|0,0:3|0:0|0:0,0:0:0:0:
3,228,98306,1,4,0:3:0:0:
140,121,98639,2,0,L|124:230,1,89.999997253418,4|0,0:3|0:0,0:0:0:0:
195,263,99139,1,8,0:3:0:0:
244,192,99306,1,2,0:0:0:0:
399,256,99639,6,0,L|389:321,1,44.999998626709
451,186,99973,2,0,P|431:146|359:125,1,89.999997253418,4|0,0:3|0:0,0:0:0:0:
309,95,100473,2,0,L|291:-12,1,89.999997253418,8|0,0:3|0:0,0:0:0:0:
211,1,100973,1,4,0:3:0:0:
166,141,101306,1,0,0:0:0:0:
88,102,101473,2,0,L|-28:122,1,89.999997253418,0|8,0:0|0:3,0:0:0:0:
0,204,101973,2,0,P|32:268|19:319,1,89.999997253418,2|0,0:0|0:0,0:0:0:0:
198,384,102639,6,0,P|166:320|179:269,1,89.999997253418,4|0,0:3|0:0,0:0:0:0:
227,240,103139,2,0,L|323:251,1,89.999997253418,8|0,0:3|0:0,0:0:0:0:
386,196,103639,2,0,L|368:117,1,44.999998626709,4|0,0:3|0:0,0:0:0:0:
332,57,103973,2,0,L|449:69,1,89.999997253418,8|0,0:3|0:0,0:0:0:0:
503,44,104473,2,0,L|484:-17,2,44.999998626709,0|2|0,0:0|0:0|0:0,0:0:0:0:
485,127,104973,1,0,0:0:0:0:
276,139,105306,6,0,P|239:107|135:105,1,150,4|8,0:0|0:3,0:0:0:0:
86,174,105973,1,0,0:0:0:0:
132,249,106139,2,0,L|113:375,1,99.9999999999999
199,383,106639,1,4,0:3:0:0:
262,323,106806,2,0,L|381:309,1,99.9999999999999,0|8,0:0|0:3,0:0:0:0:
441,373,107306,2,0,L|453:294,2,50,2|0|0,0:0|0:0|0:0,0:0:0:0:
512,148,107973,6,0,B|439:118|439:118|356:154,1,150,4|8,0:3|0:3,0:0:0:0:
307,203,108639,1,2,0:0:0:0:
238,146,108806,2,0,P|232:76|246:32,1,99.9999999999999
165,8,109306,1,4,0:3:0:0:
92,58,109473,2,0,P|100:106|93:156,1,99.9999999999999,0|8,0:0|0:3,0:0:0:0:
24,214,109973,2,0,L|-21:136,2,50,2|0|8,0:0|0:0|0:3,0:0:0:0:
237,373,110639,6,0,P|164:373|110:411,1,99.9999999999999,4|0,0:3|0:0,0:0:0:0:
64,332,111139,1,8,0:3:0:0:
110,258,111306,1,0,0:0:0:0:
194,277,111473,2,0,P|204:215|184:144,1,99.9999999999999
291,207,111973,1,4,0:3:0:0:
270,124,112139,2,0,P|239:62|182:30,1,99.9999999999999,0|8,0:0|0:3,0:0:0:0:
148,102,112639,1,2,0:0:0:0:
130,21,112806,1,0,0:0:0:0:
64,79,112973,1,8,0:3:0:0:
266,60,113306,6,0,P|332:77|398:51,1,99.9999999999999,4|0,0:3|0:0,0:0:0:0:
432,127,113806,1,8,0:3:0:0:
506,22,113973,2,0,L|499:88,2,50,0|0|4,0:0|0:0|0:3,0:0:0:0:
311,169,114639,2,0,L|318:235,2,50,4|0|0,0:3|0:0|0:0,0:0:0:0:
324,303,115139,1,8,0:3:0:0:
429,369,115306,2,0,P|352:342|195:339,1,200,2|4,0:0|0:3,0:0:0:0:
146,368,116306,5,4,0:3:0:0:
7,115,117139,2,0,L|16:138,3,18.7500007152557,4|4|4|4,0:3|0:3|0:3|0:3,0:0:0:0:
192,123,129306,6,0,P|198:63|164:5,1,99.9999999999999,4|0,0:0|0:0,0:0:0:0:
110,152,129806,1,8,0:3:0:0:
29,180,129973,2,0,P|23:240|57:298,1,99.9999999999999,0|4,0:0|0:3,0:0:0:0:
199,112,130639,6,0,P|205:52|171:-6,1,99.9999999999999,4|0,0:3|0:0,0:0:0:0:
115,141,131139,1,8,0:3:0:0:
36,169,131306,2,0,P|30:229|64:287,1,99.9999999999999,2|8,0:0|0:3,0:0:0:0:
253,384,131973,6,0,L|369:368,1,99.9999999999999,4|0,0:3|0:0,0:0:0:0:
402,294,132473,1,8,0:3:0:0:
463,361,132639,2,0,L|525:366,1,50
464,231,132973,1,4,0:3:0:0:
274,199,133306,6,0,P|253:116|224:68,1,99.9999999999999,4|0,0:3|0:0,0:0:0:0:
174,62,133806,2,0,L|181:-1,1,50,4|2,0:3|0:0,0:0:0:0:
112,179,134139,1,0,0:0:0:0:
12,100,134306,1,0,0:0:0:0:
256,79,134639,6,0,L|370:67,1,99.9999999999999,4|0,0:3|0:0,0:0:0:0:
428,119,135139,1,8,0:3:0:0:
486,200,135306,2,0,L|386:210,1,99.9999999999999,0|4,0:0|0:3,0:0:0:0:
267,67,135973,6,0,L|381:55,1,99.9999999999999,4|0,0:3|0:0,0:0:0:0:
439,107,136473,1,8,0:3:0:0:
497,188,136640,2,0,L|397:198,1,99.9999999999999,2|8,0:0|0:3,0:0:0:0:
172,256,137306,6,0,P|165:317|200:388,1,99.9999999999999,4|0,0:3|0:0,0:0:0:0:
257,373,137806,1,8,0:3:0:0:
325,314,137973,2,0,L|446:334,1,99.9999999999999,2|4,0:0|0:3,0:0:0:0:
104,133,138639,6,0,L|17:146,1,50,4|0,0:3|0:0,0:0:0:0:
4,211,138973,1,0,0:0:0:0:
189,122,139306,2,0,L|276:109,1,50,2|0,0:0|0:0,0:0:0:0:
289,44,139640,1,0,0:0:0:0:
441,170,139973,6,0,P|398:146|311:157,1,99.9999999999999,4|0,0:0|0:0,0:0:0:0:
286,208,140473,1,8,0:3:0:0:
344,338,140639,2,0,P|393:335|436:311,1,99.9999999999999,0|4,0:0|0:3,0:0:0:0:
340,143,141306,6,0,P|297:168|263:249,1,99.9999999999999,4|0,0:3|0:0,0:0:0:0:
295,296,141806,1,8,0:3:0:0:
442,305,141972,2,0,P|464:260|465:211,1,99.9999999999999,2|0,0:0|0:0,0:0:0:0:
208,277,142639,6,0,L|101:297,1,99.9999999999999,4|0,0:3|0:0,0:0:0:0:
90,206,143139,1,8,0:3:0:0:
7,184,143306,1,2,0:0:0:0:
127,42,143639,2,0,L|133:97,1,50,4|0,0:3|0:0,0:0:0:0:
202,152,143973,6,0,L|310:165,1,99.9999999999999,4|0,0:3|0:0,0:0:0:0:
343,81,144473,1,8,0:3:0:0:
486,104,144639,2,0,L|413:116,2,50,2|0|4,0:0|0:0|0:3,0:0:0:0:
228,240,145306,6,0,P|198:297|213:370,1,99.9999999999999,4|0,0:3|0:0,0:0:0:0:
280,378,145806,1,8,0:3:0:0:
332,231,145973,2,0,L|185:234,1,99.9999999999999,0|4,0:0|0:3,0:0:0:0:
384,93,146639,6,0,P|414:150|399:223,1,99.9999999999999,4|0,0:3|0:0,0:0:0:0:
332,231,147139,1,8,0:3:0:0:
280,84,147306,2,0,L|427:87,1,99.9999999999999,2|4,0:0|0:3,0:0:0:0:
149,267,147973,6,0,P|78:230|27:236,1,99.9999999999999,4|0,0:3|0:0,0:0:0:0:
25,304,148473,2,0,L|32:362,1,50,8|2,0:3|0:0,0:0:0:0:
191,137,148973,2,0,L|181:69,1,50,4|0,0:3|0:0,0:0:0:0:
336,196,149306,6,0,P|371:153|369:91,1,99.9999999999999,4|0,0:3|0:0,0:0:0:0:
285,123,149806,1,8,0:3:0:0:
243,210,149973,2,0,P|265:266|291:286,1,50,2|0,0:0|0:0,0:0:0:0:
367,312,150306,1,4,0:3:0:0:
512,120,150639,6,0,L|377:105,1,99.9999999999999,4|0,0:0|0:0,0:0:0:0:
328,138,151139,1,8,0:3:0:0:
229,60,151306,2,0,P|233:84|245:107,1,50,4|0,0:3|0:0,0:0:0:0:
111,175,151639,1,4,0:3:0:0:
83,0,151973,6,0,L|68:135,1,99.9999999999999,4|0,0:3|0:0,0:0:0:0:
9,161,152473,1,8,0:3:0:0:
3,284,152640,2,0,P|27:280|49:268,2,50,2|0|8,0:0|0:0|0:3,0:0:0:0:
221,384,153306,6,0,L|205:249,1,99.9999999999999,4|0,0:3|0:0,0:0:0:0:
243,159,153806,2,0,L|249:208,1,50,0|2,0:3|0:0,0:0:0:0:
326,266,154139,1,0,0:0:0:0:
388,208,154306,2,0,P|443:217|474:229,1,50,4|0,0:3|0:0,0:0:0:0:
358,127,154639,6,0,L|372:0,1,99.9999999999999,4|0,0:3|0:0,0:0:0:0:
450,15,155139,2,0,L|506:6,1,50,8|2,0:3|0:0,0:0:0:0:
448,128,155473,1,0,0:0:0:0:
490,204,155639,1,4,0:3:0:0:
249,208,155973,6,0,L|233:317,1,99.9999999999999,4|0,0:3|0:0,0:0:0:0:
170,359,156473,1,8,0:3:0:0:
87,384,156639,2,0,P|38:377|3:390,2,50,8|0|4,0:3|0:0|0:3,0:0:0:0:
249,208,157306,6,0,L|139:220,1,99.9999999999999,4|0,0:3|0:0,0:0:0:0:
82,170,157806,1,8,0:3:0:0:
125,93,157972,2,0,P|102:18|49:-11,1,99.9999999999999,2|8,0:0|0:3,0:0:0:0:
22,238,158639,6,0,P|44:312|97:342,1,99.9999999999999,4|0,0:3|0:0,0:0:0:0:
141,367,159139,1,8,0:3:0:0:
165,286,159306,2,0,P|142:211|89:181,1,99.9999999999999,8|4,0:3|0:3,0:0:0:0:
360,281,159973,2,0,L|347:368,1,50,4|0,0:3|0:0,0:0:0:0:
282,381,160307,1,0,0:0:0:0:
371,196,160640,2,0,L|384:109,1,50,2|0,0:0|0:0,0:0:0:0:
449,96,160974,1,4,0:3:0:0:
233,121,161306,6,0,P|195:70|195:0,1,110.000003356934,4|0,0:0|0:0,0:0:0:0:
112,96,161806,1,8,0:3:0:0:
84,179,161973,2,0,P|97:231|118:267,1,55.0000016784668,8|0,0:3|0:0,0:0:0:0:
129,315,162306,1,4,0:3:0:0:
185,252,162473,6,0,L|333:275,1,110.000003356934
368,320,162973,1,0,0:0:0:0:
382,232,163139,1,8,0:3:0:0:
467,213,163306,2,0,L|459:274,2,55.0000016784668,2|0|8,0:0|0:0|0:3,0:0:0:0:
217,125,163973,5,0,0:3:0:0:
304,144,164139,2,0,P|345:85|330:11,1,110.000003356934,0|8,0:0|0:3,0:0:0:0:
251,37,164639,2,0,L|150:18,1,55.0000016784668,8|0,0:3|0:0,0:0:0:0:
131,82,164973,1,4,0:3:0:0:
54,41,165139,1,0,0:0:0:0:
20,164,165306,6,0,L|87:147,1,55.0000016784668,4|0,0:3|0:0,0:0:0:0:
204,118,165639,2,0,L|198:173,1,55.0000016784668,0|8,0:0|0:3,0:0:0:0:
307,259,165973,2,0,L|313:204,1,55.0000016784668,2|0,0:0|0:0,0:0:0:0:
492,214,166306,1,4,0:3:0:0:
364,339,166639,6,0,P|318:305|223:306,1,110.000003356934,4|0,0:0|0:0,0:0:0:0:
185,334,167139,1,8,0:3:0:0:
105,318,167306,2,0,L|92:242,1,55.0000016784668,8|0,0:3|0:0,0:0:0:0:
46,194,167639,1,4,0:3:0:0:
116,141,167806,6,0,L|126:13,1,110.000003356934
41,17,168306,2,0,P|16:42|-36:58,1,55.0000016784668,0|8,0:0|0:3,0:0:0:0:
41,189,168639,2,0,L|28:107,2,55.0000016784668,2|0|0,0:0|0:0|0:0,0:0:0:0:
244,108,169306,6,0,L|298:103,1,55.0000016784668,4|0,0:3|0:0,0:0:0:0:
268,208,169639,2,0,P|241:198|182:190,1,55.0000016784668,0|8,0:0|0:3,0:0:0:0:
126,318,169973,2,0,L|105:413,1,55.0000016784668,8|0,0:3|0:0,0:0:0:0:
140,232,170306,1,4,0:3:0:0:
100,157,170473,1,0,0:0:0:0:
43,224,170639,6,0,P|99:230|144:246,1,55.0000016784668,4|0,0:3|0:0,0:0:0:0:
200,115,170973,2,0,P|194:171|178:216,1,55.0000016784668,0|8,0:0|0:3,0:0:0:0:
312,269,171306,2,0,P|313:241|317:214,1,55.0000016784668,2|0,0:0|0:0,0:0:0:0:
465,169,171639,1,4,0:3:0:0:
299,6,171973,6,0,L|315:162,1,110.000003356934,4|0,0:0|0:0,0:0:0:0:
407,103,172473,1,8,0:3:0:0:
487,69,172639,2,0,P|492:123|465:170,1,110.000003356934,8|4,0:3|0:3,0:0:0:0:
512,256,173139,6,0,P|437:263|385:322,1,110.000003356934
317,267,173639,2,0,L|311:333,1,55.0000016784668,0|8,0:0|0:3,0:0:0:0:
188,382,173973,1,2,0:0:0:0:
224,300,174139,1,0,0:0:0:0:
135,309,174306,1,8,0:3:0:0:
95,140,174639,6,0,L|104:194,1,55.0000016784668,4|0,0:3|0:0,0:0:0:0:
201,49,174973,2,0,L|189:158,1,110.000003356934,0|8,0:0|0:3,0:0:0:0:
369,10,175639,2,0,L|344:81,1,55.0000016784668,4|0,0:3|0:0,0:0:0:0:
340,227,175973,6,0,P|329:196|326:159,1,55.0000016784668,4|0,0:3|0:0,0:0:0:0:
145,260,176306,2,0,P|176:249|213:246,1,55.0000016784668,0|8,0:0|0:3,0:0:0:0:
123,59,176639,2,0,P|134:90|137:127,1,55.0000016784668,2|0,0:0|0:0,0:0:0:0:
320,36,176973,1,8,0:3:0:0:
368,256,177306,6,0,P|425:173|467:165,1,110.000003356934,4|0,0:3|0:0,0:0:0:0:
458,256,177806,1,8,0:3:0:0:
463,361,177973,2,0,L|338:341,1,110.000003356934,8|4,0:3|0:3,0:0:0:0:
256,288,178473,1,0,0:0:0:0:
157,343,178639,6,0,L|49:361,1,110.000003356934,8|4,0:3|0:3,0:0:0:0:
54,256,179139,1,8,0:3:0:0:
144,256,179306,2,0,P|126:204|83:171,1,110.000003356934,2|8,0:0|0:3,0:0:0:0:
32,102,179806,2,0,L|43:22,1,55.0000016784668,0|4,0:0|0:3,0:0:0:0:
163,113,180139,5,0,0:0:0:0:
256,20,180306,1,2,0:0:0:0:
488,263,180639,5,8,0:3:0:0:
357,252,180806,1,4,0:3:0:0:
417,322,181139,5,4,0:3:0:0:
427,192,181306,1,4,0:3:0:0:
256,20,181639,5,4,0:3:0:0:
84,192,181973,5,4,0:3:0:0:
256,363,182306,5,4,0:3:0:0:
