osu file format v14

[General]
AudioFilename: audio.mp3
AudioLeadIn: 0
PreviewTime: 27973
Countdown: 0
SampleSet: Soft
StackLeniency: 0.6
Mode: 0
LetterboxInBreaks: 0
WidescreenStoryboard: 1

[Editor]
DistanceSpacing: 1
BeatDivisor: 4
GridSize: 32
TimelineZoom: 1.2

[Metadata]
Title:EXEC_RIG=VEDA/.
TitleUnicode:EXEC_RIG=VEDA/.
Artist:Mitose Noriko
ArtistUnicode:みとせのりこ
Creator:Shurelia
Version:Normal
Source:アルトネリコ ~世界の終わりで詩い続ける少女~
Tags:mir ar tonelico 1 melody of elemia Sekai no Owari de Utai Tsuzukeru Shoujo The Girl Who Continues to Sing at the End of the World scubdomino gust visual novel jrpg hymn video game japanese
BeatmapID:2239408
BeatmapSetID:1069802

[Difficulty]
HPDrainRate:4.4
CircleSize:3.5
OverallDifficulty:5.5
ApproachRate:5
SliderMultiplier:1.7
SliderTickRate:1

[Events]
//Background and Video events
0,0,"mirbg.jpg",0,0
//Break Periods
2,38839,40106
2,84172,93439
2,118639,128106
//Storyboard Layer 0 (Background)
//Storyboard Layer 1 (Fail)
//Storyboard Layer 2 (Pass)
//Storyboard Layer 3 (Foreground)
//Storyboard Layer 4 (Overlay)
//Storyboard Sound Samples

[TimingPoints]
11973,666.666666666667,4,2,1,45,1,0
27973,-100,4,2,1,53,0,0
28306,-100,4,2,1,45,0,0
28473,-100,4,2,1,53,0,0
29639,-100,4,2,1,45,0,0
29806,-100,4,2,1,53,0,0
34139,-100,4,2,1,45,0,0
34306,-100,4,2,1,53,0,0
35472,-100,4,2,1,45,0,0
35639,-100,4,2,1,53,0,0
41306,-100,4,2,1,33,0,0
62639,-100,4,2,1,45,0,0
105306,-100,4,2,1,53,0,0
129806,-100,4,2,1,55,0,0
133472,-100,4,2,1,45,0,0
133639,-100,4,2,1,55,0,0
134139,-100,4,2,1,45,0,0
134306,-100,4,2,1,55,0,0
138805,-100,4,2,1,45,0,0
138973,-100,4,2,1,55,0,0
139472,-100,4,2,1,45,0,0
139639,-100,4,2,1,55,0,0
144138,-100,4,2,1,45,0,0
144305,-100,4,2,1,55,0,0
144805,-100,4,2,1,45,0,0
144973,-100,4,2,1,55,0,0
149473,-100,4,2,1,45,0,0
149639,-100,4,2,1,55,0,0
150139,-100,4,2,1,45,0,0
150306,-100,4,2,1,55,0,0
154805,-100,4,2,1,45,0,0
154972,-100,4,2,1,55,0,0
161139,-100,4,2,1,45,0,0
161306,-100,4,2,1,55,0,0
171805,-100,4,2,1,45,0,0
171973,-100,4,2,1,55,0,0
175472,-100,4,2,1,45,0,0
175639,-100,4,2,1,55,0,0
176139,-100,4,2,1,45,0,0
176306,-100,4,2,1,55,0,0
176805,-100,4,2,1,45,0,0
176973,-100,4,2,1,55,0,0
178138,-100,4,2,1,45,0,0
178306,-100,4,2,1,55,0,0
179472,-100,4,2,1,45,0,0
179639,-100,4,2,1,55,0,0

[Colours]
Combo1 : 179,175,132
Combo2 : 118,113,138
Combo3 : 184,151,187
Combo4 : 223,219,187

[HitObjects]
256,192,11972,12,0,16639,0:0:0:0:
372,52,17306,6,0,P|414:50|456:45,2,85,6|0|0,0:0|0:0|0:0,0:0:0:0:
290,27,18306,1,4,0:3:0:0:
251,102,18639,2,0,P|208:98|166:91,1,85,4|0,0:3|0:0,0:0:0:0:
120,20,19306,2,0,P|77:24|35:32,1,85,2|0,0:0|0:0,0:0:0:0:
30,116,19972,6,0,P|35:200|37:285,1,170,4|0,0:3|0:0,0:0:0:0:
46,370,20973,1,4,0:3:0:0:
127,348,21306,2,0,P|170:350|212:354,1,85,4|0,0:3|0:0,0:0:0:0:
296,368,21973,2,0,P|338:365|380:361,1,85,2|0,0:0|0:0,0:0:0:0:
426,289,22639,6,0,P|469:293|510:295,2,85,4|0|0,0:3|0:0|0:0,0:0:0:0:
379,217,23639,1,4,0:3:0:0:
298,244,23973,6,0,P|293:203|291:159,1,85,4|0,0:3|0:0,0:0:0:0:
227,103,24639,2,0,P|184:104|142:102,1,85,2|0,0:0|0:0,0:0:0:0:
172,21,25306,6,0,P|254:19|306:82,1,170,4|0,0:3|0:0,0:0:0:0:
372,136,26306,1,4,0:3:0:0:
454,117,26639,5,4,0:3:0:0:
454,117,26973,1,0,0:0:0:0:
484,196,27306,1,2,0:0:0:0:
484,196,27639,1,0,0:0:0:0:
433,264,27973,6,0,P|391:255|347:255,1,85,4|0,0:0|0:0,0:0:0:0:
322,288,28473,2,0,P|280:282|238:277,1,85,8|4,0:3|0:3,0:0:0:0:
196,273,28973,1,4,0:3:0:0:
116,239,29306,2,0,P|118:197|128:156,1,85,4|0,0:3|0:0,0:0:0:0:
165,134,29806,2,0,P|171:93|177:49,1,85,8|4,0:3|0:3,0:0:0:0:
188,8,30306,1,4,0:3:0:0:
258,55,30639,6,0,P|251:97|245:139,1,85,4|0,0:3|0:0,0:0:0:0:
240,181,31139,2,0,P|282:187|322:198,1,85,8|0,0:3|0:0,0:0:0:0:
357,223,31639,1,4,0:3:0:0:
425,272,31973,2,0,P|437:231|429:189,2,85,8|0|2,0:3|0:0|0:0,0:0:0:0:
376,341,32973,1,0,0:0:0:0:
296,311,33306,6,0,P|253:315|211:319,1,85,4|0,0:3|0:0,0:0:0:0:
181,349,33806,2,0,P|138:347|98:333,1,85,8|0,0:3|0:0,0:0:0:0:
67,303,34306,1,4,0:3:0:0:
110,230,34639,2,0,P|107:187|99:145,1,85,4|0,0:3|0:0,0:0:0:0:
69,116,35139,2,0,P|71:73|79:31,1,85
109,1,35639,1,4,0:3:0:0:
191,17,35973,6,0,P|234:18|276:13,2,85,4|8|2,0:3|0:3|0:0,0:0:0:0:
167,99,36973,1,4,0:3:0:0:
209,172,37306,2,0,P|251:169|293:169,1,85,4|2,0:3|0:0,0:0:0:0:
301,254,37973,2,0,P|258:253|216:251,1,85,4|2,0:3|0:0,0:0:0:0:
210,336,38639,5,2,0:0:0:0:
296,64,41306,6,0,P|380:70|465:73,2,170,2|2|2,0:3|0:3|0:3,0:0:0:0:
129,29,43306,1,2,0:0:0:0:
25,163,43973,2,0,P|13:247|6:331,2,170,2|2|2,0:3|0:3|0:3,0:0:0:0:
167,255,45973,1,2,0:0:0:0:
167,255,46639,6,0,P|230:306|309:284,2,170,2|2|2,0:3|0:3|0:3,0:0:0:0:
59,122,48639,2,0,P|137:90|222:95,1,170,2|2,0:0|0:3,0:0:0:0:
337,220,49973,1,2,0:3:0:0:
459,101,50639,2,0,P|450:185|440:270,1,170,2|2,0:3|0:0,0:0:0:0:
438,276,51973,6,0,P|353:279|268:275,2,170,2|2|2,0:3|0:3|0:3,0:0:0:0:
363,118,53973,1,2,0:0:0:0:
213,37,54639,2,0,P|128:35|43:27,2,170,2|2|2,0:3|0:3|0:3,0:0:0:0:
115,176,56639,1,2,0:0:0:0:
115,176,57306,6,0,P|108:260|103:345,2,170,2|2|2,0:3|0:3|0:3,0:0:0:0:
218,310,59306,2,0,P|302:293|387:288,1,170,2|2,0:0|0:3,0:0:0:0:
498,159,60639,2,0,P|414:142|329:137,1,170,2|2,0:3|0:3,0:0:0:0:
192,35,61973,1,2,0:0:0:0:
192,35,62639,6,0,P|166:115|176:198,1,170,4|2,0:3|0:3,0:0:0:0:
317,293,63973,2,0,P|326:209|300:129,1,170,2|2,0:3|0:0,0:0:0:0:
261,52,64973,1,4,0:3:0:0:
344,35,65306,2,0,B|408:53|452:35|452:35|449:60|457:94,1,170,4|2,0:3|0:3,0:0:0:0:
426,264,66639,1,4,0:3:0:0:
303,145,67306,1,2,0:0:0:0:
187,269,67973,6,0,P|103:282|18:288,1,170,4|2,0:3|0:3,0:0:0:0:
100,140,69306,2,0,P|183:126|268:120,1,170,2|2,0:3|0:0,0:0:0:0:
337,169,70306,1,4,0:3:0:0:
412,129,70639,2,0,B|392:73|391:18|391:18|365:35|336:32,1,170,4|2,0:3|0:3,0:0:0:0:
253,15,71639,1,4,0:3:0:0:
169,32,71973,2,0,P|172:114|112:171,1,170,4|2,0:3|0:0,0:0:0:0:
112,186,73306,6,0,P|194:181|242:246,1,170,4|2,0:3|0:3,0:0:0:0:
104,345,74639,2,0,P|185:324|269:334,1,170,2|2,0:3|0:0,0:0:0:0:
350,361,75639,1,4,0:3:0:0:
431,336,75973,2,0,P|427:251|422:166,1,170,4|2,0:3|0:3,0:0:0:0:
348,12,77306,1,4,0:3:0:0:
179,33,77973,1,2,0:0:0:0:
178,33,78639,6,0,P|96:53|12:53,1,170,4|2,0:3|0:3,0:0:0:0:
116,186,79973,2,0,P|137:269|133:353,1,170,2|2,0:3|0:0,0:0:0:0:
218,343,80973,1,4,0:3:0:0:
301,326,81306,2,0,P|296:241|317:159,1,170,4|2,0:3|0:3,0:0:0:0:
365,88,82306,2,0,P|385:83|405:76,1,42.5,4|4,0:3|0:3,0:0:0:0:
448,81,82639,2,0,P|468:87|488:92,1,42.5,4|4,0:3|0:3,0:0:0:0:
510,216,83306,6,0,P|432:210|404:284,1,170,2|4,0:0|0:0,0:0:0:0:
91,65,94639,6,0,P|155:64|218:54,1,127.5,4|8,0:0|0:3,0:0:0:0:
338,11,95639,1,4,0:3:0:0:
393,75,95973,2,0,P|378:158|379:243,1,170,4|2,0:3|0:0,0:0:0:0:
235,332,97306,6,0,P|171:323|108:325,1,127.5,4|8,0:3|0:3,0:0:0:0:
22,230,98306,1,4,0:3:0:0:
75,163,98640,2,0,P|146:120|225:143,1,170,4|2,0:3|0:0,0:0:0:0:
259,169,99473,1,0,0:0:0:0:
259,169,99639,1,0,0:0:0:0:
316,231,99973,6,0,P|380:222|442:218,1,127.5,4|8,0:3|0:3,0:0:0:0:
466,93,100973,1,4,0:3:0:0:
402,35,101307,2,0,B|363:2|288:69|240:20,1,170,0|2,0:0|0:0,0:0:0:0:
80,80,102640,6,0,P|85:143|81:207,1,127.5,4|8,0:3|0:3,0:0:0:0:
70,334,103640,1,4,0:3:0:0:
152,317,103974,2,0,P|237:321|322:330,1,170,8|2,0:3|0:0,0:0:0:0:
351,361,104807,1,0,0:0:0:0:
351,361,104973,1,0,0:0:0:0:
427,323,105306,6,0,P|432:259|437:195,2,127.5,4|8|4,0:0|0:3|0:3,0:0:0:0:
350,361,106639,2,0,P|309:354|266:351,1,85,4|0,0:3|0:0,0:0:0:0:
225,366,107140,1,8,0:3:0:0:
225,366,107306,2,0,P|231:303|210:243,1,127.5,2|0,0:0|0:0,0:0:0:0:
168,233,107973,6,0,P|106:225|41:213,2,127.5,4|8|4,0:3|0:3|0:3,0:0:0:0:
216,163,109306,2,0,P|258:162|300:157,1,85,4|0,0:3|0:0,0:0:0:0:
343,153,109806,1,8,0:3:0:0:
385,146,109973,2,0,P|394:127|404:108,2,42.5,2|0|8,0:0|0:0|0:3,0:0:0:0:
439,211,110640,6,0,P|429:273|426:337,2,127.5,4|8|4,0:3|0:3|0:3,0:0:0:0:
502,156,111973,2,0,P|495:113|487:72,1,85,4|0,0:3|0:0,0:0:0:0:
464,36,112473,1,8,0:3:0:0:
464,36,112640,2,0,P|426:18|385:27,1,85,2|8,0:0|0:3,0:0:0:0:
366,109,113306,6,0,P|305:125|246:103,2,127.5,4|8|4,0:3|0:3|0:3,0:0:0:0:
310,45,114640,2,0,P|275:21|233:16,1,85,4|0,0:3|0:0,0:0:0:0:
190,18,115140,1,8,0:3:0:0:
190,18,115306,2,0,P|168:18|147:21,1,42.5,2|0,0:0|0:0,0:0:0:0:
105,29,115640,1,0,0:0:0:0:
44,88,115973,6,0,P|43:131|45:173,1,85,4|4,0:3|0:3,0:0:0:0:
231,275,117139,2,0,P|233:297|236:318,3,42.5,4|4|4|4,0:3|0:3|0:3|0:3,0:0:0:0:
51,77,129306,6,0,P|115:79|177:66,1,127.5,4|8,0:0|0:3,0:0:0:0:
212,41,129973,2,0,P|233:43|254:44,1,42.5
290,64,130306,1,4,0:3:0:0:
372,42,130639,1,4,0:3:0:0:
452,71,130973,1,0,0:0:0:0:
468,153,131306,2,0,P|489:160|509:165,2,42.5,2|0|8,0:0|0:0|0:3,0:0:0:0:
386,131,131973,6,0,P|381:195|387:258,1,127.5,4|8,0:3|0:3,0:0:0:0:
442,373,132973,1,4,0:3:0:0:
356,373,133306,1,4,0:3:0:0:
287,323,133639,1,0,0:0:0:0:
215,368,133973,2,0,P|193:365|173:360,1,42.5,2|0,0:0|0:0,0:0:0:0:
136,339,134306,1,0,0:0:0:0:
61,380,134639,6,0,P|54:317|89:266,1,127.5,4|8,0:3|0:3,0:0:0:0:
120,237,135306,2,0,P|119:216|115:195,1,42.5
98,156,135639,1,4,0:3:0:0:
113,72,135972,1,4,0:3:0:0:
183,24,136306,1,0,0:0:0:0:
264,46,136639,2,0,P|284:42|305:37,2,42.5,2|0|8,0:0|0:0|0:3,0:0:0:0:
233,126,137306,6,0,P|297:125|355:150,1,127.5,4|8,0:3|0:3,0:0:0:0:
405,268,138306,1,4,0:3:0:0:
476,222,138639,1,4,0:3:0:0:
441,143,138973,1,0,0:0:0:0:
470,64,139306,2,0,P|468:42|464:21,1,42.5,2|0,0:0|0:0,0:0:0:0:
423,10,139639,1,0,0:0:0:0:
350,54,139973,6,0,P|286:52|222:46,1,127.5,4|8,0:0|0:3,0:0:0:0:
200,9,140639,2,0,P|157:13|115:16,1,85,0|4,0:0|0:3,0:0:0:0:
55,75,141306,2,0,P|61:139|66:203,1,127.5,4|8,0:3|0:3,0:0:0:0:
36,233,141973,2,0,P|41:276|50:317,1,85,2|0,0:0|0:0,0:0:0:0:
121,272,142639,6,0,P|182:263|221:310,1,127.5,4|8,0:3|0:3,0:0:0:0:
245,345,143306,2,0,P|250:303|272:267,1,85,2|4,0:0|0:3,0:0:0:0:
324,334,143972,2,0,P|343:341|364:343,2,42.5,4|0|0,0:3|0:0|0:0,0:0:0:0:
352,252,144639,2,0,P|354:231|351:210,1,42.5,2|0,0:0|0:0,0:0:0:0:
334,171,144973,1,4,0:3:0:0:
298,92,145306,6,0,P|359:76|389:23,1,127.5,4|8,0:3|0:3,0:0:0:0:
432,20,145973,2,0,P|433:63|439:105,1,85,8|4,0:3|0:3,0:0:0:0:
393,176,146639,2,0,P|377:235|424:272,1,127.5,4|8,0:3|0:3,0:0:0:0:
419,315,147306,2,0,P|378:303|335:302,1,85,2|4,0:0|0:3,0:0:0:0:
267,352,147973,6,0,P|205:368|145:349,1,127.5,4|8,0:3|0:3,0:0:0:0:
124,313,148639,2,0,P|81:316|39:319,1,85,2|4,0:0|0:3,0:0:0:0:
28,234,149306,1,4,0:3:0:0:
28,234,149473,1,0,0:0:0:0:
28,234,149639,1,0,0:0:0:0:
87,172,149973,2,0,P|85:151|83:130,1,42.5,2|0,0:0|0:0,0:0:0:0:
53,100,150306,2,0,P|54:78|56:57,1,42.5,4|0,0:3|0:0,0:0:0:0:
80,21,150639,6,0,P|140:43|204:43,1,127.5,4|8,0:0|0:3,0:0:0:0:
234,73,151305,2,0,P|273:77|316:55,1,85,4|4,0:3|0:3,0:0:0:0:
376,1,151972,2,0,P|397:60|374:118,1,127.5,4|8,0:3|0:3,0:0:0:0:
350,153,152639,2,0,P|307:154|269:172,1,85,2|8,0:0|0:3,0:0:0:0:
221,242,153306,6,0,P|158:225|95:233,1,127.5,4|0,0:3|0:3,0:0:0:0:
69,265,153973,2,0,P|67:222|62:180,1,85,2|4,0:0|0:3,0:0:0:0:
93,100,154639,2,0,P|76:89|61:73,2,42.5,4|0|0,0:3|0:0|0:0,0:0:0:0:
174,124,155306,2,0,P|195:122|216:121,1,42.5,2|0,0:0|0:0,0:0:0:0:
259,118,155639,1,4,0:3:0:0:
310,183,155972,6,0,P|325:246|328:309,1,127.5,4|4,0:3|0:3,0:0:0:0:
345,347,156639,2,0,P|371:315|411:323,1,85,8|4,0:3|0:3,0:0:0:0:
457,251,157305,2,0,P|443:188|437:125,1,127.5,4|8,0:3|0:3,0:0:0:0:
438,82,157972,2,0,P|395:80|354:70,1,85,2|8,0:0|0:3,0:0:0:0:
282,24,158639,6,0,P|219:39|156:44,1,127.5,4|8,0:3|0:3,0:0:0:0:
125,73,159305,2,0,P|156:99|139:135,1,85,8|4,0:3|0:3,0:0:0:0:
68,182,159972,1,4,0:3:0:0:
68,182,160139,1,0,0:0:0:0:
68,182,160305,1,0,0:0:0:0:
71,267,160639,2,0,P|92:266|113:266,1,42.5,2|0,0:0|0:0,0:0:0:0:
150,287,160973,2,0,P|171:287|192:286,1,42.5,4|0,0:3|0:0,0:0:0:0:
227,262,161306,6,0,P|286:252|321:302,1,127.5,4|8,0:0|0:3,0:0:0:0:
330,344,161973,1,8,0:3:0:0:
409,373,162306,1,4,0:3:0:0:
448,298,162639,2,0,P|433:236|396:184,1,127.5,4|8,0:3|0:3,0:0:0:0:
359,162,163306,1,2,0:0:0:0:
279,192,163639,1,8,0:3:0:0:
211,140,163973,6,0,P|226:78|262:26,1,127.5,0|8,0:3|0:3,0:0:0:0:
303,16,164639,1,8,0:3:0:0:
378,55,164973,1,4,0:3:0:0:
453,17,165306,2,0,P|475:19|496:18,2,42.5,4|0|0,0:3|0:0|0:0,0:0:0:0:
450,103,165972,2,0,P|452:124|455:145,1,42.5,2|0,0:0|0:0,0:0:0:0:
462,187,166306,1,4,0:3:0:0:
480,269,166639,6,0,P|416:276|353:287,1,127.5,4|8,0:0|0:3,0:0:0:0:
313,301,167306,1,8,0:3:0:0:
239,343,167639,1,4,0:3:0:0:
167,297,167972,2,0,P|109:272|50:292,1,127.5,4|8,0:3|0:3,0:0:0:0:
29,329,168639,1,2,0:0:0:0:
108,360,168973,1,4,0:3:0:0:
166,297,169306,6,0,P|174:233|158:172,1,127.5,4|8,0:3|0:3,0:0:0:0:
140,133,169973,1,8,0:3:0:0:
72,81,170306,1,4,0:3:0:0:
124,16,170639,1,4,0:3:0:0:
124,16,170806,1,0,0:0:0:0:
124,16,170973,1,0,0:0:0:0:
205,43,171306,2,0,P|225:38|246:36,1,42.5,2|0,0:0|0:0,0:0:0:0:
282,12,171639,1,4,0:3:0:0:
356,55,171973,6,0,P|413:30|471:52,1,127.5,4|8,0:0|0:3,0:0:0:0:
475,95,172639,2,0,P|468:115|465:135,1,42.5,8|0,0:3|0:0,0:0:0:0:
463,178,172973,1,4,0:3:0:0:
394,228,173306,2,0,P|330:224|267:215,1,127.5,4|8,0:3|0:3,0:0:0:0:
244,178,173972,2,0,P|224:173|203:174,1,42.5,2|0,0:0|0:0,0:0:0:0:
162,187,174306,1,8,0:3:0:0:
108,121,174639,6,0,P|80:177|89:239,1,127.5,4|8,0:3|0:3,0:0:0:0:
112,274,175306,2,0,P|133:280|154:281,1,42.5,8|0,0:3|0:0,0:0:0:0:
195,285,175639,1,4,0:3:0:0:
265,335,175973,1,4,0:3:0:0:
347,354,176306,1,0,0:0:0:0:
424,322,176639,2,0,P|444:318|466:316,1,42.5,2|0,0:0|0:0,0:0:0:0:
508,324,176973,1,8,0:3:0:0:
490,240,177306,6,0,P|479:177|467:114,1,127.5,4|8,0:3|0:3,0:0:0:0:
446,75,177972,2,0,P|426:71|405:71,1,42.5,8|0,0:3|0:0,0:0:0:0:
362,78,178306,1,4,0:3:0:0:
287,118,178639,2,0,P|275:180|264:243,1,127.5,4|8,0:3|0:3,0:0:0:0:
256,285,179306,2,0,P|234:283|214:288,1,42.5,2|0,0:0|0:0,0:0:0:0:
175,306,179639,1,8,0:3:0:0:
91,323,179973,5,4,0:3:0:0:
51,307,180139,1,0,0:0:0:0:
12,288,180306,2,0,P|22:225|28:161,1,127.5,2|4,0:0|0:3,0:0:0:0:
38,77,181139,1,4,0:3:0:0:
66,46,181306,2,0,P|88:45|109:43,1,42.5,4|4,0:3|0:3,0:0:0:0:
150,31,181639,1,4,0:3:0:0:
224,71,181973,2,0,P|245:73|266:73,1,42.5,4|4,0:3|0:3,0:0:0:0:
308,67,182306,5,4,0:3:0:0:
