osu file format v14

[General]
AudioFilename: audio.mp3
AudioLeadIn: 0
PreviewTime: 27973
Countdown: 0
SampleSet: Soft
StackLeniency: 0.4
Mode: 0
LetterboxInBreaks: 0
WidescreenStoryboard: 1

[Editor]
Bookmarks: 17251,27918,41251,62584,83918,105251,129251,150584,171918,182584
DistanceSpacing: 1.4
BeatDivisor: 8
GridSize: 16
TimelineZoom: 1.1

[Metadata]
Title:EXEC_RIG=VEDA/.
TitleUnicode:EXEC_RIG=VEDA/.
Artist:Mitose Noriko
ArtistUnicode:みとせのりこ
Creator:Shurelia
Version:Mir
Source:アルトネリコ ~世界の終わりで詩い続ける少女~
Tags:mir ar tonelico 1 melody of elemia Sekai no Owari de Utai Tsuzukeru Shoujo The Girl Who Continues to Sing at the End of the World scubdomino gust visual novel jrpg hymn video game japanese
BeatmapID:2239407
BeatmapSetID:1069802

[Difficulty]
HPDrainRate:6
CircleSize:4
OverallDifficulty:8
ApproachRate:8.5
SliderMultiplier:2.5
SliderTickRate:1

[Events]
//Background and Video events
0,0,"mirbg.jpg",0,0
//Break Periods
2,84173,91298
2,118639,128631
//Storyboard Layer 0 (Background)
//Storyboard Layer 1 (Fail)
//Storyboard Layer 2 (Pass)
//Storyboard Layer 3 (Foreground)
//Storyboard Layer 4 (Overlay)
//Storyboard Sound Samples

[TimingPoints]
11973,666.666666666667,4,2,1,45,1,0
17306,-66.6666666666667,4,2,1,45,0,0
17639,-83.3333333333333,4,2,1,45,0,0
19306,-133.333333333333,4,2,1,45,0,0
19973,-83.3333333333333,4,2,1,45,0,0
21306,-83.3333333333333,4,2,1,45,0,0
24639,-133.333333333333,4,2,1,45,0,0
25306,-83.3333333333333,4,2,1,45,0,0
26639,-100,4,2,1,45,0,0
27973,-83.3333333333333,4,2,1,53,0,0
41306,-125,4,2,1,33,0,0
45306,-166.666666666667,4,2,1,33,0,0
47306,-142.857142857143,4,2,1,33,0,0
47973,-125,4,2,1,33,0,0
48639,-142.857142857143,4,2,1,33,0,0
49306,-125,4,2,1,33,0,0
49973,-142.857142857143,4,2,1,33,0,0
50639,-222.222222222222,4,2,1,33,0,0
51973,-125,4,2,1,33,0,0
54639,-166.666666666667,4,2,1,33,0,0
55973,-166.666666666667,4,2,1,33,0,0
57973,-142.857142857143,4,2,1,33,0,0
58639,-153.846153846153,4,2,1,33,0,0
59306,-100,4,2,1,33,0,0
59973,-166.666666666667,4,2,1,33,0,0
60640,-142.857142857143,4,2,1,33,0,0
61306,-206.185567010309,4,2,1,33,0,0
62639,-145.985401459854,4,2,1,45,0,0
63973,-127.388535031847,4,2,1,45,0,0
64639,-145.985401459854,4,2,1,45,0,0
65306,-145.985401459854,4,2,1,45,0,0
66639,-170.940170940171,4,2,1,45,0,0
67306,-206.185567010309,4,2,1,45,0,0
67973,-145.985401459854,4,2,1,45,0,0
69306,-127.388535031847,4,2,1,45,0,0
69973,-112.994350282486,4,2,1,45,0,0
70639,-145.985401459854,4,2,1,45,0,0
74639,-127.388535031847,4,2,1,45,0,0
75306,-112.994350282486,4,2,1,45,0,0
75973,-145.985401459854,4,2,1,45,0,0
77306,-170.940170940171,4,2,1,45,0,0
77973,-206.185567010309,4,2,1,45,0,0
78639,-145.985401459854,4,2,1,45,0,0
79973,-127.388535031847,4,2,1,45,0,0
80639,-112.994350282486,4,2,1,45,0,0
81306,-145.985401459854,4,2,1,45,0,0
94473,-145.985401459854,4,2,1,5,0,0
94639,-66.6666666666667,4,2,1,45,0,0
94973,-83.3333333333333,4,2,1,45,0,0
95973,-66.6666666666667,4,2,1,45,0,0
96306,-83.3333333333333,4,2,1,45,0,0
97306,-66.6666666666667,4,2,1,45,0,0
97639,-83.3333333333333,4,2,1,45,0,0
99223,-66.6666666666667,4,2,1,45,0,0
99556,-83.3333333333333,4,2,1,45,0,0
99973,-66.6666666666667,4,2,1,45,0,0
105306,-62.5,4,2,1,53,0,0
129639,-76.9230769230769,4,2,1,55,0,0
130639,-62.5,4,2,1,55,0,0
130972,-76.9230769230769,4,2,1,55,0,0
133306,-62.5,4,2,1,55,0,0
133639,-76.9230769230769,4,2,1,55,0,0
134639,-62.5,4,2,1,55,0,0
134972,-76.9230769230769,4,2,1,55,0,0
135973,-62.5,4,2,1,55,0,0
136306,-76.9230769230769,4,2,1,55,0,0
138639,-62.5,4,2,1,55,0,0
138972,-76.9230769230769,4,2,1,55,0,0
139306,-62.5,4,2,1,55,0,0
139639,-76.9230769230769,4,2,1,55,0,0
139973,-62.5,4,2,1,55,0,0
140306,-76.9230769230769,4,2,1,55,0,0
141306,-62.5,4,2,1,55,0,0
141639,-76.9230769230769,4,2,1,55,0,0
142639,-62.5,4,2,1,55,0,0
142972,-76.9230769230769,4,2,1,55,0,0
143973,-62.5,4,2,1,55,0,0
144306,-76.9230769230769,4,2,1,55,0,0
145306,-62.5,4,2,1,55,0,0
145639,-76.9230769230769,4,2,1,55,0,0
146639,-62.5,4,2,1,55,0,0
146972,-76.9230769230769,4,2,1,55,0,0
149306,-62.5,4,2,1,55,0,0
149639,-76.9230769230769,4,2,1,55,0,0
149973,-62.5,4,2,1,55,0,0
150306,-76.9230769230769,4,2,1,55,0,0
160973,-125,4,2,1,55,0,0
161306,-71.4285714285714,4,2,1,55,0,0
166306,-125,4,2,1,55,0,0
166639,-71.4285714285714,4,2,1,55,0,0
171639,-125,4,2,1,55,0,0
171973,-62.5,4,2,1,55,0,0
172306,-76.9230769230769,4,2,1,55,0,0
173306,-62.5,4,2,1,55,0,0
173639,-76.9230769230769,4,2,1,55,0,0
175973,-62.5,4,2,1,55,0,0
176306,-76.9230769230769,4,2,1,55,0,0
176639,-62.5,4,2,1,55,0,0
176972,-76.9230769230769,4,2,1,55,0,0
177306,-62.5,4,2,1,55,0,0
181306,-100,4,2,1,55,0,0

[Colours]
Combo1 : 179,175,132
Combo2 : 118,113,138
Combo3 : 184,151,187
Combo4 : 223,219,187

[HitObjects]
256,192,11973,12,0,16639,0:0:0:0:
14,298,17306,6,0,B|-1:210|32:253|21:152,1,140.625005364418,6|0,0:0|0:0,0:0:0:0:
32,171,17639,2,0,P|74:200|117:194,1,74.9999977111817
169,165,17973,1,0,0:0:0:0:
294,243,18306,1,4,0:3:0:0:
390,327,18639,6,0,B|321:338|355:313|277:321,1,112.499996566773,4|0,0:3|0:0,0:0:0:0:
274,309,18972,2,0,P|296:276|291:239,1,74.9999977111817
235,183,19306,2,0,L|311:104,1,93.7500035762788,2|0,0:0|0:0,0:0:0:0:
498,226,19973,38,0,B|489:150|515:185|503:115,1,112.499996566773,4|0,0:3|0:0,0:0:0:0:
424,108,20306,2,0,P|469:104|501:128,1,74.9999977111817
417,213,20640,1,0,0:0:0:0:
259,280,20973,1,4,0:3:0:0:
111,346,21306,6,0,P|184:327|237:379,1,149.999995422363,4|0,0:3|0:0,0:0:0:0:
405,108,21973,2,0,P|332:127|279:75,1,149.999995422363,2|0,0:0|0:0,0:0:0:0:
83,229,22639,38,0,L|229:242,1,112.499996566773,4|0,0:3|0:0,0:0:0:0:
200,235,22973,2,0,P|214:192|205:165,1,74.9999977111817
118,146,23306,1,0,0:0:0:0:
313,143,23639,1,4,0:3:0:0:
430,149,23973,6,0,L|284:136,1,112.499996566773,4|0,0:3|0:0,0:0:0:0:
313,143,24307,2,0,P|299:186|308:213,1,74.9999977111817
460,300,24639,2,0,L|395:232,1,93.7500035762788,2|0,0:0|0:0,0:0:0:0:
266,368,25306,38,0,L|143:357,1,112.499996566773,4|0,0:3|0:0,0:0:0:0:
140,285,25639,2,0,P|147:353|128:376,1,74.9999977111817
51,376,25973,1,0,0:0:0:0:
92,201,26306,1,4,0:3:0:0:
132,25,26639,6,0,P|202:45|256:0,1,125,4|0,0:3|0:0,0:0:0:0:
380,291,27306,2,0,P|310:271|256:317,1,125,2|0,0:0|0:0,0:0:0:0:
389,48,27973,5,4,0:0:0:0:
450,126,28139,2,0,P|378:141|312:107,1,149.999995422363,0|8,0:0|0:3,0:0:0:0:
277,36,28639,1,4,0:3:0:0:
207,74,28806,1,0,0:0:0:0:
240,145,28973,1,4,0:3:0:0:
240,145,29306,5,4,0:3:0:0:
318,196,29473,2,0,P|250:227|177:215,1,149.999995422363,0|8,0:0|0:3,0:0:0:0:
95,178,29973,1,2,0:0:0:0:
19,228,30139,1,4,0:3:0:0:
87,279,30306,1,4,0:3:0:0:
87,279,30639,38,0,P|155:312|229:315,1,149.999995422363,4|0,0:3|0:0,0:0:0:0:
307,267,31139,1,8,0:3:0:0:
371,328,31306,2,0,P|407:337|441:351,1,74.9999977111817
462,254,31639,2,0,P|424:249|390:236,1,74.9999977111817,4|0,0:3|0:0,0:0:0:0:
359,136,31973,2,0,P|397:141|432:155,1,74.9999977111817,8|0,0:3|0:0,0:0:0:0:
290,208,32306,2,0,P|255:221|217:226,1,74.9999977111817,0|4,0:0|0:3,0:0:0:0:
46,120,32639,2,0,P|46:83|54:46,1,74.9999977111817,2|0,0:0|0:0,0:0:0:0:
247,66,32973,2,0,P|247:103|239:140,1,74.9999977111817
30,340,33306,6,0,P|81:318|137:317,1,112.499996566773,4|0,0:3|0:0,0:0:0:0:
158,254,33639,2,0,P|166:290|180:325,1,74.9999977111817,0|8,0:0|0:3,0:0:0:0:
404,261,33973,2,0,P|352:282|296:283,1,112.499996566773
275,347,34306,2,0,P|266:310|252:275,1,74.9999977111817,4|0,0:3|0:0,0:0:0:0:
24,310,34639,38,0,P|75:288|131:287,1,112.499996566773,4|0,0:3|0:0,0:0:0:0:
152,224,34972,2,0,P|160:260|174:295,1,74.9999977111817
398,231,35306,2,0,P|346:252|290:253,1,112.499996566773,2|0,0:0|0:0,0:0:0:0:
269,317,35639,2,0,P|260:280|246:245,1,74.9999977111817,4|0,0:3|0:0,0:0:0:0:
444,55,35973,6,0,P|393:79|337:74,1,112.499996566773,4|0,0:3|0:0,0:0:0:0:
297,53,36306,2,0,P|241:48|190:71,1,112.499996566773,8|0,0:3|0:0,0:0:0:0:
166,110,36639,2,0,P|115:133|59:128,1,112.499996566773,2|0,0:0|0:0,0:0:0:0:
25,158,36973,2,0,P|39:212|41:268,1,112.499996566773,4|0,0:3|0:0,0:0:0:0:
197,354,37306,2,0,P|252:350|307:336,1,112.499996566773,4|0,0:3|0:0,0:0:0:0:
342,310,37639,2,0,P|348:273|350:235,1,74.9999977111817,2|0,0:0|0:0,0:0:0:0:
173,335,37973,2,0,P|228:330|282:314,1,112.499996566773,4|0,0:3|0:0,0:0:0:0:
313,280,38306,2,0,P|319:243|322:206,1,74.9999977111817,2|0,0:0|0:0,0:0:0:0:
156,238,38639,37,4,0:0:0:0:
7,46,41306,22,0,B|104:57|41:99|151:113,1,150,2|0,0:3|0:0,0:0:0:0:
215,96,41973,2,0,B|215:54|256:40|256:40|297:54|297:96,1,150,2|0,0:3|0:0,0:0:0:0:
375,111,42639,2,0,B|470:99|406:57|504:45,1,150,2|0,0:3|0:0,0:0:0:0:
507,127,43306,5,2,0:0:0:0:
505,326,43973,38,0,B|407:314|470:272|360:258,1,150,2|0,0:3|0:0,0:0:0:0:
297,276,44640,2,0,B|297:317|255:331|255:331|214:317|214:276,1,150,2|0,0:3|0:0,0:0:0:0:
136,260,45306,2,0,B|40:271|104:313|6:325,1,150,2|2,0:3|0:0,0:0:0:0:
8,325,46639,6,0,P|40:271|16:198,1,112.499996566773,2|0,0:3|0:0,0:0:0:0:
0,156,47306,2,0,P|51:114|131:150,1,131.249995994568,2|0,0:3|0:0,0:0:0:0:
117,206,47973,2,0,P|131:258|216:257,1,150,2|0,0:3|0:0,0:0:0:0:
268,384,48639,38,0,P|256:337|244:384,1,131.249995994568,2|0,0:0|0:0,0:0:0:0:
297,258,49306,6,0,P|365:269|395:206,1,150,2|0,0:3|0:0,0:0:0:0:
401,126,49973,2,0,P|463:114|512:156,1,131.249995994568,2|0,0:3|0:0,0:0:0:0:
478,223,50639,2,0,P|473:278|504:325,1,112.499996566773,2|2,0:3|0:0,0:0:0:0:
504,325,51973,38,0,B|412:312|468:265|380:248,1,150,2|0,0:3|0:0,0:0:0:0:
376,211,52639,2,0,B|290:227|346:274|254:287,1,150,2|0,0:3|0:0,0:0:0:0:
258,97,53306,6,0,B|166:110|222:157|136:173,1,150,2|0,0:3|0:0,0:0:0:0:
129,135,53973,2,0,B|43:118|99:71|7:58,1,150,2|0,0:0|0:0,0:0:0:0:
136,172,54639,38,0,P|192:191|212:238,1,112.499996566773,2|0,0:3|0:0,0:0:0:0:
300,236,55306,2,0,P|323:187|376:172,1,112.499996566773,2|0,0:3|0:0,0:0:0:0:
383,135,55973,2,0,B|468:118|412:71|504:58,1,150,2|2,0:3|0:0,0:0:0:0:
458,75,57306,6,0,P|385:66|361:13,1,112.499996566773,2|0,0:3|0:0,0:0:0:0:
292,0,57973,2,0,P|245:40|256:143,1,131.249995994568,2|0,0:3|0:0,0:0:0:0:
146,172,58639,2,0,P|87:146|61:87,1,121.874994421006,2|0,0:3|0:0,0:0:0:0:
121,2,59306,38,0,P|181:3|234:111,1,187.5,2|0,0:0|0:0,0:0:0:0:
145,171,59973,6,0,P|107:131|53:134,1,112.499996566773,2|0,0:3|0:0,0:0:0:0:
219,209,60640,2,0,P|266:169|255:66,1,131.249995994568,2|0,0:3|0:0,0:0:0:0:
364,36,61306,2,0,P|419:57|447:110,1,121.250002867699,2|2,0:3|0:0,0:0:0:0:
447,143,62639,6,0,P|383:142|326:169,1,128.437503625631,4|0,0:3|0:0,0:0:0:0:
253,213,63306,2,0,P|240:150|198:102,1,128.437503625631,2|0,0:3|0:0,0:0:0:0:
92,52,63973,2,0,P|81:123|110:190,1,147.187500561476,2|0,0:3|0:0,0:0:0:0:
198,58,64639,1,2,0:0:0:0:
198,58,64973,2,0,P|196:79|197:100,1,42.8125012085438,4|0,0:3|0:0,0:0:0:0:
275,235,65306,6,0,P|338:238|396:264,1,128.437503625631,4|0,0:3|0:0,0:0:0:0:
313,334,65973,2,0,P|249:331|191:305,1,128.437503625631,2|0,0:3|0:0,0:0:0:0:
286,129,66639,2,0,P|291:183|274:235,1,109.687500418425,4|0,0:3|0:0,0:0:0:0:
118,151,67306,2,0,P|163:153|205:169,1,90.9375021507741,2|0,0:0|0:0,0:0:0:0:
32,352,67973,38,0,P|28:289|40:226,1,128.437503625631,4|0,0:3|0:0,0:0:0:0:
81,151,68639,2,0,P|144:155|202:129,1,128.437503625631,2|0,0:3|0:0,0:0:0:0:
301,189,69306,2,0,P|309:116|282:49,1,147.187500561476,2|0,0:3|0:0,0:0:0:0:
102,9,69973,1,2,0:0:0:0:
101,9,70306,2,0,P|101:36|105:63,1,55.3125017935038,4|0,0:3|0:0,0:0:0:0:
153,245,70639,6,0,P|215:228|279:227,1,128.437503625631,4|0,0:3|0:0,0:0:0:0:
393,254,71306,1,2,0:3:0:0:
393,254,71639,1,4,0:3:0:0:
406,169,71806,1,4,0:3:0:0:
405,268,71973,1,4,0:3:0:0:
418,183,72140,1,4,0:3:0:0:
420,137,72639,2,0,P|358:149|294:147,1,128.437503625631,2|0,0:0|0:0,0:0:0:0:
339,274,73306,38,0,P|316:232|356:257,1,128.437503625631,4|0,0:3|0:0,0:0:0:0:
216,315,73973,2,0,P|159:340|97:326,1,128.437503625631,2|0,0:3|0:0,0:0:0:0:
81,133,74639,2,0,P|140:172|151:242,1,147.187500561476,2|0,0:3|0:0,0:0:0:0:
60,224,75306,1,2,0:0:0:0:
215,42,75639,2,0,P|242:47|269:50,1,55.3125017935038,4|0,0:3|0:0,0:0:0:0:
459,104,75973,6,0,P|457:167|473:230,1,128.437503625631,4|0,0:3|0:0,0:0:0:0:
418,295,76639,2,0,P|358:317|294:315,1,128.437503625631,2|0,0:3|0:0,0:0:0:0:
195,363,77306,2,0,P|190:308|203:255,1,109.687500418425,4|0,0:3|0:0,0:0:0:0:
340,146,77973,2,0,P|346:190|347:236,1,90.9375021507741,2|0,0:0|0:0,0:0:0:0:
262,82,78639,38,0,P|320:57|383:62,1,128.437503625631,4|0,0:3|0:0,0:0:0:0:
249,177,79306,2,0,P|190:202|127:197,1,128.437503625631,2|0,0:3|0:0,0:0:0:0:
292,312,79973,2,0,P|363:321|426:285,1,147.187500561476,2|0,0:3|0:0,0:0:0:0:
481,116,80639,1,2,0:0:0:0:
481,116,80973,2,0,P|453:114|425:111,1,55.3125017935038,4|0,0:3|0:0,0:0:0:0:
272,201,81306,6,0,P|212:222|148:215,1,128.437503625631,4|0,0:3|0:0,0:0:0:0:
194,53,81973,1,2,0:3:0:0:
198,55,82306,1,4,0:3:0:0:
156,138,82473,1,4,0:3:0:0:
207,216,82639,1,4,0:3:0:0:
156,295,82806,1,4,0:3:0:0:
156,295,83139,1,4,0:3:0:0:
278,335,83306,2,0,P|339:339|363:283,1,128.437503625631,2|0,0:0|0:0,0:0:0:0:
282,162,83973,37,4,0:0:0:0:
256,192,91973,12,0,94473,0:0:0:0:
0,280,94639,22,0,P|35:342|152:321,1,187.500007152558,4|0,0:0|0:0,0:0:0:0:
212,376,95139,2,0,P|226:313|201:282,1,74.9999977111817,8|0,0:3|0:0,0:0:0:0:
316,239,95473,1,0,0:0:0:0:
316,239,95639,2,0,B|301:182|344:185|328:130,1,112.499996566773,4|0,0:3|0:0,0:0:0:0:
328,121,95973,6,0,P|368:96|434:107,1,93.7500035762788,4|0,0:3|0:0,0:0:0:0:
412,202,96306,2,0,L|496:219,1,74.9999977111817,0|8,0:0|0:3,0:0:0:0:
333,115,96639,2,0,P|267:120|234:49,1,149.999995422363,2|0,0:0|0:0,0:0:0:0:
162,8,97139,37,0,0:0:0:0:
64,88,97306,2,4,B|42:144|81:180|81:180|100:239|52:275,1,187.500007152558,4|0,0:3|0:0,0:3:0:0:
16,373,97806,2,0,P|59:346|105:366,1,74.9999977111817,8|0,0:3|0:0,0:0:0:0:
210,347,98139,1,0,0:0:0:0:
210,347,98306,2,0,P|165:323|168:246,1,112.499996566773,4|0,0:3|0:0,0:0:0:0:
163,250,98639,6,0,P|99:234|61:246,1,74.9999977111817,4|0,0:3|0:0,0:0:0:0:
219,109,98973,2,0,L|315:123,1,74.9999977111817,0|8,0:0|0:3,0:0:0:0:
448,29,99306,2,0,P|343:49|287:-5,1,187.500007152558,2|0,0:0|0:0,0:0:0:0:
255,95,99806,1,0,0:0:0:0:
329,249,99973,38,0,B|449:229|385:282|521:262,1,187.500007152558,4|0,0:3|0:0,0:0:0:0:
341,360,100473,2,0,B|221:340|285:393|149:373,1,187.500007152558,8|0,0:3|0:0,0:0:0:0:
152,368,100973,2,0,P|128:309|206:269,1,140.625005364418,4|0,0:3|0:0,0:0:0:0:
185,268,101306,6,0,P|105:240|121:144,1,187.500007152558
196,135,101806,1,8,0:3:0:0:
262,0,101973,2,0,B|271:122|225:56|233:182,1,187.500007152558,2|0,0:0|0:0,0:0:0:0:
301,70,102473,1,0,0:0:0:0:
397,149,102639,38,0,P|387:237|302:258,1,187.500007152558,4|0,0:3|0:0,0:0:0:0:
194,134,103139,1,8,0:3:0:0:
194,134,103306,2,0,L|299:152,1,93.7500035762788
121,86,103639,2,0,P|102:46|121:-10,1,93.7500035762788,4|0,0:3|0:0,0:0:0:0:
229,231,103973,6,0,B|349:244|273:278|409:296,1,187.500007152558,8|0,0:3|0:0,0:0:0:0:
475,336,104473,1,0,0:0:0:0:
366,183,104639,2,0,B|429:175|396:161|479:156,2,93.7500035762788,2|0|0,0:0|0:0|0:0,0:0:0:0:
401,295,105139,1,0,0:0:0:0:
381,85,105306,6,0,P|286:115|188:99,1,200,4|0,0:0|0:0,0:0:0:0:
91,122,105806,2,0,P|88:72|112:30,1,100,8|0,0:3|0:0,0:0:0:0:
165,199,106139,1,0,0:0:0:0:
165,199,106306,2,0,P|161:248|185:290,1,100,4|0,0:3|0:0,0:0:0:0:
399,332,106639,2,0,P|354:246|260:222,1,200,4|0,0:3|0:0,0:0:0:0:
186,291,107139,2,0,P|137:299|89:288,1,100,8|2,0:3|0:0,0:0:0:0:
24,211,107473,1,0,0:0:0:0:
19,111,107639,2,0,P|68:102|116:113,1,100
329,302,107973,6,0,P|293:210|318:114,1,200,4|0,0:3|0:0,0:0:0:0:
473,71,108473,2,0,P|468:120|458:169,1,100,8|2,0:3|0:0,0:0:0:0:
434,274,108806,1,0,0:0:0:0:
416,382,108973,2,0,P|371:360|336:324,1,100,4|0,0:3|0:0,0:0:0:0:
133,98,109306,2,0,P|231:105|325:71,1,200,4|0,0:3|0:0,0:0:0:0:
512,26,109806,2,0,P|465:8|416:13,1,100,8|2,0:3|0:0,0:0:0:0:
325,71,110139,1,0,0:0:0:0:
282,172,110306,2,0,P|285:221|303:268,1,100,8|0,0:3|0:0,0:0:0:0:
221,22,110639,38,0,P|122:13|37:63,1,200,4|0,0:3|0:0,0:0:0:0:
150,115,111139,2,0,P|114:148|106:197,1,100,8|0,0:3|0:0,0:0:0:0:
152,305,111472,1,0,0:0:0:0:
152,305,111639,2,0,P|201:301|247:281,1,100,4|0,0:3|0:0,0:0:0:0:
470,41,111973,2,0,P|460:141|448:240,1,200,4|0,0:3|0:0,0:0:0:0:
343,338,112473,1,8,0:3:0:0:
251,203,112639,2,0,P|240:154|234:104,1,100,2|0,0:3|0:0,0:0:0:0:
97,255,112973,2,0,P|87:303|81:353,1,100,8|0,0:3|0:0,0:0:0:0:
33,54,113306,6,0,P|127:85|225:70,1,200,4|0,0:3|0:0,0:0:0:0:
336,28,113806,2,0,P|386:22|433:36,1,100,8|0,0:3|0:0,0:0:0:0:
512,117,114139,1,0,0:0:0:0:
457,221,114306,2,0,P|407:218|361:199,1,100,4|0,0:3|0:0,0:0:0:0:
487,362,114639,2,0,P|398:321|301:335,1,200,4|0,0:3|0:0,0:0:0:0:
185,369,115139,2,0,P|190:319|210:274,1,100,8|2,0:3|0:0,0:0:0:0:
313,101,115472,1,8,0:3:0:0:
406,301,115639,1,8,0:3:0:0:
203,178,115806,1,8,0:3:0:0:
404,201,115973,37,4,0:3:0:0:
103,238,116306,1,4,0:3:0:0:
103,238,117139,5,4,0:3:0:0:
50,337,117306,1,4,0:3:0:0:
74,241,117473,1,4,0:3:0:0:
21,340,117640,1,4,0:3:0:0:
113,384,129306,6,0,B|129:288|62:318|86:213,1,150,4|0,0:0|0:0,0:0:0:0:
78,226,129639,2,0,P|29:222|-6:244,1,81.2499962806703,0|8,0:0|0:3,0:0:0:0:
263,246,129973,2,0,P|259:197|281:162,1,81.2499962806703
201,90,130306,2,0,P|152:85|121:57,1,81.2499962806703,4|0,0:3|0:0,0:0:0:0:
398,297,130639,6,0,B|382:201|449:231|425:126,1,150,4|0,0:3|0:0,0:0:0:0:
433,139,130973,2,0,P|482:135|517:157,1,81.2499962806703,0|8,0:0|0:3,0:0:0:0:
291,139,131307,2,0,P|295:90|273:55,1,81.2499962806703,2|0,0:0|0:0,0:0:0:0:
423,23,131640,2,0,P|471:18|502:-9,1,81.2499962806703,8|0,0:3|0:0,0:0:0:0:
291,139,131973,38,0,P|231:111|127:140,1,162.499992561341,4|0,0:3|0:0,0:0:0:0:
166,201,132473,1,8,0:3:0:0:
58,247,132639,2,0,P|30:307|34:374,1,121.874994421006
39,371,132972,2,0,P|83:368|136:371,1,81.2499962806703,4|0,0:3|0:0,0:0:0:0:
325,235,133306,6,0,B|228:248|279:280|190:298,1,150,4|0,0:3|0:0,0:0:0:0:
188,311,133639,1,0,0:0:0:0:
120,369,133806,1,4,0:3:0:0:
256,235,133973,38,0,P|250:155|256:92,1,121.874994421006,2|0,0:0|0:0,0:0:0:0:
266,114,134306,2,0,P|313:134|355:116,1,81.2499962806703
143,19,134639,6,0,B|47:3|77:70|-28:46,1,150,4|0,0:3|0:0,0:0:0:0:
0,50,134972,2,0,P|-4:99|18:134,1,81.2499962806703,0|8,0:0|0:3,0:0:0:0:
179,127,135306,2,0,P|130:131|95:109,1,81.2499962806703
0,241,135639,2,0,P|45:243|92:211,1,81.2499962806703,4|0,0:3|0:0,0:0:0:0:
261,162,135973,38,0,B|357:146|327:213|432:189,1,150,4|0,0:3|0:0,0:0:0:0:
404,193,136306,2,0,P|408:242|386:277,1,81.2499962806703,0|8,0:0|0:3,0:0:0:0:
224,270,136640,2,0,P|273:274|308:252,1,81.2499962806703,2|0,0:0|0:0,0:0:0:0:
404,384,136973,2,0,P|359:386|312:354,1,81.2499962806703,8|0,0:3|0:0,0:0:0:0:
181,255,137306,6,0,P|221:325|174:387,1,162.499992561341,4|0,0:3|0:0,0:0:0:0:
101,284,137806,1,8,0:3:0:0:
79,375,137973,2,0,P|48:370|-5:387,1,81.2499962806703,2|0,0:0|0:0,0:0:0:0:
5,188,138306,1,4,0:3:0:0:
89,206,138473,1,0,0:0:0:0:
143,60,138639,38,0,B|44:61|94:94|-8:96,1,150,4|0,0:3|0:0,0:0:0:0:
31,107,138973,2,0,P|99:120|124:139,1,81.2499962806703
324,149,139306,6,0,B|225:150|275:183|172:185,1,150,2|0,0:0|0:0,0:0:0:0:
212,196,139640,2,0,P|280:209|305:228,1,81.2499962806703
505,238,139973,38,0,B|406:239|456:272|353:274,1,150,4|0,0:0|0:0,0:0:0:0:
352,291,140306,1,0,0:0:0:0:
294,353,140473,1,8,0:3:0:0:
171,312,140639,6,0,P|131:364|80:349,1,121.874994421006
75,341,140973,1,4,0:3:0:0:
0,121,141306,38,0,B|98:122|48:155|151:157,1,150,4|0,0:3|0:0,0:0:0:0:
153,174,141639,1,0,0:0:0:0:
211,236,141806,1,8,0:3:0:0:
334,195,141973,6,0,P|374:247|425:232,1,121.874994421006,2|0,0:0|0:0,0:0:0:0:
430,224,142306,1,0,0:0:0:0:
302,86,142639,38,0,P|326:23|454:51,1,200,4|0,0:3|0:0,0:0:0:0:
421,115,143139,1,8,0:3:0:0:
508,85,143306,6,0,P|508:143|510:219,1,121.874994421006,2|0,0:0|0:0,0:0:0:0:
505,217,143639,2,0,P|468:197|415:219,1,81.2499962806703,4|0,0:3|0:0,0:0:0:0:
324,301,143973,38,0,B|311:204|279:255|261:166,1,150,4|0,0:3|0:0,0:0:0:0:
250,162,144306,1,0,0:0:0:0:
188,109,144473,1,8,0:3:0:0:
137,254,144640,6,0,P|217:248|280:254,1,121.874994421006,2|0,0:0|0:0,0:0:0:0:
267,250,144973,2,0,P|247:297|265:339,1,81.2499962806703,4|0,0:3|0:0,0:0:0:0:
57,384,145306,38,0,P|72:284|-7:275,1,200,4|0,0:3|0:0,0:0:0:0:
64,182,145806,1,8,0:3:0:0:
8,98,145973,6,0,B|80:88|52:55|126:44,1,121.874994421006
130,47,146306,2,0,P|134:80|171:133,1,81.2499962806703,4|0,0:3|0:0,0:0:0:0:
262,46,146639,38,0,P|247:146|326:155,1,200,4|0,0:3|0:0,0:0:0:0:
255,248,147139,1,8,0:3:0:0:
311,332,147306,2,0,B|239:342|267:375|193:386,1,121.874994421006,2|0,0:0|0:0,0:0:0:0:
189,383,147639,2,0,P|185:350|148:297,1,81.2499962806703,4|0,0:3|0:0,0:0:0:0:
79,156,147973,6,0,P|85:215|-9:203,1,162.499992561341,4|0,0:3|0:0,0:0:0:0:
166,134,148473,1,8,0:3:0:0:
166,134,148639,2,0,P|163:83|169:34,1,81.2499962806703,2|0,0:0|0:0,0:0:0:0:
169,223,148973,2,0,P|220:220|269:226,1,81.2499962806703,4|0,0:3|0:0,0:0:0:0:
433,163,149306,38,0,P|413:92|446:26,1,150,4|0,0:3|0:0,0:0:0:0:
469,13,149639,2,0,P|478:63|451:116,1,81.2499962806703,0|8,0:0|0:3,0:0:0:0:
312,285,149973,6,0,P|292:224|349:133,1,150,2|0,0:0|0:0,0:0:0:0:
331,139,150306,2,0,P|340:189|313:242,1,81.2499962806703,4|0,0:3|0:0,0:0:0:0:
28,79,150639,6,0,P|86:63|147:67,1,121.874994421006,4|0,0:0|0:0,0:0:0:0:
177,170,150973,2,0,P|162:133|159:93,1,81.2499962806703,0|8,0:0|0:3,0:0:0:0:
381,120,151306,2,0,P|322:136|261:132,1,121.874994421006,4|0,0:3|0:0,0:0:0:0:
231,29,151640,2,0,P|246:66|249:106,1,81.2499962806703,4|0,0:3|0:0,0:0:0:0:
28,120,151973,6,0,P|86:103|147:107,1,121.874994421006,4|0,0:3|0:0,0:0:0:0:
177,211,152307,2,0,P|161:173|158:133,1,81.2499962806703,0|8,0:0|0:3,0:0:0:0:
381,161,152639,2,0,P|322:177|261:173,1,121.874994421006,2|0,0:0|0:0,0:0:0:0:
231,70,152974,2,0,P|246:107|249:147,1,81.2499962806703,8|0,0:3|0:0,0:0:0:0:
70,347,153306,38,0,P|127:330|188:335,1,121.874994421006,4|0,0:3|0:0,0:0:0:0:
233,352,153639,1,0,0:0:0:0:
233,352,153806,1,0,0:3:0:0:
448,283,153973,2,0,P|390:265|329:270,1,121.874994421006,2|0,0:0|0:0,0:0:0:0:
285,287,154306,1,4,0:3:0:0:
285,287,154473,1,0,0:0:0:0:
402,175,154639,6,0,P|369:123|367:63,1,121.874994421006,4|0,0:3|0:0,0:0:0:0:
391,20,154973,1,0,0:0:0:0:
293,18,155139,1,8,0:3:0:0:
222,85,155306,1,2,0:0:0:0:
131,48,155473,1,0,0:0:0:0:
274,165,155639,1,4,0:3:0:0:
274,165,155973,38,0,P|242:215|238:276,1,121.874994421006,4|0,0:3|0:0,0:0:0:0:
139,304,156307,2,0,P|178:316|218:314,1,81.2499962806703,0|8,0:0|0:3,0:0:0:0:
301,361,156639,2,0,P|333:310|337:249,1,121.874994421006,8|0,0:3|0:0,0:0:0:0:
436,222,156973,2,0,P|397:210|356:212,1,81.2499962806703,4|0,0:3|0:0,0:0:0:0:
275,130,157306,6,0,P|242:180|238:241,1,121.874994421006,4|0,0:3|0:0,0:0:0:0:
140,269,157640,2,0,P|178:280|219:278,1,81.2499962806703,0|8,0:0|0:3,0:0:0:0:
302,326,157973,2,0,P|334:275|338:214,1,121.874994421006,2|0,0:0|0:0,0:0:0:0:
437,187,158306,2,0,P|398:175|357:177,1,81.2499962806703,8|0,0:3|0:0,0:0:0:0:
127,280,158640,38,0,P|128:220|115:160,1,121.874994421006,4|0,0:3|0:0,0:0:0:0:
88,119,158973,1,0,0:0:0:0:
88,119,159140,1,8,0:3:0:0:
232,197,159306,2,0,P|230:136|243:76,1,121.874994421006,8|0,0:3|0:0,0:0:0:0:
271,35,159639,1,4,0:3:0:0:
271,35,159806,1,0,0:0:0:0:
368,33,159973,5,4,0:3:0:0:
441,96,160139,1,0,0:0:0:0:
434,193,160306,1,0,0:0:0:0:
371,267,160473,1,8,0:3:0:0:
233,294,160640,37,2,0:0:0:0:
126,208,160807,1,0,0:0:0:0:
83,96,160973,2,0,P|73:59|79:18,1,75,4|0,0:3|0:0,0:0:0:0:
131,2,161306,6,0,P|116:65|127:129,1,131.249995994568,4|0,0:0|0:0,0:0:0:0:
227,156,161639,2,0,B|184:144|140:157,1,87.499997329712,0|8,0:0|0:3,0:0:0:0:
198,384,161973,2,0,P|212:320|201:256,1,131.249995994568,8|0,0:3|0:0,0:0:0:0:
101,229,162306,2,0,B|143:240|187:227,1,87.499997329712,4|0,0:3|0:0,0:0:0:0:
172,2,162639,38,0,P|157:65|168:129,1,131.249995994568,4|0,0:3|0:0,0:0:0:0:
268,156,162972,2,0,B|225:144|181:157,1,87.499997329712,0|8,0:0|0:3,0:0:0:0:
239,384,163306,2,0,P|253:320|242:256,1,131.249995994568,2|0,0:0|0:0,0:0:0:0:
142,229,163639,2,0,B|184:240|228:227,1,87.499997329712,8|0,0:3|0:0,0:0:0:0:
394,71,163973,6,0,P|393:136|407:200,1,131.249995994568,0|0,0:3|0:0,0:0:0:0:
431,246,164306,1,0,0:0:0:0:
431,246,164473,1,8,0:3:0:0:
283,149,164639,2,0,P|283:214|269:278,1,131.249995994568,8|0,0:3|0:0,0:0:0:0:
246,324,164972,1,4,0:3:0:0:
246,324,165139,1,0,0:0:0:0:
106,204,165306,37,4,0:3:0:0:
110,98,165473,1,0,0:0:0:0:
197,40,165640,1,0,0:0:0:0:
301,34,165806,1,8,0:3:0:0:
417,72,165973,5,2,0:0:0:0:
486,172,166140,1,0,0:0:0:0:
457,297,166306,2,0,P|458:335|464:372,1,75,4|0,0:3|0:0,0:0:0:0:
448,257,166639,38,0,P|385:276|320:269,1,131.249995994568,4|0,0:0|0:0,0:0:0:0:
207,311,166973,2,0,P|249:302|286:279,1,87.499997329712,0|8,0:0|0:3,0:0:0:0:
377,182,167306,2,0,P|314:163|249:170,1,131.249995994568,8|0,0:3|0:0,0:0:0:0:
136,128,167640,2,0,P|178:136|215:159,1,87.499997329712,4|0,0:3|0:0,0:0:0:0:
448,226,167973,6,0,P|385:244|320:237,1,131.249995994568,4|0,0:3|0:0,0:0:0:0:
207,280,168307,2,0,P|249:271|286:248,1,87.499997329712,0|8,0:0|0:3,0:0:0:0:
377,151,168639,2,0,P|314:132|249:139,1,131.249995994568,2|0,0:0|0:0,0:0:0:0:
136,97,168974,2,0,P|178:105|215:128,1,87.499997329712,4|0,0:3|0:0,0:0:0:0:
467,329,169306,38,0,P|405:350|340:346,1,131.249995994568,4|0,0:3|0:0,0:0:0:0:
289,335,169639,1,0,0:0:0:0:
289,335,169806,1,8,0:3:0:0:
86,251,169973,2,0,P|147:272|212:268,1,131.249995994568,8|0,0:3|0:0,0:0:0:0:
264,257,170306,1,4,0:3:0:0:
264,257,170473,1,0,0:0:0:0:
400,141,170639,5,4,0:3:0:0:
287,91,170806,1,0,0:0:0:0:
167,120,170973,1,0,0:0:0:0:
52,77,171139,1,8,0:3:0:0:
96,243,171306,37,2,0:0:0:0:
256,223,171473,1,0,0:0:0:0:
287,91,171639,2,0,P|319:73|353:56,1,75,4|0,0:3|0:0,0:0:0:0:
365,52,171973,22,0,P|377:122|363:215,1,150,4|0,0:0|0:0,0:0:0:0:
359,208,172306,2,0,P|316:193|273:198,1,81.2499962806703,0|8,0:0|0:3,0:0:0:0:
511,170,172639,2,0,P|493:206|462:232,1,81.2499962806703,8|0,0:3|0:0,0:0:0:0:
389,309,172973,2,0,P|397:353|423:388,1,81.2499962806703,4|0,0:3|0:0,0:0:0:0:
196,339,173306,6,0,P|184:269|198:176,1,150,4|0,0:3|0:0,0:0:0:0:
202,183,173639,2,0,P|245:198|288:193,1,81.2499962806703,0|8,0:0|0:3,0:0:0:0:
49,220,173972,2,0,P|67:184|98:158,1,81.2499962806703,2|0,0:0|0:0,0:0:0:0:
172,82,174306,2,0,P|163:37|137:2,1,81.2499962806703,8|0,0:3|0:0,0:0:0:0:
280,195,174639,38,0,B|383:202|335:239|443:247,1,162.499992561341,4|0,0:3|0:0,0:0:0:0:
380,142,175139,1,8,0:3:0:0:
351,68,175306,2,0,P|384:30|477:21,1,121.874994421006,8|0,0:3|0:0,0:0:0:0:
461,20,175639,2,0,P|486:67|472:90,1,81.2499962806703,4|0,0:3|0:0,0:0:0:0:
282,156,175973,5,0,0:0:0:0:
173,84,176139,1,0,0:0:0:0:
51,124,176306,1,0,0:0:0:0:
85,14,176473,1,0,0:0:0:0:
102,237,176639,38,0,P|151:182|157:119,1,100,2|0,0:0|0:0,0:0:0:0:
284,114,176973,2,0,P|296:157|338:188,1,81.2499962806703,8|0,0:3|0:0,0:0:0:0:
475,330,177306,6,0,B|355:312|404:382|267:365,1,200,4|0,0:3|0:0,0:0:0:0:
206,314,177806,1,8,0:3:0:0:
128,384,177973,2,0,P|104:309|4:315,1,150,8|0,0:3|0:0,0:0:0:0:
34,299,178306,2,0,P|58:338|134:346,1,100,4|0,0:3|0:0,0:0:0:0:
26,165,178639,38,0,B|146:147|97:217|234:200,1,200,4|0,0:3|0:0,0:0:0:0:
295,149,179139,1,8,0:3:0:0:
373,219,179306,2,0,P|397:144|497:150,1,150,2|0,0:0|0:0,0:0:0:0:
467,134,179639,2,0,P|443:173|367:181,1,100,8|0,0:3|0:0,0:0:0:0:
174,184,179973,5,4,0:3:0:0:
302,23,180139,1,0,0:0:0:0:
462,114,180306,1,2,0:0:0:0:
338,184,180639,37,8,0:3:0:0:
210,23,180805,1,4,0:3:0:0:
50,114,181139,5,4,0:3:0:0:
174,184,181306,2,0,P|189:148|194:122,1,62.5,4|4,0:3|0:3,0:0:0:0:
338,184,181639,2,0,P|323:148|318:122,1,62.5,4|4,0:3|0:3,0:0:0:0:
462,114,181973,38,0,P|447:78|442:52,1,62.5,4|4,0:3|0:3,0:0:0:0:
50,114,182306,2,0,P|65:78|70:52,1,62.5,4|2,0:3|0:0,0:0:0:0:
