osu file format v14

[General]
AudioFilename: audio.mp3
AudioLeadIn: 0
PreviewTime: 79004
Countdown: 0
SampleSet: Soft
StackLeniency: 0.2
Mode: 0
LetterboxInBreaks: 0
WidescreenStoryboard: 0

[Editor]
DistanceSpacing: 0.5
BeatDivisor: 4
GridSize: 4
TimelineZoom: 1.7

[Metadata]
Title:Oasis (Ft.Crywolf)
TitleUnicode:Oasis (Ft.Crywolf)
Artist:Mitis
ArtistUnicode:Mitis
Creator:KittytheGreat
Version:Drenched
Source:
Tags:
BeatmapID:1454922
BeatmapSetID:687543

[Difficulty]
HPDrainRate:5.5
CircleSize:4.7
OverallDifficulty:9
ApproachRate:9.5
SliderMultiplier:3
SliderTickRate:1

[Events]
//Background and Video events
0,0,"anime_fantasy_dragon_baby_friends-715631.jpg",0,0
//Break Periods
2,133450,134780
2,136737,138068
2,140437,142177
2,147012,147931
2,149889,151219
//Storyboard Layer 0 (Background)
//Storyboard Layer 1 (Fail)
//Storyboard Layer 2 (Pass)
//Storyboard Layer 3 (Foreground)
//Storyboard Sound Samples

[TimingPoints]
1334,410.958904109589,4,2,1,100,1,0
1744,410.958904109589,4,2,1,100,1,0
1744,-200,4,2,1,80,0,0
7497,-399.999999999997,4,2,1,90,0,0
8319,-200,4,2,1,80,0,0
14894,-133.333333333333,4,2,1,80,0,0
24757,-153.846153846153,4,2,1,80,0,0
28045,-200,4,2,1,60,0,0
41196,-200,4,2,1,60,0,0
54346,-133.333333333333,4,2,1,70,0,0
67497,-133.333333333333,4,2,1,80,0,0
79004,-399.999999999997,4,2,1,100,0,0
80648,-100,4,2,1,100,0,0
81470,-399.999999999997,4,2,1,100,0,0
81880,-100,4,2,1,100,0,0
84757,-399.999999999997,4,2,1,100,0,0
85168,-100,4,2,1,100,0,0
88045,-399.999999999997,4,2,1,100,0,0
88456,-100,4,2,1,100,0,0
94620,-399.999999999997,4,2,1,100,0,0
95031,-100,4,2,1,100,0,0
97908,-399.999999999997,4,2,1,100,0,0
98319,-100,4,2,1,100,0,0
101196,-399.999999999997,4,2,1,100,0,0
101607,-100,4,2,1,100,0,0
105305,-200,4,2,1,100,0,0
106949,-100,4,2,1,100,0,0
107771,-399.999999999997,4,2,1,100,0,0
108182,-100,4,2,1,100,0,0
111059,-399.999999999997,4,2,1,100,0,0
111470,-100,4,2,1,100,0,0
114346,-399.999999999997,4,2,1,100,0,0
114757,-100,4,2,1,100,0,0
120100,-100,4,2,1,100,0,0
120922,-399.999999999997,4,2,1,100,0,0
121333,-100,4,2,1,100,0,0
124209,-399.999999999997,4,2,1,100,0,0
124620,-100,4,2,1,100,0,0
127497,-399.999999999997,4,2,1,100,0,0
127908,-100,4,2,1,100,0,0
131607,-200,4,2,1,60,0,0
133250,-200,4,2,1,60,0,0
135305,-200,4,2,1,30,0,0
152976,-200,4,2,1,5,0,0
159552,-800,4,2,1,65,0,0
159654,-800,4,2,1,5,0,0
172497,-800,4,2,1,65,0,0
172805,-800,4,2,1,5,0,0
179072,-800,4,2,1,65,0,0
185853,-133.333333333333,4,2,1,100,0,0
199004,-133.333333333333,4,3,1,100,0,0
212154,-100,4,2,1,100,0,0
212976,-399.999999999997,4,2,1,100,0,0
213387,-100,4,2,1,100,0,0
213798,-100,4,2,1,100,0,0
216264,-399.999999999997,4,2,1,100,0,0
216675,-100,4,2,1,100,0,0
219552,-399.999999999997,4,2,1,100,0,0
220374,-100,4,2,1,100,0,0
225305,-100,4,2,1,100,0,0
226127,-399.999999999997,4,2,1,100,0,0
226949,-100,4,2,1,100,0,0
229415,-399.999999999997,4,2,1,100,0,0
229826,-100,4,2,1,100,0,0
232702,-399.999999999997,4,2,1,100,0,0
233524,-100,4,2,1,100,0,0
236812,-200,4,2,1,100,0,0
238456,-100,4,2,1,100,0,0
239278,-399.999999999997,4,2,1,100,0,0
240100,-100,4,2,1,100,0,0

[HitObjects]
107,328,1334,6,0,L|94:238,1,75
168,202,1539,1,0,0:0:0:0:
96,253,1642,1,0,0:0:0:0:
163,120,1744,6,0,P|233:148|252:183,1,112.5,12|0,0:0|0:0,0:0:0:0:
263,253,2154,2,0,L|278:158,1,75
420,276,2565,2,8,P|350:305|312:294,1,112.5,8|0,3:3|0:0,0:0:0:0:
357,235,2976,1,0,0:0:0:0:
424,200,3079,1,0,0:0:0:0:
360,159,3182,1,0,0:0:0:0:
427,124,3285,1,0,0:0:0:0:
363,83,3387,6,0,L|243:94,1,112.5
177,123,3798,2,0,B|215:130|215:130|261:115,1,75,0|0,0:0|3:0,0:0:0:0:
132,58,4209,2,0,P|102:127|113:165,1,112.5,8|0,3:3|0:3,0:3:0:0:
137,230,4620,2,0,L|102:140,1,75
72,259,4928,1,0,0:0:0:0:
163,299,5031,6,0,L|121:191,1,112.5,8|0,0:0|0:0,0:0:0:0:
88,123,5442,2,0,P|142:118|163:129,1,75
288,236,5853,2,0,P|218:208|199:173,1,112.5,8|0,3:3|0:0,0:0:0:0:
228,111,6264,1,0,0:0:0:0:
325,238,6470,2,0,L|263:234,1,37.5
384,133,6675,6,0,B|408:178|408:178|397:241,1,112.5
344,310,7086,2,0,L|320:221,1,75,0|0,0:0|3:0,0:0:0:0:
367,146,7394,1,0,3:0:0:0:
247,177,7497,6,0,L|191:189,1,56.25,8|0,3:2|0:0,0:0:0:0:
324,237,7908,2,0,L|284:228,1,37.5,8|0,3:2|0:0,0:0:0:0:
313,306,8216,1,0,0:0:0:0:
397,252,8319,6,0,L|285:228,1,112.5,8|0,0:0|0:0,0:0:0:0:
247,177,8730,2,0,L|256:128,1,37.5
322,123,8935,2,0,L|313:74,1,37.5
184,213,9141,2,0,P|216:244|224:246,1,37.5,8|0,3:3|0:0,0:0:0:0:
247,177,9346,1,0,0:0:0:0:
183,140,9449,1,0,0:0:0:0:
122,179,9552,2,0,P|111:222|113:230,1,37.5
183,214,9757,1,0,0:0:0:0:
183,140,9860,1,0,0:0:0:0:
119,103,9963,6,0,P|58:149|49:187,1,112.5
117,250,10374,2,0,L|108:201,1,37.5
47,324,10579,2,0,L|56:275,1,37.5,0|0,3:0|0:0,0:0:0:0:
110,373,10785,5,8,3:3:0:0:
147,376,10887,1,0,0:0:0:0:
184,379,10990,1,0,0:0:0:0:
221,382,11093,1,0,0:0:0:0:
110,348,11196,5,0,0:0:0:0:
165,352,11298,1,0,0:0:0:0:
221,357,11401,1,0,0:0:0:0:
276,361,11504,1,0,0:0:0:0:
109,323,11607,6,0,L|224:331,1,112.5,8|0,0:0|0:0,0:0:0:0:
307,231,12017,2,0,L|271:303,1,75
276,361,12326,1,0,0:0:0:0:
307,231,12428,6,0,L|271:303,1,75,8|0,3:3|0:0,0:0:0:0:
276,361,12737,1,0,0:0:0:0:
182,196,12839,2,0,L|217:268,1,75,0|0,3:0|0:0,0:0:0:0:
276,361,13148,1,0,0:0:0:0:
307,231,13250,6,0,L|271:303,1,75,8|0,0:0|0:0,0:0:0:0:
214,263,13559,2,0,L|182:196,1,75,0|0,3:0|0:0,0:0:0:0:
231,149,13867,1,0,3:3:0:0:
341,219,14072,6,0,P|298:230|290:228,1,37.5,8|0,3:2|0:0,0:0:0:0:
247,84,14278,2,0,P|285:106|289:113,1,37.5
226,298,14483,6,8,P|215:255|217:247,1,37.5,8|0,3:2|0:0,0:0:0:0:
372,106,14689,2,0,P|349:144|342:148,1,37.5
164,205,14894,5,8,0:0:0:0:
108,193,14997,1,0,0:0:0:0:
90,138,15100,1,0,0:0:0:0:
128,95,15202,1,0,0:0:0:0:
185,107,15305,2,0,P|143:117|125:115,1,56.2500021457673
22,20,15511,2,0,P|58:42|70:56,1,56.2500021457673
78,251,15716,6,0,P|58:168|62:133,1,112.500004291535,8|0,3:3|0:0,0:0:0:0:
128,95,16024,1,0,0:0:0:0:
204,123,16127,2,0,P|142:168|51:130,1,168.750006437302
117,39,16538,6,0,L|128:98,1,56.2500021457673
67,306,16744,2,0,L|78:247,1,56.2500021457673
195,28,16949,1,0,0:0:0:0:
208,82,17052,1,0,0:0:0:0:
221,136,17154,1,0,3:0:0:0:
234,190,17257,1,0,0:0:0:0:
247,244,17360,6,0,L|188:236,1,56.2500021457673,8|0,3:3|0:0,0:0:0:0:
281,358,17565,2,0,L|244:310,1,56.2500021457673
332,208,17771,2,0,L|324:267,1,56.2500021457673
142,349,17976,2,0,L|178:301,1,56.2500021457673
332,208,18182,5,8,0:0:0:0:
385,189,18285,1,0,0:0:0:0:
427,225,18387,1,0,0:0:0:0:
416,280,18490,1,0,0:0:0:0:
364,298,18593,6,0,P|322:308|304:306,1,56.2500021457673
287,175,18798,2,0,P|323:197|335:211,1,56.2500021457673
211,217,19004,2,0,B|200:153|200:153|213:119|213:119|202:47,1,168.750006437302,8|0,3:0|0:0,0:0:0:0:
109,69,19415,2,0,P|183:46|223:57,1,112.500004291535
278,96,19723,1,0,0:0:0:0:
345,61,19826,6,0,L|337:0,1,56.2500021457673
278,96,20031,2,0,L|270:157,1,56.2500021457673
416,80,20237,2,0,L|408:19,1,56.2500021457673
232,209,20442,2,0,P|274:219|292:217,1,56.2500021457673,0|0,3:0|3:0,3:0:0:0:
161,116,20648,6,0,P|118:91|149:149,1,168.750006437302,8|0,0:0|0:0,0:0:0:0:
112,73,21059,2,0,P|58:140|117:170,1,168.750006437302,8|0,0:0|0:0,0:0:0:0:
116,227,21470,6,0,L|108:166,1,56.2500021457673,8|0,0:0|0:0,0:0:0:0:
49,329,21675,2,0,L|57:268,1,56.2500021457673
196,175,21880,2,0,L|188:236,1,56.2500021457673
203,100,22086,1,0,0:0:0:0:
203,100,22189,1,0,0:0:0:0:
196,175,22291,6,0,L|188:236,1,56.2500021457673,8|0,3:0|0:0,0:0:0:0:
225,289,22497,1,0,0:0:0:0:
135,275,22600,1,0,0:0:0:0:
167,359,22702,6,0,L|228:367,1,56.2500021457673
251,167,22908,2,0,L|190:175,1,56.2500021457673
310,209,23113,5,0,0:0:0:0:
319,182,23216,1,0,0:0:0:0:
251,167,23319,5,0,0:0:0:0:
242,140,23422,1,0,0:0:0:0:
306,115,23524,5,0,0:0:0:0:
315,88,23627,1,0,0:0:0:0:
242,64,23730,5,0,3:0:0:0:
242,64,23833,1,0,0:0:0:0:
177,101,23935,6,0,P|167:59|169:41,1,56.2500021457673,8|0,3:0|0:0,0:0:0:0:
319,182,24141,2,0,P|296:218|282:230,1,56.2500021457673
144,145,24346,2,0,P|166:108|180:96,1,56.2500021457673
373,173,24552,2,0,P|330:183|313:181,1,56.2500021457673
454,49,24757,6,0,B|427:121|479:125|448:205,1,146.249993305207
408,298,25374,1,0,0:0:0:0:
402,274,25476,1,0,0:0:0:0:
388,328,25579,2,0,B|365:281|365:281|372:178,1,146.249993305207
452,192,25990,2,0,B|380:219|376:167|296:198,1,146.249993305207
266,253,26401,6,0,P|239:202|267:134,1,97.4999955368044
353,51,26709,2,0,P|336:106|268:134,1,97.4999955368044
244,90,27017,1,0,0:0:0:0:
81,112,27223,6,0,P|132:85|200:113,1,97.4999955368044
283,199,27531,2,0,P|227:182|199:114,1,97.4999955368044
244,90,27839,1,0,0:0:0:0:
377,157,28045,6,0,P|334:196|261:187,1,112.5,4|0,3:2|0:0,0:0:0:0:
402,90,28661,1,0,0:0:0:0:
402,90,28867,2,0,P|441:132|432:205,1,112.5
443,184,29278,1,0,0:0:0:0:
410,275,29483,2,0,L|402:220,1,37.5
388,349,29689,6,0,L|405:230,1,112.5
282,198,30305,1,0,0:0:0:0:
282,198,30511,2,0,L|264:79,1,112.5
265,86,30922,1,0,0:0:0:0:
227,240,31127,2,0,P|248:259|284:255,1,37.5
277,358,31333,6,0,P|289:309|251:259,1,112.5
164,329,31949,1,0,0:0:0:0:
164,329,32154,2,0,B|223:329|223:329|265:313|265:313|340:315,1,150
381,359,32771,1,0,0:0:0:0:
384,340,32874,1,0,0:0:0:0:
387,321,32976,5,0,0:0:0:0:
311,314,33182,1,0,0:0:0:0:
311,314,33285,1,0,0:0:0:0:
370,211,33593,1,0,0:0:0:0:
370,211,33798,2,0,P|319:241|276:173,1,150
319,91,34415,2,0,L|323:137,1,37.5
312,16,34620,6,0,L|324:154,1,112.5
398,176,35237,2,0,L|394:222,1,37.5
405,101,35442,2,0,L|392:239,1,112.5
395,213,35853,1,0,0:0:0:0:
322,303,36059,2,0,L|318:257,1,37.5
329,378,36264,6,0,L|317:240,1,112.5
243,218,36881,2,0,L|247:172,1,37.5
236,293,37086,2,0,L|249:155,1,112.5
246,181,37497,1,0,0:0:0:0:
160,301,37702,2,0,L|164:347,1,37.5
52,302,37908,6,0,B|111:317|111:317|167:298,1,112.5
246,180,38524,2,0,L|242:226,1,37.5
354,181,38730,2,0,B|295:196|295:196|239:177,1,112.5
246,179,39141,1,0,0:0:0:0:
160,59,39346,2,0,L|164:105,1,37.5
100,154,39552,6,0,L|92:244,1,75
19,269,39860,2,0,L|26:359,1,75
100,384,40168,1,0,0:0:0:0:
174,343,40374,6,0,L|166:252,1,75
93,228,40682,2,0,L|100:137,1,75
174,113,40990,1,0,0:0:0:0:
170,94,41093,1,0,0:0:0:0:
166,75,41196,6,0,P|114:48|46:76,1,112.5
93,228,41812,1,0,0:0:0:0:
93,228,42017,2,0,L|110:86,1,112.5
106,116,42428,1,0,0:0:0:0:
88,265,42634,2,0,L|96:194,1,37.5
105,339,42839,6,0,L|88:197,1,112.5
183,362,43456,1,0,0:0:0:0:
183,362,43661,2,0,B|242:377|242:377|298:358,1,112.5
290,360,44072,1,0,0:0:0:0:
328,272,44278,2,0,L|319:201,1,37.5
435,273,44483,6,0,B|376:288|376:288|320:269,1,112.5
433,128,45100,1,0,0:0:0:0:
433,128,45305,2,0,B|453:216|453:216|423:300,1,150
379,334,45922,1,0,0:0:0:0:
376,315,46025,1,0,0:0:0:0:
373,296,46127,5,0,0:0:0:0:
294,304,46333,1,0,0:0:0:0:
294,304,46435,1,0,0:0:0:0:
216,214,46744,1,0,0:0:0:0:
216,214,46949,2,0,B|186:131|246:133|208:56,1,150
105,139,47565,2,0,P|140:154|167:145,1,37.5
92,36,47771,6,0,P|79:92|124:151,1,112.5
242,46,48387,2,0,P|211:68|205:96,1,37.5
337,86,48593,2,0,P|294:47|220:55,1,112.5
241,45,49004,1,0,0:0:0:0:
333,205,49209,2,0,P|370:200|389:179,1,37.5
271,122,49415,6,0,P|288:177|356:205,1,112.5
198,111,50031,2,0,P|202:148|223:167,1,37.5
280,48,50237,2,0,P|224:65|196:133,1,112.5
197,110,50648,1,0,0:0:0:0:
250,232,50853,6,0,B|255:209|255:209|250:194,1,37.5
143,226,51059,2,0,B|191:239|191:239|221:224|221:224|280:239,1,112.5
73,165,51675,2,0,B|96:160|96:160|111:165,1,37.5
79,272,51881,2,0,B|66:224|66:224|81:194|81:194|66:135,1,112.5
73,165,52291,1,0,0:0:0:0:
249,231,52497,2,0,B|226:236|226:236|211:231,1,37.5
307,189,52702,5,0,0:0:0:0:
312,277,52908,1,0,0:0:0:0:
312,277,53011,1,0,0:0:0:0:
386,142,53216,1,0,0:0:0:0:
386,142,53319,1,0,0:0:0:0:
232,145,53524,5,0,0:0:0:0:
400,247,53730,1,0,0:0:0:0:
400,247,53833,1,0,0:0:0:0:
404,50,54038,1,0,0:0:0:0:
404,50,54141,1,0,0:0:0:0:
232,145,54346,6,0,P|217:199|243:266,1,112.500004291535,8|0,0:0|0:0,0:0:0:0:
285,197,54757,1,8,0:0:0:0:
179,93,54963,1,0,0:0:0:0:
139,198,55168,6,0,P|178:237|249:248,1,112.500004291535,8|0,0:0|0:0,0:0:0:0:
232,145,55579,1,8,0:0:0:0:
81,161,55785,2,0,P|71:203|73:221,1,56.2500021457673
140,305,55990,6,0,P|194:290|239:234,1,112.500004291535,8|0,0:0|0:0,0:0:0:0:
160,227,56401,1,8,0:0:0:0:
63,328,56607,1,0,0:0:0:0:
232,358,56812,6,0,P|247:304|221:237,1,112.500004291535,8|0,0:0|0:0,0:0:0:0:
140,305,57223,1,8,0:0:0:0:
326,344,57428,2,0,L|397:333,1,56.2500021457673
459,193,57634,6,0,L|434:352,1,112.500004291535,8|0,0:0|0:0,0:0:0:0:
441,304,57942,1,0,0:0:0:0:
366,130,58250,1,0,0:0:0:0:
351,226,58456,2,0,B|301:253|254:226|254:226|195:261|161:225|161:225|210:203,1,225.000008583069,8|8,0:0|0:0,0:0:0:0:
369,73,59072,2,0,L|365:131,1,56.2500021457673
368,337,59278,6,0,L|343:178,1,112.500004291535,8|0,0:0|0:0,0:0:0:0:
350,226,59586,1,0,0:0:0:0:
274,365,59894,1,0,0:0:0:0:
441,306,60100,5,8,0:0:0:0:
231,258,60305,1,0,0:0:0:0:
454,190,60511,5,8,0:0:0:0:
256,373,60716,1,0,0:0:0:0:
227,370,60819,1,0,0:0:0:0:
198,367,60922,6,0,L|35:350,1,112.500004291535,8|0,0:0|0:0,0:0:0:0:
86,355,61230,1,0,0:0:0:0:
312,377,61538,1,0,0:0:0:0:
255,372,61640,1,0,0:0:0:0:
198,367,61743,6,0,L|35:350,1,112.500004291535,8|0,0:0|0:0,0:0:0:0:
86,355,62051,1,0,0:0:0:0:
294,207,62360,1,0,0:0:0:0:
297,236,62463,1,0,0:0:0:0:
300,265,62566,6,0,L|317:428,1,112.500004291535,8|0,0:0|0:0,0:0:0:0:
311,376,62874,1,0,0:0:0:0:
289,150,63182,1,0,0:0:0:0:
294,207,63284,1,0,0:0:0:0:
299,264,63387,6,0,L|316:427,1,112.500004291535,8|0,0:0|0:0,0:0:0:0:
311,376,63695,1,0,0:0:0:0:
360,230,64004,2,0,L|368:148,1,56.2500021457673
140,266,64209,6,0,B|219:294|219:294|299:263,1,168.750006437302,8|0,0:0|0:0,0:0:0:0:
145,210,64826,2,0,L|136:291,1,56.2500021457673
297,268,65031,2,0,B|218:296|218:296|138:265,1,168.750006437302,8|0,0:0|0:0,0:0:0:0:
138,265,65442,1,8,0:0:0:0:
291,212,65648,2,0,L|299:293,1,56.2500021457673
311,346,65853,5,8,0:0:0:0:
412,224,66059,1,0,0:0:0:0:
402,169,66161,1,0,0:0:0:0:
291,212,66367,1,0,0:0:0:0:
281,267,66469,1,0,0:0:0:0:
405,177,66675,5,8,0:0:0:0:
304,55,66881,1,0,0:0:0:0:
314,0,66983,1,0,0:0:0:0:
425,43,67189,1,0,0:0:0:0:
435,98,67291,1,0,0:0:0:0:
291,212,67497,5,12,3:2:0:0:
268,213,67908,1,0,3:0:0:0:
245,214,68319,1,0,3:0:0:0:
222,215,68730,1,0,3:0:0:0:
199,216,69141,5,0,3:0:0:0:
176,217,69552,1,0,3:0:0:0:
153,218,69963,1,0,3:0:0:0:
130,219,70374,1,0,3:0:0:0:
291,212,70785,5,8,3:2:0:0:
216,346,71196,1,0,3:0:0:0:
130,219,71607,1,0,3:0:0:0:
257,133,72017,1,0,3:0:0:0:
267,285,72428,5,0,3:0:0:0:
115,295,72839,1,0,3:0:0:0:
182,158,73250,1,0,3:0:0:0:
319,225,73661,1,0,3:0:0:0:
319,225,73867,2,0,L|246:233,2,37.5000014305115,0|0|0,3:0|3:0|3:0,3:0:0:0:
372,274,74072,6,0,P|391:214|357:167,1,112.500004291535,8|0,3:2|3:0,3:0:0:0:
193,183,74483,2,0,P|235:229|293:223,1,112.500004291535,8|0,3:0|3:0,3:0:0:0:
361,73,74894,2,0,P|299:86|275:139,1,112.500004291535,8|0,3:0|3:0,3:0:0:0:
325,362,75305,2,0,P|371:319|365:261,1,112.500004291535,8|0,3:0|3:0,3:0:0:0:
149,305,75716,5,8,3:0:0:0:
324,360,75922,1,0,3:0:0:0:
152,283,76127,5,8,3:0:0:0:
371,273,76333,1,0,3:0:0:0:
155,261,76538,5,8,3:0:0:0:
399,164,76744,1,0,3:0:0:0:
158,239,76949,5,8,3:0:0:0:
393,29,77154,1,0,3:0:0:0:
163,217,77360,6,0,L|173:280,1,56.2500021457673,8|0,3:0|3:0,3:0:0:0:
393,29,77565,2,0,L|383:92,1,56.2500021457673,8|0,3:0|3:0,3:0:0:0:
158,239,77771,6,0,L|168:302,1,56.2500021457673,8|0,3:0|3:0,3:0:0:0:
399,164,77976,2,0,L|389:227,1,56.2500021457673,8|0,3:0|3:0,3:0:0:0:
155,261,78182,5,8,3:0:0:0:
80,220,78285,1,0,3:0:0:0:
78,134,78387,1,8,3:0:0:0:
151,89,78490,1,0,3:0:0:0:
226,129,78593,5,8,3:0:0:0:
229,147,78661,1,0,3:0:0:0:
233,165,78730,1,8,3:0:0:0:
236,183,78798,1,0,3:0:0:0:
240,201,78867,1,8,3:0:0:0:
244,219,78935,1,0,3:0:0:0:
248,239,79004,6,0,L|259:291,1,37.5,8|0,0:0|0:0,0:0:0:0:
275,345,79312,1,0,0:0:0:0:
330,298,79415,6,0,L|341:246,1,37.5
357,192,79723,1,0,0:0:0:0:
416,235,79826,6,0,L|421:261,1,18.75
330,298,80031,1,0,0:0:0:0:
289,153,80237,2,0,L|277:98,1,56.25
174,117,80648,6,0,P|264:175|260:81,1,225,8|0,3:0|0:0,0:0:0:0:
237,347,81059,2,0,B|278:225|198:244|233:119,1,225,8|0,3:0|0:0,0:0:0:0:
335,61,81470,6,0,P|351:86|352:124,1,56.25,8|0,0:0|0:0,0:0:0:0:
339,184,81880,5,0,0:0:0:0:
265,201,81983,1,0,0:0:0:0:
213,145,82086,5,0,0:0:0:0:
339,184,82189,1,0,0:0:0:0:
242,273,82291,6,0,B|150:210|150:210|133:89,1,225,8|0,3:0|0:0,0:0:0:0:
276,36,82702,2,0,P|191:135|125:75,1,225,8|0,3:0|0:0,0:0:0:0:
33,129,83113,6,0,B|99:140|113:204|113:204|203:178|241:271,1,225,8|0,0:0|0:0,0:0:0:0:
102,377,83524,2,0,B|69:330|91:273|131:239|185:250|203:308|175:334|149:334,1,225,8|0,3:0|0:0,0:0:0:0:
244,346,83935,6,0,B|272:266|191:207|191:207|228:223|273:206,1,225,8|0,3:0|0:0,0:0:0:0:
286,73,84346,2,0,B|302:107|261:138|261:138|305:151|346:195|308:256,1,225,8|0,3:0|0:0,0:0:0:0:
192,207,84757,6,0,L|179:141,1,56.25,8|0,0:0|0:0,0:0:0:0:
166,78,85168,5,0,0:0:0:0:
180,151,85271,1,0,0:0:0:0:
195,224,85374,5,0,0:0:0:0:
166,78,85476,1,0,0:0:0:0:
54,176,85579,6,0,B|127:189|127:189|178:151|178:151|277:172,1,225,8|0,3:0|0:0,0:0:0:0:
357,236,85990,2,0,P|273:222|267:158,1,150,8|0,3:0|3:0,0:0:0:0:
337,157,86298,1,0,3:0:0:0:
291,339,86401,6,0,P|216:235|278:160,1,225,8|0,0:0|0:0,0:0:0:0:
339,244,86812,2,0,B|279:270|228:241|228:241|197:266|197:266|125:242|125:242,1,225,8|0,0:0|0:0,0:0:0:0:
81,309,87223,6,0,B|39:242|97:177|97:177|46:209|-38:160,1,225,8|0,3:0|0:0,0:0:0:0:
70,105,87634,2,0,B|149:102|176:184|176:184|174:124|258:76,1,225,8|0,3:0|2:0,2:0:0:0:
251,199,88045,6,0,P|263:162|279:168,1,56.25,8|0,0:0|0:0,0:0:0:0:
325,212,88456,5,0,0:0:0:0:
279,271,88559,1,0,0:0:0:0:
204,260,88661,5,0,0:0:0:0:
325,212,88764,1,0,0:0:0:0:
307,341,88867,6,0,B|185:382|204:302|79:337,1,225,8|0,3:0|0:0,0:0:0:0:
326,237,89278,2,0,P|384:327|290:323,1,225,8|0,3:0|0:0,0:0:0:0:
258,132,89689,6,0,B|347:116|380:176|380:176|324:160|251:192,1,225,8|0,0:0|0:0,0:0:0:0:
186,120,90100,2,0,B|135:111|135:111|253:30|253:30|249:109,1,225,8|0,3:0|0:0,0:0:0:0:
203,268,90511,6,0,L|183:99,1,150,8|0,3:0|0:0,0:0:0:0:
97,137,90819,2,0,P|187:134|154:88,1,150,0|0,0:0|0:0,3:0:0:0:
47,85,91127,2,0,P|26:152|30:172,1,75
183,305,91333,6,0,P|54:165|2:147,1,225,8|0,0:0|0:0,0:0:0:0:
105,337,91744,2,0,P|200:378|262:294,1,225,8|0,3:0|0:0,0:0:0:0:
180,294,92154,5,8,3:0:0:0:
403,263,92360,1,0,0:0:0:0:
389,188,92463,1,0,0:0:0:0:
157,117,92668,1,0,0:0:0:0:
171,45,92771,1,0,0:0:0:0:
310,110,92976,5,8,0:0:0:0:
87,141,93182,1,0,0:0:0:0:
101,216,93285,1,0,0:0:0:0:
333,287,93490,1,0,0:0:0:0:
319,362,93593,1,0,0:0:0:0:
261,312,93696,1,0,0:0:0:0:
390,336,93798,6,0,B|359:337|319:364|319:364|277:278|181:278,1,225,8|0,3:0|0:0,0:0:0:0:
25,316,94209,2,0,P|115:374|111:280,1,225,8|0,3:0|0:0,0:0:0:0:
90,116,94620,6,0,B|66:141|66:141|58:174,1,56.25,8|0,0:0|0:0,0:0:0:0:
170,191,95031,5,0,0:0:0:0:
98,103,95134,1,0,0:0:0:0:
189,168,95237,5,0,0:0:0:0:
151,60,95340,1,0,0:0:0:0:
214,152,95442,6,0,B|262:252|262:252|216:365,1,225,8|0,3:0|0:0,0:0:0:0:
54,263,95853,2,0,B|127:276|127:276|178:238|178:238|277:259,1,225,8|0,3:0|0:0,0:0:0:0:
338,312,96264,6,0,B|366:232|285:173|285:173|322:189|367:172,1,225,8|0,0:0|0:0,0:0:0:0:
361,5,96675,2,0,B|394:52|372:109|332:143|278:132|260:74|288:48|314:48,1,225,8|0,3:0|0:0,0:0:0:0:
444,36,97086,6,0,P|431:121|274:169,1,225,8|0,3:0|0:0,0:0:0:0:
257,113,97497,2,0,B|266:64|266:64|347:182|347:182|268:178,1,225,8|0,3:0|0:0,0:0:0:0:
270,285,97908,6,0,L|256:219,1,56.25,8|0,0:0|0:0,0:0:0:0:
230,339,98319,5,0,0:0:0:0:
258,229,98422,1,0,0:0:0:0:
148,203,98524,5,0,0:0:0:0:
120,311,98627,1,0,0:0:0:0:
188,271,98730,6,0,L|171:102,1,150,8|0,3:0|0:0,0:0:0:0:
30,130,99038,2,0,B|104:103|104:103|175:122,1,150
215,269,99346,2,0,L|206:184,1,75,0|0,3:0|3:0,3:0:0:0:
424,275,99552,2,0,B|351:288|351:288|300:250|300:250|201:271,1,225,8|0,0:0|0:0,0:0:0:0:
170,344,99963,5,8,0:0:0:0:
179,326,100065,1,0,0:0:0:0:
145,258,100168,1,0,0:0:0:0:
136,240,100270,1,0,0:0:0:0:
170,172,100374,6,0,B|292:213|273:133|398:168,1,225,8|0,3:0|0:0,0:0:0:0:
285,298,100785,2,0,P|375:240|371:334,1,225,8|0,3:0|0:0,0:0:0:0:
213,296,101196,6,0,P|211:266|229:232,1,56.25,8|0,0:0|0:0,0:0:0:0:
203,316,101607,5,0,0:0:0:0:
315,305,101709,1,0,0:0:0:0:
186,290,101812,5,0,0:0:0:0:
288,242,101915,1,0,0:0:0:0:
161,272,102017,6,0,B|137:236|86:217|86:217|166:238|231:191,1,225,8|0,3:0|0:0,0:0:0:0:
277,71,102428,2,0,B|210:75|189:137|189:137|102:102|55:190,1,225,8|0,3:0|0:0,0:0:0:0:
161,272,102839,6,0,B|206:317|172:383|172:383|103:376|87:308,1,225,8|0,0:0|0:0,0:0:0:0:
128,184,103250,2,0,B|147:146|147:146|219:148|219:148|248:213|248:213|225:246,1,225,8|0,3:0|0:0,0:0:0:0:
68,238,103661,6,0,B|35:157|89:155|55:75,1,150,8|0,3:0|0:0,0:0:0:0:
0,127,103970,2,0,B|57:141|57:141|151:111,1,150
168,44,104278,1,0,3:0:0:0:
160,22,104380,1,0,0:0:0:0:
205,150,104483,6,0,P|311:155|261:75,1,225,8|0,0:0|0:0,0:0:0:0:
157,210,104894,2,0,P|240:256|366:198,1,225,8|0,3:0|0:0,0:0:0:0:
354,212,105305,5,0,0:0:0:0:
315,354,105511,2,0,L|311:295,1,37.5
245,360,105716,2,0,L|241:301,1,37.5
175,366,105922,2,0,L|171:307,1,37.5
312,316,106333,6,0,L|315:354,1,37.5
175,366,106538,2,0,L|171:307,1,37.5
242,322,106744,2,0,L|244:359,1,37.5
104,371,106949,6,0,L|92:128,1,225,8|0,3:0|0:0,0:0:0:0:
195,124,107360,2,0,P|105:66|109:160,1,225,8|0,3:0|0:0,0:0:0:0:
231,186,107771,6,0,P|253:166|264:129,1,56.25,8|0,0:0|0:0,0:0:0:0:
138,114,108182,5,0,0:0:0:0:
170,237,108285,1,0,0:0:0:0:
292,270,108387,1,0,0:0:0:0:
382,180,108490,1,0,0:0:0:0:
351,63,108593,6,0,B|243:134|241:51|129:118,1,225,8|0,3:3|0:3,0:3:0:0:
107,287,109004,2,0,B|94:214|94:214|132:163|132:163|111:64,1,225,8|0,3:0|0:0,0:0:0:0:
54,352,109415,6,0,B|134:380|193:299|193:299|177:336|194:381,1,225,8|0,0:0|0:0,0:0:0:0:
170,214,109826,2,0,B|123:181|66:203|32:243|43:297|101:315|127:287|127:261,1,225,8|0,3:0|0:0,0:0:0:0:
251,233,110237,6,0,B|239:146|191:171|180:85,1,150,8|0,3:0|0:0,0:0:0:0:
295,63,110545,2,0,B|281:96|281:96|251:123|251:123|208:120|208:120|170:91,1,150
164,17,110853,2,0,B|204:28|204:28|236:57,1,75
271,299,111059,6,0,P|297:285|317:252,1,56.25,8|0,0:0|0:0,0:0:0:0:
214,182,111470,5,0,0:0:0:0:
318,252,111572,1,0,0:0:0:0:
348,127,111675,5,0,0:0:0:0:
339,252,111777,1,0,0:0:0:0:
462,215,111880,6,0,B|519:198|519:198|354:153,1,225,8|0,3:0|0:0,0:0:0:0:
301,102,112291,2,0,P|278:189|328:231,1,150,8|0,3:0|3:0,0:0:0:0:
359,154,112600,1,0,3:0:0:0:
348,47,112702,6,0,P|280:34|268:39,1,75,8|0,0:0|0:0,0:0:0:0:
255,267,112908,2,0,P|312:228|317:216,1,75
146,142,113113,1,8,0:0:0:0:
138,160,113216,1,0,0:0:0:0:
80,207,113319,1,0,0:0:0:0:
72,189,113422,1,0,0:0:0:0:
14,142,113524,6,0,P|104:84|100:178,1,225,8|0,3:0|0:0,0:0:0:0:
54,320,113935,2,0,P|-4:230|90:234,1,225,8|0,3:0|0:0,0:0:0:0:
189,353,114346,6,0,L|123:360,1,56.25,8|0,0:0|0:0,0:0:0:0:
16,330,114757,5,0,0:0:0:0:
73,216,114860,1,0,0:0:0:0:
130,102,114963,1,0,0:0:0:0:
200,208,115065,1,0,0:0:0:0:
270,314,115168,6,0,B|215:338|191:303|118:331|118:331|143:298|135:253,1,225,8|0,3:0|0:0,0:0:0:0:
43,325,115579,2,0,P|103:370|136:264,1,225,8|0,3:0|0:0,0:0:0:0:
0,207,115990,6,0,B|73:220|73:220|124:182|124:182|223:203,1,225,8|0,0:0|0:0,0:0:0:0:
264,368,116401,2,0,B|285:307|285:307|261:257|261:257|301:210|262:154|262:154,1,225,8|0,3:0|0:0,0:0:0:0:
0,207,116812,6,0,B|71:229|71:229|152:209,1,150,8|0,3:0|0:0,0:0:0:0:
84,135,117120,2,0,B|50:216|104:218|71:298,1,150
63,350,117428,1,0,0:0:0:0:
42,358,117531,1,0,0:0:0:0:
193,348,117634,2,0,B|243:360|277:309|277:309|230:247|122:301,1,225,8|0,0:0|0:0,0:0:0:0:
340,349,118045,2,0,B|363:265|281:225|281:225|324:222|347:190,1,225,8|0,3:0|0:0,0:0:0:0:
284,155,118456,5,8,3:0:0:0:
459,218,118661,5,8,3:0:0:0:
265,149,118764,1,0,0:0:0:0:
490,154,118970,5,0,0:0:0:0:
284,155,119073,1,0,0:0:0:0:
387,332,119278,5,8,0:0:0:0:
421,69,119483,5,0,0:0:0:0:
385,350,119586,1,0,0:0:0:0:
278,71,119791,5,0,0:0:0:0:
387,332,119894,1,0,0:0:0:0:
106,295,120100,6,0,B|73:332|73:332|62:190|62:190|128:233,1,225,8|0,3:3|0:0,0:0:0:0:
207,241,120511,2,0,B|230:276|230:276|192:337|192:337|121:330|121:330|104:294,1,225,8|0,3:3|0:0,0:0:0:0:
35,209,120922,6,0,B|68:200|68:200|101:210,1,56.25,8|0,0:0|0:0,0:0:0:0:
112,369,121333,6,0,L|103:277,1,75
392,275,121538,2,0,L|383:367,1,75
112,369,121743,6,0,L|84:83,1,225,8|0,3:3|0:0,0:0:0:0:
153,34,122154,2,0,L|125:319,1,225,8|0,3:3|0:0,0:0:0:0:
112,369,122565,6,0,P|54:279|148:283,1,225,8|0,0:0|0:0,0:0:0:0:
150,162,122976,2,0,P|208:252|114:248,1,225,8|0,3:3|0:0,0:0:0:0:
74,138,123387,6,0,P|146:92|216:103,1,150,8|0,3:3|0:0,0:0:0:0:
231,171,123696,2,0,B|245:114|245:114|215:20,1,150
93,131,124004,1,0,3:3:0:0:
74,138,124107,1,0,0:0:0:0:
162,249,124209,6,0,L|154:184,1,56.25,8|0,0:0|0:0,0:0:0:0:
74,336,124620,6,0,L|90:206,1,75
217,27,124826,2,0,L|233:157,1,75
298,321,125031,6,0,B|217:354|215:300|135:334,1,150,8|0,3:3|0:0,0:0:0:0:
74,336,125339,2,0,L|94:167,1,150
164,174,125648,2,0,L|154:248,1,75,0|0,3:0|3:0,3:0:0:0:
81,260,125853,2,0,B|94:187|94:187|56:136|56:136|77:37,1,225,8|0,0:0|0:0,0:0:0:0:
141,95,126264,5,8,0:0:0:0:
159,104,126366,1,0,0:0:0:0:
227,70,126469,1,0,0:0:0:0:
245,61,126571,1,0,0:0:0:0:
313,95,126675,6,0,B|347:111|378:70|378:70|391:114|435:155|496:117,1,225,8|0,3:0|0:0,0:0:0:0:
435,263,127086,2,0,B|349:232|351:163|351:163|391:205|471:214,1,225,8|0,3:0|0:0,0:0:0:0:
496,302,127497,6,0,P|476:324|439:335,1,56.25,8|0,0:0|0:0,0:0:0:0:
363,243,127908,6,0,P|421:255|477:308,1,75
81,260,128113,2,0,P|62:203|80:128,1,75
156,250,128319,6,0,B|161:307|113:345|61:355|20:318|34:259|71:250|93:263,1,225,8|0,3:0|0:0,0:0:0:0:
191,181,128730,2,0,B|255:236|214:327|214:327|238:295|286:287,1,225,8|0,3:0|0:0,0:0:0:0:
313,172,129141,6,0,B|356:128|422:162|422:162|415:231|347:247,1,225,8|0,0:0|0:0,0:0:0:0:
222,358,129552,2,0,B|198:322|147:303|147:303|227:324|292:277,1,225,8|0,3:0|0:0,0:0:0:0:
308,355,129963,5,8,0:0:0:0:
39,248,130168,1,0,3:0:0:0:
266,68,130374,1,0,3:0:0:0:
155,335,130579,5,8,0:0:0:0:
113,48,130784,1,0,3:0:0:0:
382,155,130990,1,0,3:0:0:0:
39,248,131196,5,8,0:0:0:0:
266,68,131401,1,0,3:0:0:0:
308,355,131607,5,0,0:0:0:0:
392,250,131812,1,0,0:0:0:0:
390,231,131915,1,0,0:0:0:0:
388,212,132017,1,0,0:0:0:0:
386,193,132120,1,0,0:0:0:0:
384,174,132223,1,0,0:0:0:0:
308,355,132428,5,0,0:0:0:0:
224,250,132633,1,0,0:0:0:0:
226,231,132736,1,0,0:0:0:0:
228,212,132838,1,0,0:0:0:0:
230,193,132941,1,0,0:0:0:0:
232,174,133044,1,0,0:0:0:0:
308,355,133250,5,4,0:0:0:0:
308,355,135305,6,0,L|222:365,2,75
235,234,136127,2,0,P|202:289|238:367,1,150
439,199,138593,5,0,0:0:0:0:
422,125,139004,1,0,0:0:0:0:
405,51,139415,1,0,0:0:0:0:
456,273,139826,5,0,0:0:0:0:
405,51,140237,1,0,0:0:0:0:
439,199,142702,6,0,L|421:113,1,75
472,66,143113,2,0,B|398:38|349:105|349:105|321:65|280:53|236:58|199:82|166:117|152:171|169:230|221:246|221:246|170:289|196:365,1,600
192,352,145168,1,0,0:0:0:0:
192,352,145990,1,0,0:0:0:0:
266,345,146401,5,0,0:0:0:0:
340,338,146812,1,0,0:0:0:0:
192,352,148456,5,0,0:0:0:0:
192,352,149278,1,0,0:0:0:0:
340,338,149689,1,0,0:0:0:0:
192,352,151744,5,0,0:0:0:0:
192,352,151949,1,0,0:0:0:0:
266,345,152154,1,0,0:0:0:0:
340,338,152565,1,0,0:0:0:0:
256,192,152976,12,0,159346,0:0:0:0:
21,235,159552,6,0,B|88:198|149:256|149:256|215:173|204:159|299:176|396:238|356:320|304:379|213:397|162:259|144:135|272:104|353:141|421:174|421:174|372:245|353:340|442:405|516:403|525:315|503:259|468:243,1,1162.5
474,246,172497,2,0,L|486:244,1,9.375
404,329,172702,6,0,B|358:232|421:113|421:113|334:183|248:203|166:155|142:68,1,562.5
143,74,179072,2,0,L|145:57,1,9.375
256,192,179278,5,0,0:0:0:0:
256,192,179483,12,0,185648,0:0:0:0:
92,322,185853,6,0,L|77:202,1,112.500004291535,4|0,0:0|0:0,0:0:0:0:
167,362,186264,2,0,L|182:242,1,112.500004291535,0|0,0:0|0:0,0:0:0:0:
351,337,186675,2,0,P|267:359|223:326,1,112.500004291535,0|0,0:0|0:0,0:0:0:0:
391,241,187086,2,0,P|368:324|317:346,1,112.500004291535,0|0,0:0|0:0,0:0:0:0:
180,250,187497,6,0,L|300:265,1,112.500004291535,0|0,0:0|0:0,0:0:0:0:
502,227,187908,2,0,L|382:242,1,112.500004291535,0|0,0:0|0:0,0:0:0:0:
246,351,188319,5,0,0:0:0:0:
352,159,188730,1,0,0:0:0:0:
355,131,188833,1,0,0:0:0:0:
329,142,188935,1,0,0:0:0:0:
132,163,189141,6,0,L|117:283,1,112.500004291535
207,123,189552,2,0,L|222:243,1,112.500004291535
391,148,189963,2,0,P|307:126|263:159,1,112.500004291535
431,244,190374,2,0,P|408:160|357:138,1,112.500004291535
417,355,190785,6,0,L|432:235,1,112.500004291535
207,123,191196,2,0,L|222:243,1,112.500004291535
430,243,191607,5,0,0:0:0:0:
170,341,192017,1,0,0:0:0:0:
142,334,192120,1,0,0:0:0:0:
114,327,192223,1,0,0:0:0:0:
207,123,192428,6,0,L|327:108,1,112.500004291535
430,243,192839,2,0,L|310:228,1,112.500004291535
158,186,193250,2,0,P|136:102|169:58,1,112.500004291535
510,260,193661,2,0,P|448:321|393:314,1,112.500004291535
87,40,194072,6,0,P|171:18|215:51,1,112.500004291535
296,384,194483,2,0,P|234:322|241:267,1,112.500004291535
512,55,194894,2,0,P|450:116|395:109,1,112.500004291535
144,82,195305,5,0,0:0:0:0:
430,243,195511,1,0,0:0:0:0:
430,243,195613,1,0,0:0:0:0:
430,243,195716,6,0,L|310:258,1,112.500004291535
307,230,196024,2,0,L|187:215,1,112.500004291535
184,243,196333,2,0,L|124:250,1,56.2500021457673
119,172,196538,6,0,P|53:217|113:330,1,225.000008583069
184,243,197154,2,0,L|124:250,1,56.2500021457673
225,325,197360,5,0,0:0:0:0:
277,165,197565,1,0,0:0:0:0:
277,165,197668,1,0,0:0:0:0:
117,113,197874,1,0,0:0:0:0:
117,113,197976,1,0,0:0:0:0:
226,232,198182,5,0,0:0:0:0:
278,72,198387,1,0,0:0:0:0:
278,72,198490,1,0,0:0:0:0:
118,20,198696,1,0,0:0:0:0:
118,20,198798,1,0,0:0:0:0:
274,166,199004,6,0,L|268:91,3,56.2500021457673,8|0|0|0,0:2|0:0|0:0|0:0,0:0:0:0:
340,136,199415,2,0,L|334:61,3,56.2500021457673,8|0|0|0,0:0|0:0|0:0|0:0,0:0:0:0:
413,130,199826,6,0,L|408:186,3,56.2500021457673,8|0|0|0,0:0|0:0|0:0|0:0,0:0:0:0:
479,160,200237,2,0,L|474:216,3,56.2500021457673,8|0|0|0,0:0|0:0|0:0|0:0,0:0:0:0:
335,180,200648,6,0,L|339:236,3,56.2500021457673,8|0|0|0,0:0|0:0|0:0|0:0,0:0:0:0:
269,210,201059,2,0,L|273:266,3,56.2500021457673,8|0|0|0,0:0|0:0|0:0|0:0,0:0:0:0:
413,230,201469,6,0,L|408:286,3,56.2500021457673,8|0|0|0,0:0|0:0|0:0|0:0,0:0:0:0:
479,260,201880,2,0,L|474:316,3,56.2500021457673,8|0|0|0,0:0|0:0|0:0|0:0,0:0:0:0:
300,329,202291,6,0,P|260:333|234:327,3,56.2500021457673,8|0|0|0,0:2|0:0|0:0|0:0,0:0:0:0:
235,214,202702,2,0,P|258:246|266:272,3,56.2500021457673,8|0|0|0,0:0|0:0|0:0|0:0,0:0:0:0:
152,308,203113,2,0,P|184:284|210:276,3,56.2500021457673,8|0|0|0,0:0|0:0|0:0|0:0,0:0:0:0:
276,373,203524,2,0,P|252:340|244:314,3,56.2500021457673,8|0|0|0,0:0|0:0|0:0|0:0,0:0:0:0:
349,228,203935,6,0,P|353:268|347:294,3,56.2500021457673,8|0|0|0,0:0|0:0|0:0|0:0,0:0:0:0:
234,293,204346,2,0,P|266:269|292:261,3,56.2500021457673,8|0|0|0,0:0|0:0|0:0|0:0,0:0:0:0:
328,376,204757,2,0,P|304:343|296:317,3,56.2500021457673,8|0|0|0,0:0|0:0|0:0|0:0,0:0:0:0:
393,252,205168,2,0,P|360:275|334:283,1,56.2500021457673,8|0,0:0|0:0,0:0:0:0:
190,292,205374,2,0,P|229:288|255:294,1,56.2500021457673
399,340,205579,5,8,0:2:0:0:
115,310,205785,1,0,0:0:0:0:
145,26,205990,1,8,0:0:0:0:
429,56,206196,1,0,0:0:0:0:
258,346,206401,5,8,0:0:0:0:
122,179,206607,1,0,0:0:0:0:
289,44,206812,1,8,0:0:0:0:
423,210,207017,2,0,L|354:229,1,56.2500021457673
175,274,207223,5,8,0:0:0:0:
191,114,207429,1,0,0:0:0:0:
351,131,207634,1,8,0:0:0:0:
335,290,207840,1,0,0:0:0:0:
175,196,208045,5,8,0:0:0:0:
268,119,208251,1,0,0:0:0:0:
344,213,208456,2,0,L|363:282,1,56.2500021457673,8|0,0:0|0:0,0:0:0:0:
251,288,208661,2,0,L|209:299,2,37.5000014305115
158,338,208867,6,0,L|139:269,1,56.2500021457673,8|0,0:0|0:0,0:0:0:0:
413,309,209072,2,0,P|380:332|354:340,1,56.2500021457673,8|0,0:0|0:0,0:0:0:0:
79,312,209278,6,0,L|60:243,1,56.2500021457673,8|0,0:0|0:0,0:0:0:0:
377,244,209483,2,0,P|344:267|318:275,1,56.2500021457673,8|0,0:0|0:0,0:0:0:0:
79,312,209689,5,8,0:0:0:0:
64,229,209791,1,0,0:0:0:0:
128,174,209894,1,8,0:0:0:0:
207,202,209997,1,0,0:0:0:0:
223,285,210100,5,8,0:0:0:0:
226,266,210168,1,0,0:0:0:0:
229,247,210237,1,8,0:0:0:0:
232,228,210305,1,0,0:0:0:0:
235,209,210374,1,8,0:0:0:0:
238,190,210442,1,0,0:0:0:0:
241,171,210511,1,0,0:0:0:0:
52,269,212154,6,0,B|108:296|165:256|165:256|225:333|323:310|359:261|346:156|289:119|219:165|219:165|261:202|253:246,1,525,12|0,3:2|0:0,0:0:0:0:
386,275,212976,6,0,P|396:232|394:206,1,56.25,8|0,3:0|0:0,0:0:0:0:
328,229,213387,5,0,0:0:0:0:
321,193,213490,1,0,0:0:0:0:
393,116,213593,5,0,0:0:0:0:
386,152,213696,1,0,0:0:0:0:
307,121,213798,6,0,B|199:148|189:88|105:100|105:100|160:160|130:209|93:235|29:245|-25:185|-15:129|35:92,1,525,8|0,3:0|0:0,0:0:0:0:
87,14,214620,2,0,B|104:93|104:93|83:140|83:140|106:253,1,225,8|0,0:0|0:0,0:0:0:0:
181,197,215031,2,0,P|175:128|160:167,1,225,8|0,3:0|0:0,0:0:0:0:
239,260,215442,6,0,P|228:52|103:207,1,525,8|0,3:0|0:0,0:0:0:0:
162,331,216264,6,0,L|155:261,1,56.25,8|0,3:0|0:0,0:0:0:0:
168,349,216675,5,0,0:0:0:0:
168,349,216778,1,0,0:0:0:0:
231,309,216880,5,0,0:0:0:0:
297,343,216983,1,0,0:0:0:0:
359,302,217086,6,0,B|346:221|346:221|372:158|372:158|358:33,1,225,8|0,3:0|0:0,0:0:0:0:
220,92,217497,2,0,B|294:65|294:65|365:84,1,150,0|0,3:0|3:0,0:0:0:0:
301,145,217805,1,0,3:0:0:0:
246,196,217908,2,0,B|124:237|143:157|18:192,1,225,8|0,0:0|0:0,0:0:0:0:
80,261,218319,6,0,L|64:171,1,75,8|0,0:0|0:0,0:0:0:0:
233,18,218524,2,0,L|217:108,1,75
97,333,218730,6,0,B|173:357|173:357|245:325|245:325|308:369|308:369|285:268|357:192|465:202|498:298,1,525,8|0,3:0|0:0,0:0:0:0:
405,358,219552,6,0,L|399:290,1,56.25,8|0,3:0|0:0,0:0:0:0:
393,226,219963,5,0,0:0:0:0:
390,206,220065,1,0,0:0:0:0:
310,310,220168,5,0,0:0:0:0:
312,291,220270,1,0,0:0:0:0:
231,225,220374,6,0,B|161:19|161:19|346:31|346:31|257:132,1,525,8|0,3:0|0:0,0:0:0:0:
234,233,221196,2,0,L|161:17,1,225,8|0,0:0|0:0,0:0:0:0:
48,108,221607,2,0,B|127:125|127:125|174:104|174:104|287:127,1,225,8|0,3:0|0:0,0:0:0:0:
327,77,222017,6,0,P|342:159|296:201,1,150,8|0,3:0|0:0,0:0:0:0:
275,127,222326,2,0,L|453:165,1,150
440,229,222634,1,0,0:0:0:0:
439,248,222737,1,0,0:0:0:0:
434,322,222839,6,0,B|281:340|281:340|197:311,1,225,8|0,0:0|0:0,0:0:0:0:
260,195,223250,2,0,P|333:214|248:224,1,225,8|0,3:0|0:0,0:0:0:0:
178,188,223661,5,0,3:0:0:0:
359,54,223867,5,0,3:0:0:0:
384,277,223970,1,0,3:0:0:0:
384,277,224175,5,0,0:0:0:0:
178,187,224278,1,0,0:0:0:0:
438,160,224483,5,8,0:0:0:0:
257,293,224689,5,0,0:0:0:0:
233,70,224792,1,0,0:0:0:0:
233,70,224997,5,0,0:0:0:0:
438,160,225100,1,0,0:0:0:0:
257,293,225202,1,0,0:0:0:0:
304,173,225305,6,0,P|410:167|360:247,1,225,8|0,3:0|0:0,0:0:0:0:
237,341,225716,2,0,B|278:219|198:238|233:113,1,225,8|0,3:0|0:0,0:0:0:0:
360,170,226127,6,0,L|301:173,1,56.25,8|0,0:0|0:0,0:0:0:0:
148,178,226538,5,0,0:0:0:0:
360,170,226641,1,0,0:0:0:0:
148,178,226743,5,0,0:0:0:0:
360,170,226846,1,0,0:0:0:0:
148,178,226949,6,0,B|221:191|221:191|272:153|272:153|371:174,1,225,8|0,3:0|0:0,0:0:0:0:
420,231,227360,2,0,B|446:171|417:120|417:120|442:89|442:89|418:17|418:17,1,225,8|0,3:0|0:0,0:0:0:0:
241,278,227771,6,0,B|301:308|350:264|350:264|408:338|492:285,1,225,8|0,0:0|0:0,0:0:0:0:
359,147,228182,2,0,B|312:114|255:136|221:176|232:230|290:248|316:220|316:194,1,225,8|0,3:0|0:0,0:0:0:0:
276,72,228593,6,0,P|195:139|182:200,1,150,8|0,3:0|0:0,0:0:0:0:
168,255,228901,2,0,L|144:97,1,150
131,31,229209,1,0,0:0:0:0:
176,310,229415,6,0,L|167:254,1,56.25,8|0,0:0|0:0,0:0:0:0:
243,330,229826,5,0,0:0:0:0:
261,334,229928,1,0,0:0:0:0:
300,253,230031,5,0,0:0:0:0:
318,249,230133,1,0,0:0:0:0:
357,330,230237,6,0,L|510:317,1,150,8|0,3:0|0:0,0:0:0:0:
448,180,230545,2,0,B|421:254|421:254|440:325,1,150
499,374,230853,1,0,3:0:0:0:
499,374,230956,1,0,3:0:0:0:
372,352,231059,6,0,B|299:339|299:339|248:377|248:377|149:356,1,225,8|0,0:0|0:0,0:0:0:0:
151,285,231470,2,0,L|241:303,1,75,8|0,3:0|0:0,0:0:0:0:
92,366,231675,2,0,L|2:384,1,75
3,255,231880,6,0,L|273:309,1,225,8|0,3:0|0:0,0:0:0:0:
312,321,232291,2,0,L|42:375,1,225,8|0,3:0|0:0,0:0:0:0:
168,288,232702,6,0,L|235:301,1,56.25,8|0,0:0|0:0,0:0:0:0:
91,365,233113,5,0,0:0:0:0:
3,255,233216,1,0,0:0:0:0:
113,167,233319,5,0,0:0:0:0:
201,277,233422,1,0,0:0:0:0:
102,266,233524,6,0,B|78:211|113:187|85:114|85:114|118:139|163:131,1,225,8|0,3:0|0:0,0:0:0:0:
334,71,233935,2,0,P|280:138|120:101,1,225,8|0,3:0|0:0,0:0:0:0:
15,65,234346,6,0,B|51:41|70:-10|70:-10|49:70|96:135,1,225,8|0,3:0|0:0,0:0:0:0:
130,304,234757,2,0,B|160:243|116:194|116:194|190:136|137:52,1,225,8|0,3:0|0:0,0:0:0:0:
56,247,235168,6,0,B|137:214|139:268|219:234,1,150,8|0,3:0|0:0,0:0:0:0:
278,137,235476,2,0,B|292:194|292:194|262:288,1,150
208,320,235785,1,0,3:0:0:0:
189,325,235887,1,0,3:0:0:0:
290,354,235990,6,0,B|412:313|393:393|518:358,1,225,8|0,0:0|0:0,0:0:0:0:
509,286,236401,2,0,B|453:317|398:267|398:267|423:203|493:205,1,225,8|0,3:0|0:0,0:0:0:0:
475,205,236812,5,0,0:0:0:0:
425,101,237017,2,0,L|382:105,1,37.5
340,160,237223,2,0,L|297:156,1,37.5
255,101,237428,2,0,L|212:105,1,37.5
217,104,237839,6,0,L|255:101,1,37.5
340,160,238045,2,0,L|297:156,1,37.5
387,104,238250,2,0,L|425:101,1,37.5
342,186,238456,6,0,L|81:161,1,225,8|0,3:0|0:0,0:0:0:0:
40,234,238867,2,0,P|146:239|96:159,1,225,8|0,3:0|0:0,0:0:0:0:
30,320,239278,6,0,P|55:335|94:338,1,56.25,8|0,0:0|0:0,0:0:0:0:
166,353,239689,5,0,0:0:0:0:
137,272,239791,1,0,0:0:0:0:
187,364,239894,5,0,0:0:0:0:
198,300,239996,1,0,0:0:0:0:
208,375,240100,6,0,B|282:375|282:375|337:346|337:346|441:349,1,225,8|0,3:0|0:0,0:0:0:0:
393,274,240511,2,0,B|319:274|319:274|264:303|264:303|160:300,1,225,8|0,3:0|0:0,0:0:0:0:
33,376,240922,6,0,L|290:375,1,225,8|0,0:0|0:0,0:0:0:0:
393,274,241333,2,0,L|136:273,1,225,8|0,3:0|0:0,0:0:0:0:
