osu file format v14

[General]
AudioFilename: audio.mp3
AudioLeadIn: 0
PreviewTime: 15125
Countdown: 0
SampleSet: Soft
StackLeniency: 0.7
Mode: 0
LetterboxInBreaks: 0
EpilepsyWarning: 1
WidescreenStoryboard: 1

[Editor]
Bookmarks: 6101,30125,45125
DistanceSpacing: 1.2
BeatDivisor: 4
GridSize: 4
TimelineZoom: 1

[Metadata]
Title:untitled guitar
TitleUnicode:untitled guitar
Artist:MitiS
ArtistUnicode:MitiS
Creator:Gordon123
Version:Space's Challenging
Source:
Tags:slow house calm relax relaxing chill chillstep Chalwa -Space-
BeatmapID:1430716
BeatmapSetID:676344

[Difficulty]
HPDrainRate:5
CircleSize:4
OverallDifficulty:7
ApproachRate:7.5
SliderMultiplier:1.6
SliderTickRate:1

[Events]
//Background and Video events
0,0,"bg.jpg",0,0
//Break Periods
//Storyboard Layer 0 (Background)
//Storyboard Layer 1 (Fail)
//Storyboard Layer 2 (Pass)
//Storyboard Layer 3 (Foreground)
//Storyboard Sound Samples

[TimingPoints]
125,468.75,4,2,1,25,1,0
15125,-100,4,2,1,40,0,0
30125,-83.3333333333333,4,2,1,40,0,1
45125,-100,4,2,1,30,0,0
57781,-100,4,2,1,20,0,0
58953,-100,4,2,1,5,0,0

[Colours]
Combo1 : 255,149,255
Combo2 : 194,113,255
Combo3 : 255,155,55

[HitObjects]
116,64,125,6,0,P|92:112|104:160,1,80,8|0,0:0|0:0,0:0:0:0:
168,200,593,2,0,P|192:152|180:104,1,80
76,224,1062,2,0,P|144:292|220:280,1,160,10|0,0:0|0:0,0:0:0:0:
268,216,1765,1,0,0:0:0:0:
268,216,1882,1,0,0:0:0:0:
268,216,2000,6,0,L|276:120,1,80,8|0,0:0|0:0,0:0:0:0:
364,168,2468,2,0,L|356:264,1,80
184,196,2937,2,0,L|196:36,1,160,10|0,0:0|0:0,0:0:0:0:
104,8,3640,1,0,0:0:0:0:
40,80,3875,6,0,B|16:120|44:156|44:156|72:192|44:240,1,160,8|0,0:0|0:0,0:0:0:0:
24,324,4578,1,0,0:0:0:0:
112,364,4812,2,0,L|200:356,1,80,10|0,0:0|0:0,0:0:0:0:
240,272,5281,2,0,L|152:264,1,80
289,355,5750,6,0,P|335:292|320:216,1,160,8|0,0:0|0:0,0:0:0:0:
240,272,6453,1,0,0:0:0:0:
191,356,6687,1,10,0:0:0:0:
132,280,6921,2,0,P|93:272|53:279,1,80
92,368,7390,1,0,0:0:0:0:
184,208,7625,6,0,L|192:104,2,80,8|0|0,0:0|0:0|0:0,0:0:0:0:
276,232,8328,1,0,0:0:0:0:
368,200,8562,2,0,P|372:256|304:328,1,160,10|0,0:0|0:0,0:0:0:0:
216,296,9265,1,0,0:0:0:0:
216,296,9382,1,0,0:0:0:0:
216,296,9500,6,0,L|124:300,1,80,8|0,0:0|0:0,0:0:0:0:
96,212,9968,2,0,L|188:216,1,80
212,124,10437,2,0,L|120:128,1,80,10|0,0:0|0:0,0:0:0:0:
272,200,10906,1,0,0:0:0:0:
256,192,11375,12,0,14656,0:0:0:0:
360,144,15125,6,0,L|352:240,1,80,4|0,0:0|0:0,0:0:0:0:
272,272,15593,1,0,0:0:0:0:
196,212,15828,1,0,0:0:0:0:
353,223,16062,1,8,0:0:0:0:
332,128,16296,1,0,0:0:0:0:
236,124,16531,1,0,0:0:0:0:
204,220,16765,1,0,0:0:0:0:
204,220,16882,1,0,0:0:0:0:
204,220,17000,6,0,P|208:280|232:320,1,80,8|0,0:0|0:0,0:0:0:0:
312,316,17468,2,0,P|308:256|284:216,1,80
388,196,17937,2,0,P|412:284|392:384,1,160,8|0,0:0|0:0,0:0:0:0:
312,316,18640,1,0,0:0:0:0:
508,336,18875,6,0,P|508:268|484:176,1,160,2|0,0:0|0:0,0:0:0:0:
400,136,19578,2,0,B|360:120|324:136|324:136|288:152|244:132,1,160,2|0,0:0|0:0,0:0:0:0:
388,52,20281,2,0,P|431:63|472:95,1,80
485,179,20750,6,0,P|502:242|454:352,1,160,8|0,0:0|0:0,0:0:0:0:
384,360,21453,2,0,L|220:344,1,160,2|0,0:0|0:0,0:0:0:0:
152,280,22156,2,0,P|144:236|152:196,1,80
156,104,22625,6,0,P|120:80|52:80,2,80,8|0|0,0:0|0:0|0:0,0:0:0:0:
236,156,23328,2,0,L|396:152,1,160
432,240,24031,1,0,0:0:0:0:
352,272,24265,1,0,0:0:0:0:
352,272,24382,1,0,0:0:0:0:
352,272,24500,6,0,L|252:276,1,80,8|0,0:0|0:0,0:0:0:0:
216,196,24968,2,0,L|316:192,1,80,2|0,0:0|0:0,0:0:0:0:
344,108,25437,2,0,L|244:112,1,80,8|0,0:0|0:0,0:0:0:0:
168,112,25906,1,0,0:0:0:0:
216,196,26140,1,0,0:0:0:0:
160,276,26375,6,0,P|240:292|304:236,1,160,8|0,0:0|0:0,0:0:0:0:
304,152,27078,1,0,0:0:0:0:
384,204,27312,1,8,0:0:0:0:
400,108,27546,1,0,0:0:0:0:
476,168,27781,1,0,0:0:0:0:
391,211,28015,1,0,0:0:0:0:
391,211,28132,1,0,0:0:0:0:
391,211,28250,6,0,P|375:283|279:323,1,160,8|0,0:0|0:0,0:0:0:0:
288,220,28953,2,0,B|252:200|208:220|208:220|164:240|128:216,1,160,2|0,0:0|0:0,0:0:0:0:
276,124,29656,2,0,P|328:140|364:172,1,80
344,276,30125,6,0,L|320:376,1,95.9999970703126,4|0,0:0|0:0,0:0:0:0:
200,380,30593,1,8,0:0:0:0:
92,340,30828,1,0,0:0:0:0:
52,232,31062,2,0,P|48:164|64:116,1,95.9999970703126,2|0,0:0|0:0,0:0:0:0:
200,68,31531,2,0,P|204:136|188:184,1,95.9999970703126
184,192,31882,1,0,0:0:0:0:
172,220,32000,5,4,0:0:0:0:
252,304,32234,1,0,0:0:0:0:
364,288,32468,1,8,0:0:0:0:
404,180,32703,1,0,0:0:0:0:
344,84,32937,2,0,P|284:56|236:56,1,95.9999970703126,2|0,0:0|0:0,0:0:0:0:
216,164,33406,2,0,P|276:192|324:192,1,95.9999970703126
156,80,33875,6,0,P|120:132|156:248,1,191.999994140625,4|0,0:0|0:0,0:0:0:0:
268,268,34578,2,0,L|60:320,1,191.999994140625,2|0,0:0|0:0,0:0:0:0:
288,184,35281,2,0,P|336:212|352:252,1,95.9999970703126,2|0,0:0|0:0,0:0:0:0:
196,180,35750,6,0,P|224:116|348:116,1,191.999994140625,4|0,0:0|0:0,0:0:0:0:
376,212,36453,2,0,B|380:264|336:296|336:296|276:304|236:260,1,191.999994140625,2|0,0:0|0:0,0:0:0:0:
148,216,37156,2,0,L|28:208,1,95.9999970703126,2|0,0:0|0:0,0:0:0:0:
112,112,37625,6,0,L|232:120,1,95.9999970703126,4|0,0:0|0:0,0:0:0:0:
292,196,38093,1,0,0:0:0:0:
388,136,38328,2,0,B|424:180|420:228|420:228|396:276|344:296,1,191.999994140625,2|0,0:0|0:0,0:0:0:0:
244,300,39031,2,0,L|148:280,1,95.9999970703126,2|0,0:0|0:0,0:0:0:0:
124,292,39382,1,0,0:0:0:0:
96,304,39500,5,4,0:0:0:0:
56,196,39734,1,0,0:0:0:0:
100,92,39968,1,0,0:0:0:0:
208,132,40203,2,0,P|264:144|376:72,1,191.999994140625,2|0,0:0|0:0,0:0:0:0:
464,148,40906,2,0,L|460:256,1,95.9999970703126,2|0,0:0|0:0,0:0:0:0:
364,304,41375,6,0,B|324:328|272:300|272:300|224:272|176:300,1,191.999994140625,4|0,0:0|0:0,0:0:0:0:
72,336,42078,2,0,B|48:296|36:248|36:248|40:204|60:152,1,191.999994140625,2|0,0:0|0:0,0:0:0:0:
160,112,42781,2,0,P|212:124|260:180,1,95.9999970703126
292,256,43250,5,4,0:0:0:0:
404,236,43484,1,0,0:0:0:0:
424,124,43718,1,0,0:0:0:0:
320,72,43953,2,0,P|280:45|233:40,1,95.9999970703126,2|0,0:0|0:0,0:0:0:0:
243,150,44422,2,0,P|195:155|155:181,1,95.9999970703126
144,296,44890,1,2,0:0:0:0:
236,264,45125,5,0,0:0:0:0:
296,340,45359,1,0,0:0:0:0:
392,324,45593,1,0,0:0:0:0:
472,379,45828,2,0,P|509:312|483:239,1,160
404,180,46531,2,0,L|316:160,1,80,2|0,0:0|0:0,0:0:0:0:
252,100,47000,6,0,P|202:103|251:172,1,160
144,48,47703,2,0,P|108:112|128:204,1,160
180,272,48406,2,0,L|276:260,1,80,2|0,0:0|0:0,0:0:0:0:
352,292,48875,6,0,B|364:248|344:212|344:212|320:168|344:116,1,160
420,88,49578,2,0,P|340:104|272:40,1,160
184,56,50281,2,0,L|180:148,1,80,2|0,0:0|0:0,0:0:0:0:
240,212,50750,6,0,P|172:232|84:156,1,160
181,136,51453,2,0,P|249:116|333:184,1,160
304,256,52156,2,0,L|288:348,1,80,2|0,0:0|0:0,0:0:0:0:
202,290,52625,6,0,L|218:198,1,80
298,159,53093,1,0,0:0:0:0:
384,200,53328,2,0,P|444:176|460:80,1,160
384,36,54031,2,0,L|300:28,1,80,2|0,0:0|0:0,0:0:0:0:
224,80,54500,6,0,L|212:240,1,160
128,288,55203,2,0,L|140:128,1,160
224,80,55906,2,0,L|312:72,1,80,2|0,0:0|0:0,0:0:0:0:
256,192,56375,12,0,58953,0:0:0:0:
