osu file format v14

[General]
AudioFilename: audio.mp3
AudioLeadIn: 0
PreviewTime: 15125
Countdown: 0
SampleSet: Soft
StackLeniency: 0.3
Mode: 0
LetterboxInBreaks: 0
EpilepsyWarning: 1
WidescreenStoryboard: 1

[Editor]
Bookmarks: 16062,24500,30125,45125
DistanceSpacing: 1.3
BeatDivisor: 4
GridSize: 4
TimelineZoom: 1

[Metadata]
Title:untitled guitar
TitleUnicode:untitled guitar
Artist:MitiS
ArtistUnicode:MitiS
Creator:Gordon123
Version:Chalwa's Average
Source:
Tags:slow house calm relax relaxing chill chillstep Chalwa -Space-
BeatmapID:1437901
BeatmapSetID:676344

[Difficulty]
HPDrainRate:4
CircleSize:3.5
OverallDifficulty:4
ApproachRate:5
SliderMultiplier:1.25
SliderTickRate:1

[Events]
//Background and Video events
0,0,"bg.jpg",0,0
//Break Periods
//Storyboard Layer 0 (Background)
//Storyboard Layer 1 (Fail)
//Storyboard Layer 2 (Pass)
//Storyboard Layer 3 (Foreground)
//Storyboard Sound Samples

[TimingPoints]
125,468.75,4,2,1,25,1,0
1062,-100,4,2,1,5,0,0
1296,-100,4,2,1,25,0,0
2937,-100,4,2,1,5,0,0
3171,-100,4,2,1,25,0,0
4812,-100,4,2,1,5,0,0
5046,-100,4,2,1,25,0,0
6687,-100,4,2,1,5,0,0
6921,-100,4,2,1,25,0,0
8562,-100,4,2,1,5,0,0
8796,-100,4,2,1,25,0,0
10437,-100,4,2,1,5,0,0
10671,-100,4,2,1,25,0,0
15125,-100,4,2,1,40,0,0
30125,-100,4,2,1,40,0,1
45125,-100,4,2,1,30,0,0
57781,-100,4,2,1,20,0,0
58953,-100,4,2,1,5,0,0

[Colours]
Combo1 : 255,149,255
Combo2 : 194,113,255
Combo3 : 255,155,55

[HitObjects]
240,296,125,6,0,L|320:300,2,62.5,0|0|2,0:0|0:0|0:0,0:0:0:0:
168,256,828,1,0,0:0:0:0:
232,208,1062,2,0,P|248:168|224:76,1,125,8|0,1:0|0:0,0:0:0:0:
188,20,1765,1,0,0:0:0:0:
124,68,2000,2,0,B|104:80|104:80|0:80,2,125,0|0|8,0:0|0:0|1:0,0:0:0:0:
124,68,3875,6,0,B|144:56|144:56|248:56,1,125,0|2,0:0|0:0,0:0:0:0:
328,52,4578,1,0,0:0:0:0:
292,124,4812,2,0,L|288:188,1,62.5,8|0,1:0|0:0,0:0:0:0:
216,228,5281,2,0,L|224:304,1,62.5
304,276,5750,2,0,P|404:268|376:388,1,250,0|8,0:0|1:0,0:0:0:0:
388,384,7625,6,0,L|320:376,1,62.5
261,326,8093,2,0,L|193:318,1,62.5
128,360,8562,2,0,P|80:332|64:264,1,125,8|0,1:0|0:0,0:0:0:0:
123,213,9265,1,0,0:0:0:0:
204,224,9500,2,0,L|336:216,1,125
407,193,10203,1,0,0:0:0:0:
485,171,10437,2,0,P|501:135|475:36,1,125,8|0,1:0|0:0,0:0:0:0:
256,192,11375,12,0,14187,0:0:0:0:
5,250,15125,6,0,L|77:254,1,62.5,4|0,0:0|0:0,0:0:0:0:
124,196,15593,2,0,L|196:200,1,62.5,2|0,0:2|0:0,0:0:0:0:
240,256,16062,2,0,L|312:260,1,62.5,8|0,0:0|0:0,0:0:0:0:
364,202,16531,2,0,L|436:206,1,62.5,2|0,0:0|0:0,0:0:0:0:
503,231,17000,2,0,P|503:179|451:127,2,125,8|0|8,0:0|0:0|0:1,0:0:0:0:
503,231,18875,6,0,P|495:267|499:299,1,62.5,4|0,0:0|0:0,0:0:0:0:
427,333,19343,2,0,P|391:325|359:329,1,62.5,2|0,0:0|0:0,0:0:0:0:
288,304,19812,2,0,P|232:322|166:297,1,125,8|0,0:1|0:0,0:0:0:0:
118,239,20515,1,0,0:0:0:0:
175,181,20750,2,0,P|232:160|291:178,1,125,2|0,0:0|0:0,0:0:0:0:
349,236,21453,1,2,0:0:0:0:
406,178,21687,2,0,P|427:148|356:37,1,187.5,8|0,0:1|0:0,0:0:0:0:
278,26,22625,6,0,P|246:23|201:29,1,62.5,2|0,0:0|0:0,0:0:0:0:
143,62,23093,2,0,P|111:64|80:61,1,62.5
16,11,23562,1,8,0:1:0:0:
33,172,24031,1,0,0:0:0:0:
49,328,24500,2,0,P|81:331|126:325,1,62.5,2|0,0:0|0:0,0:0:0:0:
184,292,24968,2,0,P|215:289|246:292,1,62.5
311,343,25437,1,8,0:1:0:0:
294,182,25906,1,0,0:0:0:0:
455,168,26375,6,0,L|459:312,1,125,4|2,0:0|0:0,0:0:0:0:
448,372,27078,1,0,0:0:0:0:
372,344,27312,2,0,B|340:336|340:336|308:344,1,62.5,8|0,0:1|0:0,0:0:0:0:
232,368,27781,1,0,0:0:0:0:
296,220,28250,1,2,0:0:0:0:
335,149,28484,2,0,P|345:87|323:20,2,125,0|8|0,0:0|0:0|0:0,0:0:0:0:
296,220,29656,1,0,0:0:0:0:
296,220,30125,6,0,P|236:240|172:220,1,125,4|2,0:0|0:0,0:0:0:0:
120,168,30828,1,0,0:0:0:0:
40,192,31062,2,0,P|29:223|35:265,2,62.5,8|0|0,0:1|0:0|0:0,0:0:0:0:
36,112,31765,1,0,0:0:0:0:
112,84,32000,2,0,P|172:68|236:88,1,125,2|2,0:0|0:0,0:0:0:0:
303,122,32703,1,0,0:0:0:0:
236,168,32937,2,0,P|176:184|116:168,1,125,8|0,0:1|0:0,0:0:0:0:
14,41,33875,6,0,L|21:170,1,125,8|0,0:0|0:0,0:0:0:0:
65,233,34578,1,2,0:0:0:0:
116,168,34812,2,0,L|112:103,2,62.5,8|0|0,0:1|0:0|0:0,0:0:0:0:
186,209,35515,1,0,0:0:0:0:
243,151,35750,2,0,P|299:131|362:150,1,125,2|0,0:0|0:0,0:0:0:0:
417,206,36453,1,2,0:0:0:0:
359,263,36687,2,0,P|303:283|240:264,1,125,8|0,0:1|0:0,0:0:0:0:
95,194,37625,6,0,L|89:56,2,125,4|0|8,0:0|0:0|0:1,0:0:0:0:
68,270,38796,1,0,0:0:0:0:
142,304,39031,2,0,P|173:298|219:309,1,62.5,2|0,0:0|0:0,0:0:0:0:
284,307,39500,2,0,P|340:322|412:302,2,125,2|0|8,0:0|0:0|0:1,0:0:0:0:
151,212,40906,1,0,0:0:0:0:
262,93,41375,6,0,P|318:78|390:98,2,125,2|0|8,0:0|0:0|0:1,0:0:0:0:
204,150,42546,1,2,0:0:0:0:
151,212,42781,2,0,P|118:219|82:210,1,62.5,2|0,0:0|0:0,0:0:0:0:
28,160,43250,2,0,P|13:104|33:32,1,125,2|0,0:0|0:0,0:0:0:0:
101,4,43953,1,2,0:0:0:0:
101,4,44187,2,0,L|239:9,1,125,8|0,0:1|0:0,0:0:0:0:
388,8,45125,6,0,P|406:69|388:131,1,125,2|0,0:0|0:0,0:0:0:0:
332,184,45828,2,0,P|314:245|332:307,1,125,2|0,0:0|0:0,0:0:0:0:
387,360,46531,1,0,0:0:0:0:
231,311,47000,2,0,L|105:306,1,125,2|2,0:0|0:0,0:0:0:0:
207,179,47937,2,0,L|333:184,1,125
485,130,48875,6,0,P|500:78|478:11,1,125,2|0,0:0|0:0,0:0:0:0:
397,12,49578,2,0,P|376:69|390:129,1,125,2|0,0:0|0:0,0:0:0:0:
436,197,50281,2,0,P|443:226|438:260,1,62.5,2|0,0:0|0:0,0:0:0:0:
392,324,50750,2,0,L|266:332,1,125,2|0,0:0|0:0,0:0:0:0:
197,374,51453,2,0,L|72:366,1,125,2|0,0:0|0:0,0:0:0:0:
14,308,52156,1,0,0:0:0:0:
128,193,52625,6,0,P|137:160|130:128,1,62.5,2|0,0:0|0:0,0:0:0:0:
120,52,53093,2,0,P|163:29|238:44,1,125,2|0,0:0|0:0,0:0:0:0:
292,99,53796,1,0,0:0:0:0:
349,41,54031,2,0,L|423:37,1,62.5,2|0,0:0|0:0,0:0:0:0:
485,72,54500,2,0,P|502:120|484:192,1,125,2|0,0:0|0:0,0:0:0:0:
436,255,55203,2,0,P|419:303|437:375,2,125
404,179,56375,1,0,0:0:0:0:
256,192,56492,12,0,58953,0:0:0:0:
