osu file format v14

[General]
AudioFilename: audio.mp3
AudioLeadIn: 0
PreviewTime: 83138
Countdown: 0
SampleSet: Soft
StackLeniency: 0.4
Mode: 0
LetterboxInBreaks: 0
WidescreenStoryboard: 0

[Editor]
DistanceSpacing: 1
BeatDivisor: 4
GridSize: 32
TimelineZoom: 1.1

[Metadata]
Title:Written Emotions
TitleUnicode:Written Emotions
Artist:MitiS
ArtistUnicode:MitiS
Creator:Incomp
Version:Expression
Source:
Tags:electronic instrumental 2012 dubstep influential past original mix
BeatmapID:1697617
BeatmapSetID:809004

[Difficulty]
HPDrainRate:4
CircleSize:4
OverallDifficulty:7
ApproachRate:8
SliderMultiplier:1.76
SliderTickRate:1

[Events]
//Background and Video events
0,0,"bg.jpg",0,0
//Break Periods
//Storyboard Layer 0 (Background)
//Storyboard Layer 1 (Fail)
//Storyboard Layer 2 (Pass)
//Storyboard Layer 3 (Foreground)
//Storyboard Sound Samples

[TimingPoints]
425,857.142857142857,4,2,1,25,1,0
425,-133.333333333333,4,2,1,25,0,0
6424,-125,4,2,1,25,0,0
9424,-100,4,2,1,25,0,0
9853,-111.111111111111,4,2,1,25,0,0
13282,-100,4,2,1,30,0,0
18424,-90.9090909090909,4,2,1,40,0,0
20139,-83.3333333333333,4,2,1,45,0,0
23567,-76.9230769230769,4,2,1,50,0,0
25282,-76.9230769230769,4,3,1,5,0,0
25496,-76.9230769230769,4,2,1,50,0,0
25603,-76.9230769230769,4,3,1,5,0,0
25924,-76.9230769230769,4,2,1,50,0,0
26032,-76.9230769230769,4,3,1,5,0,0
26139,-76.9230769230769,4,2,1,50,0,0
26996,857.142857142857,4,1,1,65,1,0
26996,-71.4285714285714,4,1,1,65,0,0
54424,428.571428571429,4,2,1,25,1,0
54424,-200,4,2,1,25,0,0
56138,-166.666666666667,4,2,1,30,0,0
57852,-142.857142857143,4,2,1,35,0,0
59566,-125,4,2,1,40,0,0
61281,-111.111111111111,4,2,1,45,0,0
62995,-100,4,2,1,50,0,0
64709,-90.9090909090909,4,2,1,55,0,0
65352,-90.9090909090909,4,2,1,20,0,0
65781,-90.9090909090909,4,2,1,55,0,0
66424,-83.3333333333333,4,2,1,60,0,0
67066,-83.3333333333333,4,2,1,25,0,0
67495,-83.3333333333333,4,2,1,60,0,0
68138,857.142857142857,4,2,1,25,1,0
68138,-200,4,2,1,25,0,0
69852,-166.666666666667,4,2,1,30,0,0
71566,-142.857142857143,4,2,1,35,0,0
73280,-125,4,2,1,40,0,0
74995,-111.111111111111,4,2,1,45,0,0
76495,-111.111111111111,4,3,1,5,0,0
76709,-100,4,2,1,50,0,0
78209,-100,4,3,1,5,0,0
78423,-90.9090909090909,4,2,1,55,0,0
80780,-90.9090909090909,4,3,1,5,0,0
80995,-90.9090909090909,4,2,1,55,0,0
83566,857.142857142857,4,2,1,25,1,0
83566,-66.6666666666667,4,1,1,65,0,0
138423,-66.6666666666667,4,2,1,50,0,0
138637,-66.6666666666667,4,2,1,45,0,0
138851,-66.6666666666667,4,2,1,40,0,0
139066,-66.6666666666667,4,2,1,35,0,0
139280,-66.6666666666667,4,2,1,30,0,0
139494,-66.6666666666667,4,2,1,25,0,0
139708,-66.6666666666667,4,2,1,20,0,0
139923,-66.6666666666667,4,2,1,15,0,0
140137,-66.6666666666667,4,2,1,10,0,0

[Colours]
Combo1 : 123,56,127
Combo2 : 231,155,123
Combo3 : 174,74,32
Combo4 : 225,220,118

[HitObjects]
226,154,425,6,0,P|219:191|231:222,1,66.0000025177003
307,183,1067,1,0,0:0:0:0:
293,98,1282,6,0,P|276:83|250:72,2,49.5000018882752
388,212,2139,2,0,P|374:242|341:261,1,66.0000025177003,8|0,0:0|0:0,0:0:0:0:
266,230,2782,1,0,0:0:0:0:
280,315,2996,6,0,P|300:333|322:341,2,49.5000018882752
333,174,3853,2,0,P|367:174|397:189,1,66.0000025177003,12|0,0:0|0:0,0:0:0:0:
347,259,4496,1,0,0:0:0:0:
252,145,4710,6,0,P|237:124|232:99,2,49.5000018882752
333,174,5567,1,8,0:0:0:0:
319,89,5782,1,0,0:0:0:0:
266,230,5996,1,0,0:0:0:0:
347,259,6210,1,8,0:0:0:0:
400,118,6424,6,0,L|418:68,2,52.8
333,174,7282,2,0,L|279:218,1,70.4,8|0,0:0|0:0,0:0:0:0:
252,145,7924,1,0,0:0:0:0:
414,203,8139,6,0,L|467:222,2,52.8
400,118,8996,2,0,L|394:84,1,35.2,8|0,0:0|0:0,0:0:0:0:
333,174,9424,2,0,B|322:180|322:180|318:189|318:189|309:192|309:192|304:200|304:200|294:205,1,44
347,259,9853,6,0,P|379:252|400:229,2,59.3999981872559
185,201,10710,2,0,P|167:167|169:122,1,79.1999975830079,8|0,0:0|0:0,0:0:0:0:
252,145,11353,1,0,0:0:0:0:
118,257,11567,6,0,P|86:258|56:246,2,59.3999981872559
266,230,12424,1,8,0:0:0:0:
199,286,12639,1,0,0:0:0:0:
252,145,12853,1,0,0:0:0:0:
280,315,13067,1,0,0:0:0:0:
185,201,13282,6,0,P|167:173|166:134,2,66,4|0|0,0:0|0:0|0:0,0:0:0:0:
347,259,14139,2,0,P|390:241|414:201,1,88,8|0,0:0|0:0,0:0:0:0:
398,122,14782,1,0,0:0:0:0:
266,230,14996,6,0,P|232:231|198:212,2,66
252,145,15853,2,0,P|211:129|163:138,1,88,8|0,0:0|0:0,0:0:0:0:
101,192,16496,1,0,0:0:0:0:
238,60,16710,6,0,P|271:58|305:77,2,66
333,174,17567,2,0,P|370:202|416:203,1,88,8|0,0:0|0:0,0:0:0:0:
477,148,18210,1,0,0:0:0:0:
266,230,18424,6,0,P|229:231|197:211,2,72.6000022155762
400,118,19282,1,8,0:0:0:0:
414,203,19496,1,0,0:0:0:0:
252,145,19710,1,0,0:0:0:0:
386,33,19924,1,8,0:0:0:0:
266,230,20139,6,0,P|225:228|192:205,2,79.1999975830079,4|0|0,0:0|0:0|0:0,0:0:0:0:
171,116,20996,2,0,P|121:143|100:189,1,105.599996777344,8|0,0:0|0:0,0:0:0:0:
114,270,21639,1,0,0:0:0:0:
252,145,21853,6,0,P|257:108|244:68,2,79.1999975830079
185,201,22710,2,0,P|183:257|212:298,1,105.599996777344,8|0,0:0|0:0,0:0:0:0:
290,325,23353,1,0,0:0:0:0:
171,116,23567,6,0,P|139:91|95:84,2,85.7999960723879
266,230,24424,2,0,P|313:260|375:251,1,114.399994763184,8|0,0:0|0:0,0:0:0:0:
333,174,25067,2,0,P|312:155|282:145,1,57.1999973815919
199,286,25496,6,0,L|203:313,1,28.599998690796
104,172,25924,6,0,L|99:144,1,28.599998690796
171,116,26139,5,8,0:0:0:0:
118,257,26353,1,0,0:0:0:0:
252,145,26567,1,0,0:0:0:0:
32,199,26782,1,0,0:0:0:0:
266,230,26996,6,0,P|321:197|336:142,1,123.199996240234,6|0,0:0|0:0,0:0:0:0:
322,57,27638,1,0,0:0:0:0:
185,201,27853,5,8,0:0:0:0:
252,145,28067,1,0,0:0:0:0:
90,87,28281,1,0,0:0:0:0:
104,172,28496,1,0,0:0:0:0:
238,60,28710,6,0,P|300:72|333:118,1,123.199996240234,2|0,0:0|0:0,0:0:0:0:
347,202,29353,1,0,0:0:0:0:
171,116,29567,5,8,0:0:0:0:
238,60,29781,1,0,0:0:0:0:
185,201,29996,1,0,0:0:0:0:
168,215,30103,1,2,0:0:0:0:
151,229,30210,1,0,0:0:0:0:
347,259,30424,6,0,P|402:226|417:171,1,123.199996240234,6|0,0:0|0:0,0:0:0:0:
403,86,31067,1,0,0:0:0:0:
266,230,31281,5,8,0:0:0:0:
333,174,31496,1,0,0:0:0:0:
104,172,31710,1,0,0:0:0:0:
118,257,31924,1,0,0:0:0:0:
238,60,32138,6,0,P|300:72|333:118,1,123.199996240234,2|0,0:0|0:0,0:0:0:0:
347,202,32781,1,0,0:0:0:0:
171,116,32996,5,8,0:0:0:0:
252,145,33210,1,0,0:0:0:0:
118,257,33424,1,0,0:0:0:0:
98,250,33531,1,2,0:0:0:0:
78,243,33638,1,0,0:0:0:0:
266,230,33853,6,0,B|306:244|306:244|385:219,1,123.199996240234,6|0,0:0|0:0,0:0:0:0:
464,187,34496,1,0,0:0:0:0:
252,145,34710,5,8,0:0:0:0:
266,230,34924,1,0,0:0:0:0:
319,89,35138,1,0,0:0:0:0:
185,201,35353,1,0,0:0:0:0:
400,118,35567,6,0,B|436:104|436:104|396:195,1,123.199996240234,2|0,0:0|0:0,0:0:0:0:
364,259,36210,1,0,0:0:0:0:
252,145,36424,5,8,0:0:0:0:
333,174,36638,1,0,0:0:0:0:
199,286,36853,1,0,0:0:0:0:
179,279,36960,1,2,0:0:0:0:
159,272,37067,1,0,0:0:0:0:
319,89,37281,6,0,P|381:101|414:147,1,123.199996240234,6|0,0:0|0:0,0:0:0:0:
428,232,37924,1,0,0:0:0:0:
467,62,38138,5,8,0:0:0:0:
481,147,38353,1,0,0:0:0:0:
319,89,38567,1,0,0:0:0:0:
386,33,38781,1,0,0:0:0:0:
414,203,38996,6,0,L|373:250,1,61.5999981201172,2|0,0:0|0:0,0:0:0:0:
228,276,39424,1,0,0:0:0:0:
214,191,39638,1,2,0:0:0:0:
456,277,39853,6,0,L|497:230,1,61.5999981201172,8|0,0:0|0:0,0:0:0:0:
295,220,40281,1,2,0:0:0:0:
309,305,40496,1,0,0:0:0:0:
429,108,40710,6,0,P|435:80|429:48,2,61.5999981201172,6|0|0,0:0|0:0|0:0,0:0:0:0:
348,79,41353,1,0,0:0:0:0:
376,249,41567,5,8,0:0:0:0:
443,193,41781,1,0,0:0:0:0:
214,191,41996,1,0,0:0:0:0:
228,276,42210,1,0,0:0:0:0:
281,135,42424,6,0,P|279:70|241:29,1,123.199996240234,2|0,0:0|0:0,0:0:0:0:
200,106,43067,1,0,0:0:0:0:
295,220,43281,5,8,0:0:0:0:
362,164,43496,1,0,0:0:0:0:
228,276,43710,1,0,0:0:0:0:
211,289,43817,1,2,0:0:0:0:
195,303,43924,1,0,0:0:0:0:
200,106,44138,6,0,P|237:60|300:50,1,123.199996240234,6|0,0:0|0:0,0:0:0:0:
281,135,44781,1,0,0:0:0:0:
133,162,44996,5,8,0:0:0:0:
119,77,45210,1,0,0:0:0:0:
295,220,45424,1,0,0:0:0:0:
228,276,45638,1,0,0:0:0:0:
267,50,45853,6,0,P|298:49|326:61,2,61.5999981201172,2|0|0,0:0|0:0|0:0,0:0:0:0:
281,135,46496,1,0,0:0:0:0:
52,133,46710,5,8,0:0:0:0:
186,21,46924,1,0,0:0:0:0:
66,218,47138,1,0,0:0:0:0:
49,231,47245,1,2,0:0:0:0:
33,245,47352,1,0,0:0:0:0:
214,191,47567,6,0,P|268:157|285:103,1,123.199996240234,6|0,0:0|0:0,0:0:0:0:
200,106,48210,1,0,0:0:0:0:
147,247,48424,5,8,0:0:0:0:
228,276,48638,1,0,0:0:0:0:
119,77,48853,1,0,0:0:0:0:
52,133,49067,1,0,0:0:0:0:
214,191,49281,6,0,P|235:246|212:305,1,123.199996240234,2|0,0:0|0:0,0:0:0:0:
147,247,49924,1,0,0:0:0:0:
281,135,50138,5,8,0:0:0:0:
335,201,50353,1,0,0:0:0:0:
200,106,50567,1,0,0:0:0:0:
197,85,50674,1,2,0:0:0:0:
194,64,50781,1,0,0:0:0:0:
147,247,50996,6,0,P|139:277|145:306,2,61.5999981201172,6|0|0,0:0|0:0|0:0,0:0:0:0:
228,276,51638,1,0,0:0:0:0:
119,77,51853,5,8,0:0:0:0:
200,106,52067,1,0,0:0:0:0:
52,133,52281,1,0,0:0:0:0:
267,50,52496,1,0,0:0:0:0:
133,162,52710,6,0,P|135:225|173:267,1,123.199996240234,2|0,0:0|0:0,0:0:0:0:
214,191,53353,1,0,0:0:0:0:
242,361,53567,5,8,0:0:0:0:
295,220,53781,1,0,0:0:0:0:
161,332,53996,1,0,0:0:0:0:
376,249,54210,1,0,0:0:0:0:
214,191,54424,5,6,0:0:0:0:
281,135,54852,1,8,0:0:0:0:
281,135,55495,5,2,0:0:0:0:
200,106,55709,1,8,0:0:0:0:
295,220,56138,5,2,0:0:0:0:
133,162,56566,1,8,0:0:0:0:
133,162,57209,5,0,0:0:0:0:
281,135,57424,1,8,0:0:0:0:
214,191,57638,1,2,0:0:0:0:
348,79,57852,5,6,0:0:0:0:
295,220,58281,1,8,0:0:0:0:
295,220,58924,5,2,0:0:0:0:
267,50,59138,1,8,0:0:0:0:
228,276,59566,5,2,0:0:0:0:
348,79,59995,1,8,0:0:0:0:
348,79,60638,5,2,0:0:0:0:
214,191,60852,1,8,0:0:0:0:
376,249,61066,1,2,0:0:0:0:
403,281,61174,1,2,0:0:0:0:
361,288,61281,5,6,0:0:0:0:
281,135,61709,1,8,0:0:0:0:
281,135,62352,5,2,0:0:0:0:
147,247,62566,1,8,0:0:0:0:
267,50,62995,5,2,0:0:0:0:
295,220,63424,1,8,0:0:0:0:
295,220,64066,5,2,0:0:0:0:
133,162,64281,1,8,0:0:0:0:
281,135,64495,1,2,0:0:0:0:
161,332,64709,5,6,0:0:0:0:
200,106,65138,1,8,0:0:0:0:
228,276,65352,5,0,0:0:0:0:
245,292,65459,1,0,0:0:0:0:
267,303,65566,1,0,0:0:0:0:
290,308,65673,1,0,0:0:0:0:
314,305,65780,1,0,0:0:0:0:
295,220,65995,1,8,0:0:0:0:
161,332,66424,6,0,P|106:323|71:287,1,105.599996777344,2|0,0:0|0:0,0:0:0:0:
214,191,66852,1,8,0:0:0:0:
309,305,67066,5,0,0:0:0:0:
337,327,67173,1,0,0:0:0:0:
373,336,67280,1,0,0:0:0:0:
409,330,67387,1,0,0:0:0:0:
439,309,67494,1,2,0:0:0:0:
362,164,67709,1,8,0:0:0:0:
309,305,67924,1,2,0:0:0:0:
269,291,68031,1,2,0:0:0:0:
228,276,68138,6,0,P|208:203|252:143,1,154
295,220,69852,2,0,P|337:157|315:82,1,158.399995166016
181,194,71566,6,0,P|92:152|109:46,1,215.59999342041,4|0,0:0|0:0,0:0:0:0:
167,109,73280,2,0,P|255:150|244:253,1,211.2
100,165,74995,6,0,B|114:121|162:87|221:103|248:138|248:138|259:104|290:83|322:80,1,277.199991540528,4|0,0:0|0:0,0:0:0:0:
329,167,76709,2,0,B|321:204|271:247|212:231|181:194|181:194|206:225|204:260|201:289|170:317,1,308
114,251,78423,6,0,B|84:219|82:160|117:117|167:110|167:110|190:136|192:166|181:195|181:195|164:238|181:284|226:319|276:309|276:309|257:285|251:259|259:229,1,532.400016247559,4|0,0:0|0:0,0:0:0:0:
343,252,80995,6,0,P|357:274|361:303,1,48.4000014770508
330,375,81423,1,0,0:0:0:0:
329,167,81638,1,4,0:0:0:0:
329,167,83566,6,0,P|327:101|280:57,1,132.000005035401,6|0,0:0|0:0,0:0:0:0:
248,138,84208,1,0,0:0:0:0:
424,281,84423,1,8,0:0:0:0:
424,281,85280,6,0,P|409:309|379:331,2,66.0000025177003,6|0|0,0:0|0:0|0:0,0:0:0:0:
410,196,85923,1,0,0:0:0:0:
276,308,86137,5,8,0:0:0:0:
262,223,86351,1,0,0:0:0:0:
114,250,86566,1,2,0:0:0:0:
100,165,86780,1,0,0:0:0:0:
343,252,86994,6,0,P|399:218|413:154,1,132.000005035401,6|0,0:0|0:0,0:0:0:0:
399,71,87637,1,0,0:0:0:0:
262,223,87851,1,8,0:0:0:0:
262,223,88708,6,0,P|228:222|195:206,2,66.0000025177003,6|0|0,0:0|0:0|0:0,0:0:0:0:
343,252,89351,1,0,0:0:0:0:
343,252,89458,1,8,0:0:0:0:
343,252,89566,2,0,P|326:283|296:303,1,66.0000025177003,8|0,0:0|0:0,0:0:0:0:
248,138,89994,5,0,0:0:0:0:
245,117,90101,1,2,0:0:0:0:
242,96,90208,1,0,0:0:0:0:
409,195,90423,6,0,P|368:245|304:250,1,132.000005035401,6|0,0:0|0:0,0:0:0:0:
223,221,91066,1,0,0:0:0:0:
395,110,91280,1,8,0:0:0:0:
395,110,92137,6,0,P|401:74|391:42,2,66.0000025177003,6|0|0,0:0|0:0|0:0,0:0:0:0:
315,82,92780,1,0,0:0:0:0:
410,196,92994,5,8,0:0:0:0:
329,167,93208,1,0,0:0:0:0:
357,337,93423,1,2,0:0:0:0:
262,223,93637,1,0,0:0:0:0:
424,281,93851,6,0,P|480:247|494:183,1,132.000005035401,6|0,0:0|0:0,0:0:0:0:
480,100,94494,1,0,0:0:0:0:
343,252,94708,1,8,0:0:0:0:
343,252,95566,6,0,P|308:264|286:289,2,66.0000025177003,6|0|0,0:0|0:0|0:0,0:0:0:0:
357,337,96208,1,2,0:0:0:0:
410,196,96423,5,8,0:0:0:0:
276,308,96637,1,0,0:0:0:0:
491,225,96851,1,2,0:0:0:0:
262,223,97066,1,0,0:0:0:0:
424,281,97280,6,0,P|480:247|494:183,1,132.000005035401,6|0,0:0|0:0,0:0:0:0:
480,100,97923,1,0,0:0:0:0:
262,223,98137,1,8,0:0:0:0:
262,223,98994,6,0,P|256:259|266:291,2,66.0000025177003,6|0|0,0:0|0:0|0:0,0:0:0:0:
343,252,99637,1,0,0:0:0:0:
248,138,99851,5,8,0:0:0:0:
329,167,100065,1,0,0:0:0:0:
181,194,100280,1,2,0:0:0:0:
315,82,100494,1,0,0:0:0:0:
262,223,100708,6,0,P|221:273|157:278,1,132.000005035401,6|0,0:0|0:0,0:0:0:0:
76,249,101351,1,0,0:0:0:0:
248,138,101566,1,8,0:0:0:0:
248,138,102423,6,0,P|282:139|315:155,2,66.0000025177003,6|0|0,0:0|0:0|0:0,0:0:0:0:
181,194,103066,1,0,0:0:0:0:
221,208,103173,1,2,0:0:0:0:
262,223,103280,1,8,0:0:0:0:
195,279,103494,1,0,0:0:0:0:
357,337,103708,5,0,0:0:0:0:
377,344,103816,1,2,0:0:0:0:
397,351,103923,1,0,0:0:0:0:
248,138,104137,6,0,P|219:114|187:107,2,66.0000025177003,6|0|0,0:0|0:0|0:0,0:0:0:0:
181,194,104780,1,0,0:0:0:0:
396,111,104994,1,8,0:0:0:0:
396,111,105851,6,0,P|430:112|463:128,2,66.0000025177003,6|0|0,0:0|0:0|0:0,0:0:0:0:
410,196,106494,1,0,0:0:0:0:
315,82,106708,6,0,P|286:58|254:51,1,66.0000025177003,8|0,0:0|0:0,0:0:0:0:
248,138,107137,1,2,0:0:0:0:
382,26,107351,1,0,0:0:0:0:
262,223,107566,6,0,P|221:273|157:278,1,132.000005035401,6|0,0:0|0:0,0:0:0:0:
181,194,108208,1,0,0:0:0:0:
410,196,108423,1,8,0:0:0:0:
410,196,109280,6,0,P|444:197|477:213,2,66.0000025177003,6|0|0,0:0|0:0|0:0,0:0:0:0:
424,281,109923,1,2,0:0:0:0:
396,111,110137,5,8,0:0:0:0:
329,167,110351,1,0,0:0:0:0:
477,140,110566,1,2,0:0:0:0:
248,138,110780,1,0,0:0:0:0:
424,281,110994,6,0,P|383:331|319:336,1,132.000005035401,6|0,0:0|0:0,0:0:0:0:
238,307,111637,1,0,0:0:0:0:
410,196,111851,1,8,0:0:0:0:
410,196,112708,6,0,P|445:182|467:158,2,66.0000025177003,6|0|0,0:0|0:0|0:0,0:0:0:0:
396,111,113351,1,0,0:0:0:0:
343,252,113566,5,8,0:0:0:0:
329,167,113780,1,0,0:0:0:0:
424,281,113994,1,2,0:0:0:0:
315,82,114208,1,0,0:0:0:0:
276,308,114423,6,0,P|235:358|171:363,1,132.000005035401,6|0,0:0|0:0,0:0:0:0:
195,279,115066,1,0,0:0:0:0:
424,281,115280,1,8,0:0:0:0:
424,281,116137,6,0,P|458:282|491:298,2,66.0000025177003,6|0|0,0:0|0:0|0:0,0:0:0:0:
357,337,116780,1,0,0:0:0:0:
317,323,116887,1,2,0:0:0:0:
277,309,116994,2,0,B|260:301|260:301|241:244,1,66.0000025177003,8|0,0:0|0:0,0:0:0:0:
315,82,117423,5,0,0:0:0:0:
312,61,117530,1,2,0:0:0:0:
309,40,117637,1,0,0:0:0:0:
181,194,117851,6,0,P|140:244|76:249,1,132.000005035401,6|0,0:0|0:0,0:0:0:0:
100,165,118494,1,0,0:0:0:0:
262,223,118708,1,8,0:0:0:0:
262,223,119566,6,0,P|278:252|280:289,2,66.0000025177003,6|0|0,0:0|0:0|0:0,0:0:0:0:
195,279,120208,1,0,0:0:0:0:
248,138,120423,5,8,0:0:0:0:
329,167,120637,1,0,0:0:0:0:
181,194,120851,1,2,0:0:0:0:
396,111,121066,1,0,0:0:0:0:
262,223,121280,6,0,P|221:273|157:278,1,132.000005035401,6|0,0:0|0:0,0:0:0:0:
76,249,121923,1,0,0:0:0:0:
248,138,122137,1,8,0:0:0:0:
248,138,122994,6,0,P|283:124|305:100,2,66.0000025177003,6|0|0,0:0|0:0|0:0,0:0:0:0:
167,109,123637,1,0,0:0:0:0:
234,53,123851,5,8,0:0:0:0:
181,194,124066,1,0,0:0:0:0:
153,24,124280,1,2,0:0:0:0:
262,223,124494,1,0,0:0:0:0:
86,80,124708,6,0,P|30:114|16:178,1,132.000005035401,6|0,0:0|0:0,0:0:0:0:
29,260,125351,1,0,0:0:0:0:
167,109,125566,1,8,0:0:0:0:
167,109,126423,6,0,P|202:95|224:71,2,66.0000025177003,6|0|0,0:0|0:0|0:0,0:0:0:0:
86,80,127066,1,0,0:0:0:0:
181,194,127280,5,8,0:0:0:0:
153,24,127494,1,0,0:0:0:0:
114,250,127708,1,2,0:0:0:0:
167,109,127923,1,0,0:0:0:0:
33,221,128137,6,0,P|34:286|82:330,1,132.000005035401,6|0,0:0|0:0,0:0:0:0:
161,358,128780,1,2,0:0:0:0:
100,165,128994,1,8,0:0:0:0:
100,165,129851,6,0,P|106:127|96:96,2,66.0000025177003,6|0|0,0:0|0:0|0:0,0:0:0:0:
33,221,130494,1,0,0:0:0:0:
26,253,130601,1,2,0:0:0:0:
34,285,130708,2,0,P|51:313|83:332,1,66.0000025177003,8|0,0:0|0:0,0:0:0:0:
181,194,131137,5,0,0:0:0:0:
184,178,131244,1,2,0:0:0:0:
180,162,131351,1,0,0:0:0:0:
114,250,131566,6,0,P|171:281|234:263,1,132.000005035401,6|0,0:0|0:0,0:0:0:0:
299,208,132208,1,0,0:0:0:0:
100,165,132423,1,8,0:0:0:0:
100,165,133280,6,0,P|71:140|39:134,2,66.0000025177003,6|0|0,0:0|0:0|0:0,0:0:0:0:
33,221,133923,1,0,0:0:0:0:
248,138,134137,5,8,0:0:0:0:
181,194,134351,1,0,0:0:0:0:
234,53,134566,1,2,0:0:0:0:
195,279,134780,1,0,0:0:0:0:
315,82,134994,6,0,P|356:32|420:27,1,132.000005035401,6|0,0:0|0:0,0:0:0:0:
500,55,135637,1,0,0:0:0:0:
329,167,135851,1,8,0:0:0:0:
329,167,136708,6,0,P|295:166|262:149,2,66.0000025177003,6|0|0,0:0|0:0|0:0,0:0:0:0:
396,111,137351,1,0,0:0:0:0:
181,194,137566,5,8,0:0:0:0:
315,82,137780,1,0,0:0:0:0:
195,279,137994,1,2,0:0:0:0:
234,53,138208,1,0,0:0:0:0:
256,192,138423,12,0,140137,0:0:0:0:
