osu file format v14

[General]
AudioFilename: MitiS - Touch.mp3
AudioLeadIn: 0
PreviewTime: 64867
Countdown: 0
SampleSet: Soft
StackLeniency: 0.7
Mode: 0
LetterboxInBreaks: 0
WidescreenStoryboard: 1

[Editor]
DistanceSpacing: 0.8
BeatDivisor: 4
GridSize: 8
TimelineZoom: 1.5

[Metadata]
Title:Touch (Original Mix)
TitleUnicode:Touch (Original Mix)
Artist:MitiS
ArtistUnicode:MitiS
Creator:[ Joey ]
Version:Touching
Source:
Tags:Drum&Bass dnb drumstep synth vibe EP Gear Milan Milan-
BeatmapID:585311
BeatmapSetID:255311

[Difficulty]
HPDrainRate:6
CircleSize:4
OverallDifficulty:8
ApproachRate:9.2
SliderMultiplier:1.8
SliderTickRate:1

[Events]
//Background and Video events
0,0,"BG.jpg",0,0
//Break Periods
2,121419,131883
//Storyboard Layer 0 (Background)
//Storyboard Layer 1 (Fail)
//Storyboard Layer 2 (Pass)
//Storyboard Layer 3 (Foreground)
//Storyboard Sound Samples

[TimingPoints]
40,344.827586206897,4,1,0,100,1,0
33143,-133.333333333333,4,2,0,55,0,0
44177,-117.647058823529,4,2,2,65,0,0
45557,-117.647058823529,4,2,2,35,0,0
46246,-117.647058823529,4,2,2,65,0,0
51074,-117.647058823529,4,2,2,35,0,0
51764,-117.647058823529,4,2,2,65,0,0
54695,-117.647058823529,4,2,1,70,0,0
55212,-111.111111111111,4,2,2,65,0,0
64867,-200,4,2,1,30,0,0
65557,-200,4,2,1,50,0,0
66246,-100,4,2,1,75,0,1
82367,-100,4,2,1,5,0,1
82453,-100,4,2,1,75,0,1
85557,-133.333333333333,4,2,0,50,0,0
86936,-133.333333333333,4,2,0,55,0,0
87626,-133.333333333333,4,2,1,55,0,0
88315,-100,4,2,1,75,0,1
92453,-100,4,2,1,75,0,1
92540,-100,4,2,1,5,0,1
92626,-100,4,2,1,75,0,1
92712,-100,4,2,1,5,0,1
92798,-100,4,2,1,75,0,1
107626,-133.333333333333,4,2,0,70,0,0
110384,-117.647058823529,4,2,1,60,0,0
118660,-117.647058823529,4,2,0,60,0,0
132453,-133.333333333333,4,2,0,55,0,0
143488,-125,4,2,0,55,0,0
151764,-200,4,2,0,40,0,0
154436,-200,4,2,0,5,0,0
154522,-117.647058823529,4,2,2,55,0,0
165040,-117.647058823529,4,2,1,45,0,0
165557,-111.111111111111,4,2,2,60,0,0
175212,-200,4,2,33,65,0,0
176246,-200,4,2,1,50,0,0
176591,-90.9090909090909,4,2,1,75,0,1
184781,-90.9090909090909,4,2,1,5,0,1
184867,-90.9090909090909,4,2,1,75,0,1
186936,-90.9090909090909,4,2,1,75,0,1
187626,-90.9090909090909,4,2,1,75,0,1
195902,-133.333333333333,4,2,0,50,0,0
197281,-133.333333333333,4,2,0,55,0,0
197971,-133.333333333333,4,2,1,55,0,0
198660,-90.9090909090909,4,2,1,75,0,1
202798,-90.9090909090909,4,2,34,75,0,1
204177,-90.9090909090909,4,2,1,75,0,1
209005,-90.9090909090909,4,2,1,55,0,1
209695,-90.9090909090909,4,2,1,75,0,1
219350,-90.9090909090909,4,2,0,50,0,1
220040,-90.9090909090909,4,2,1,65,0,1
220729,-117.647058823529,4,2,1,55,0,0
229005,-117.647058823529,4,2,0,30,0,0

[Colours]
Combo1 : 64,128,128
Combo2 : 0,64,128
Combo3 : 22,175,250
Combo4 : 0,128,73

[HitObjects]
222,286,33143,6,0,L|213:190,1,67.5000025749208,2|0,0:0|0:0,0:0:0:0:
205,97,33488,1,2,0:0:0:0:
205,97,33660,1,0,0:0:0:0:
332,224,33833,2,0,P|401:236|458:202,1,135.000005149842,2|0,0:0|0:0,0:0:0:0:
382,131,34350,1,2,0:0:0:0:
232,219,34522,6,0,L|220:304,1,67.5000025749208,2|0,0:0|0:0,0:0:0:0:
144,178,34867,2,0,L|133:258,1,67.5000025749208
304,312,35212,2,0,L|330:389,1,67.5000025749208,2|0,0:0|0:0,0:0:0:0:
400,313,35557,2,0,L|427:388,1,67.5000025749208
351,232,35902,5,2,0:0:0:0:
382,131,36074,1,0,0:0:0:0:
453,199,36246,1,0,0:0:0:0:
352,232,36419,1,0,0:0:0:0:
289,156,36591,2,0,P|218:152|155:180,1,135.000005149842,2|0,0:0|0:0,0:0:0:0:
100,268,37108,1,0,0:0:0:0:
254,301,37281,6,0,L|271:227,1,67.5000025749208,2|0,0:0|0:0,0:0:0:0:
289,156,37626,1,0,0:0:0:0:
309,77,37798,1,0,0:0:0:0:
370,279,37971,2,0,L|387:205,1,67.5000025749208,2|0,0:0|0:0,0:0:0:0:
403,134,38316,1,0,0:0:0:0:
425,56,38488,1,0,0:0:0:0:
290,236,38660,6,0,P|251:227|219:196,1,67.5000025749208,2|0,0:0|0:0,0:0:0:0:
178,121,39005,1,0,0:0:0:0:
84,93,39177,2,0,P|87:159|132:208,1,135.000005149842,2|0,0:0|0:0,0:0:0:0:
266,157,39695,1,2,0:0:0:0:
381,222,39867,6,0,L|381:312,1,67.5000025749208,0|2,0:0|0:0,0:0:0:0:
302,179,40212,1,0,0:0:0:0:
381,116,40384,1,0,0:0:0:0:
460,178,40557,1,0,0:0:0:0:
266,157,40729,1,2,0:0:0:0:
382,79,40902,1,0,0:0:0:0:
490,154,41074,1,0,0:0:0:0:
378,252,41246,1,0,0:0:0:0:
244,146,41419,6,0,L|179:103,1,67.5000025749208,2|0,0:0|0:0,0:0:0:0:
150,289,41764,2,0,L|161:199,1,67.5000025749208,0|0,0:0|0:0,0:0:0:0:
381,222,42108,2,0,L|402:376,2,135.000005149842,2|0|0,0:0|0:0|0:0,0:0:0:0:
449,114,42971,6,0,L|468:34,1,67.5000025749208,2|0,0:0|0:0,0:0:0:0:
381,222,43315,2,0,P|307:239|232:202,1,135.000005149842,2|0,0:0|0:0,0:0:0:0:
317,96,43833,1,2,0:0:0:0:
317,96,44005,1,0,0:0:0:0:
120,248,44177,6,0,P|115:289|122:326,1,76.5000014591217,2|0,0:0|0:0,0:0:0:0:
211,162,44522,2,0,P|216:121|209:84,1,76.5000014591217,4|0,0:0|0:0,0:0:0:0:
243,296,44867,2,0,P|299:320|416:283,1,153.000002918243,2|4,0:0|0:0,0:0:0:0:
418,182,45384,1,0,0:0:0:0:
317,96,45557,6,0,L|313:33,3,38.2500007295609,6|0|4|4,0:0|0:0|0:0|0:0,0:0:0:0:
211,162,45902,2,0,L|175:123,3,38.2500007295609,4|0|4|4,0:0|0:0|0:0|0:0,0:0:0:0:
142,248,46246,1,2,0:0:0:0:
324,220,46419,1,0,0:0:0:0:
142,248,46591,2,0,L|136:328,1,76.5000014591217,4|0,0:0|0:0,0:0:0:0:
280,344,46936,5,6,0:0:0:0:
324,220,47108,1,4,0:0:0:0:
142,248,47281,1,0,0:0:0:0:
261,325,47453,1,0,0:0:0:0:
219,154,47626,2,0,P|269:93|354:96,1,153.000002918243,6|4,0:0|0:0,0:0:0:0:
440,160,48143,1,4,0:0:0:0:
324,220,48315,6,0,B|230:237,1,76.5000014591217,2|0,0:0|0:0,0:0:0:0:
107,195,48660,1,4,0:0:0:0:
89,229,48833,1,0,0:0:0:0:
185,337,49005,2,0,B|285:320,1,76.5000014591217,6|4,0:0|0:0,0:0:0:0:
324,220,49350,1,0,0:0:0:0:
338,185,49522,1,0,0:0:0:0:
181,195,49695,6,0,P|133:202|82:177,1,76.5000014591217,6|0,0:0|0:0,0:0:0:0:
185,337,50040,2,0,P|230:343|284:323,1,76.5000014591217,4|4,0:0|0:0,0:0:0:0:
398,219,50384,2,0,P|362:212|322:219,1,76.5000014591217,2|0,0:0|0:0,0:0:0:0:
185,337,50729,2,0,P|147:342|109:338,1,76.5000014591217,4|0,0:0|0:0,0:0:0:0:
285,305,51074,6,0,L|277:267,3,38.2500007295609,6|0|4|4,0:0|0:0|0:0|0:0,0:0:0:0:
314,176,51419,2,0,L|329:112,3,38.2500007295609,4|0|4|4,0:0|0:0|0:0|0:0,0:0:0:0:
350,31,51764,1,2,0:0:0:0:
460,117,51936,1,0,0:0:0:0:
314,176,52108,2,0,L|213:155,1,76.5000014591217,4|0,0:0|0:0,0:0:0:0:
285,305,52453,5,6,0:0:0:0:
314,176,52626,1,0,0:0:0:0:
249,315,52798,1,4,0:0:0:0:
149,242,52971,1,4,0:0:0:0:
329,295,53143,1,6,0:0:0:0:
329,295,53488,2,0,L|341:373,1,76.5000014591217,4|0,0:0|0:0,0:0:0:0:
229,196,53833,6,0,P|227:155|252:111,2,76.5000014591217,6|0|4,0:0|0:0|0:0,0:0:0:0:
329,295,54350,2,0,P|334:336|321:384,1,76.5000014591217,4|2,0:0|0:0,0:0:0:0:
477,219,54695,1,8,0:3:0:0:
241,332,54867,1,8,0:3:0:0:
310,81,55040,1,4,0:3:0:0:
310,81,55126,1,4,0:3:0:0:
310,81,55212,6,0,P|269:48|209:44,1,80.9999975280763,2|0,0:0|0:0,0:0:0:0:
104,207,55557,2,0,P|160:211|205:193,1,80.9999975280763,4|0,0:0|0:0,0:0:0:0:
339,194,55902,2,0,L|381:371,2,161.999995056153,2|4|2,0:0|0:0|0:0,0:0:0:0:
414,109,56764,5,0,0:0:0:0:
252,238,56936,2,0,P|202:249|89:187,1,161.999995056153,4|2,0:0|0:0,0:0:0:0:
200,116,57453,1,0,0:0:0:0:
335,276,57626,2,0,L|298:364,1,80.9999975280763,4|0,0:0|0:0,0:0:0:0:
155,326,57971,6,0,L|49:343,2,80.9999975280763,6|0|4,0:0|0:0|0:0,0:0:0:0:
265,366,58488,1,0,0:0:0:0:
429,274,58660,2,0,L|414:353,1,80.9999975280763,2|0,0:0|0:0,0:0:0:0:
237,284,59005,2,0,L|258:172,1,80.9999975280763,4|0,0:0|0:0,0:0:0:0:
286,43,59350,6,0,P|310:103|410:131,2,161.999995056153,2|4|2,0:0|0:0|0:0,0:0:0:0:
251,204,60212,1,0,0:0:0:0:
108,135,60384,1,4,0:0:0:0:
94,164,60471,1,0,0:0:0:0:
94,196,60557,1,2,0:0:0:0:
106,225,60643,1,2,0:0:0:0:
125,251,60729,6,0,P|142:299|121:359,1,80.9999975280763,6|0,0:0|0:0,0:0:0:0:
223,330,60988,1,0,0:0:0:0:
223,330,61074,2,0,L|318:290,1,80.9999975280763,4|0,0:0|0:0,0:0:0:0:
417,195,61419,2,0,L|333:183,1,80.9999975280763,2|0,0:0|0:0,0:0:0:0:
237,67,61764,2,0,L|316:51,1,80.9999975280763,4|0,0:0|0:0,0:0:0:0:
458,80,62108,5,2,0:0:0:0:
283,253,62281,1,0,0:0:0:0:
251,246,62367,1,0,0:0:0:0:
223,228,62453,2,0,P|205:194|206:145,1,80.9999975280763,4|0,0:0|0:0,0:0:0:0:
391,278,62798,2,0,L|403:369,2,80.9999975280763,2|4|4,0:0|0:0|0:0,0:0:0:0:
309,135,63315,1,0,0:0:0:0:
223,317,63488,5,6,0:0:0:0:
196,335,63574,1,2,0:0:0:0:
164,341,63660,1,2,0:0:0:0:
131,341,63746,1,2,0:0:0:0:
97,330,63833,2,0,L|79:289,1,40.4999987640381,6|2,0:0|0:0,0:0:0:0:
126,208,64005,1,2,0:0:0:0:
131,197,64091,1,2,0:0:0:0:
137,186,64177,6,0,L|124:122,1,40.4999987640381,6|2,0:0|0:0,0:0:0:0:
179,62,64350,2,0,L|227:35,1,40.4999987640381,6|2,0:0|0:0,0:0:0:0:
271,120,64522,2,0,L|325:140,1,40.4999987640381,6|2,0:0|0:0,0:0:0:0:
366,54,64695,2,0,L|401:33,1,40.4999987640381,6|2,0:0|0:0,0:0:0:0:
277,222,64867,6,0,L|298:275,1,45,8|0,0:1|0:0,0:0:0:0:
474,226,65212,1,8,0:1:0:0:
140,325,65384,1,8,0:1:0:0:
154,86,65557,1,8,0:3:0:0:
419,329,65729,1,8,0:3:0:0:
196,175,65902,1,4,0:3:0:0:
480,73,66074,1,4,0:3:0:0:
100,159,66246,6,0,P|105:213|142:257,1,90,2|0,0:0|0:0,0:0:0:0:
313,331,66591,1,0,0:0:0:0:
0,336,66764,1,2,0:0:0:0:
196,175,66936,2,0,P|246:163|295:177,1,90,8|0,0:0|0:0,0:0:0:0:
455,251,67281,6,0,L|484:39,1,180,2|2,0:0|0:0,0:0:0:0:
301,54,67798,1,0,0:0:0:0:
295,264,67971,2,0,L|309:385,1,90,0|2,0:0|0:0,0:0:0:0:
195,194,68315,2,0,P|297:142|358:161,1,180,8|0,0:0|0:0,0:0:0:0:
456,257,68833,1,0,0:0:0:0:
201,283,69005,6,0,L|193:170,1,90,2|0,0:0|0:0,0:0:0:0:
354,158,69350,1,0,0:0:0:0:
252,354,69522,2,0,P|211:373|168:366,1,90,2|8,0:0|0:0,0:0:0:0:
41,262,69867,1,0,0:0:0:0:
194,193,70040,6,0,P|212:119|159:20,1,180,2|0,0:0|0:0,0:0:0:0:
70,129,70557,1,2,0:0:0:0:
342,95,70729,1,0,0:0:0:0:
147,290,70902,1,2,0:0:0:0:
304,174,71074,2,0,B|322:157|322:157|347:75,1,90,8|0,0:0|0:0,0:0:0:0:
147,290,71419,2,0,B|127:307|127:307|109:370,1,90,8|0,0:0|0:0,0:0:0:0:
318,317,71764,6,0,P|386:324|426:303,1,90,2|0,0:0|0:0,0:0:0:0:
341,94,72108,2,0,P|333:54|354:-2,1,90,0|2,0:0|0:0,0:0:0:0:
193,122,72453,2,0,L|83:149,1,90,8|0,0:0|0:0,0:0:0:0:
95,168,72712,1,0,0:0:0:0:
84,192,72798,1,2,0:0:0:0:
134,332,72971,1,0,0:0:0:0:
109,344,73057,1,0,0:0:0:0:
85,357,73143,5,2,0:0:0:0:
254,277,73315,1,0,0:0:0:0:
105,143,73488,2,0,P|97:93|114:44,1,90,0|2,0:0|0:0,0:0:0:0:
371,167,73833,2,0,P|337:246|246:276,1,180,8|0,0:0|0:0,0:0:0:0:
437,345,74350,1,0,0:0:0:0:
257,164,74522,6,0,P|246:129|258:69,1,90,2|0,0:0|0:0,0:0:0:0:
125,24,74867,1,0,0:0:0:0:
374,121,75040,1,2,0:0:0:0:
111,206,75212,1,8,0:0:0:0:
261,303,75384,1,0,0:0:0:0:
258,275,75471,1,0,0:0:0:0:
255,248,75557,1,2,0:0:0:0:
430,233,75729,1,0,0:0:0:0:
261,303,75902,6,0,P|210:316|166:304,1,90,2|2,0:0|0:0,0:0:0:0:
214,120,76246,2,0,P|259:111|303:125,1,90,0|2,0:0|0:0,0:0:0:0:
352,270,76591,5,8,0:0:0:0:
226,19,76764,1,8,0:0:0:0:
42,261,76936,1,2,0:0:0:0:
407,61,77108,1,0,0:0:0:0:
352,270,77281,6,0,P|367:329|396:356,1,90,2|2,0:0|0:0,0:0:0:0:
277,141,77626,2,0,L|166:124,1,90,0|2,0:0|0:0,0:0:0:0:
452,265,77971,2,0,P|495:213|482:92,1,180,8|2,0:0|0:0,0:0:0:0:
306,34,78488,1,0,0:0:0:0:
258,293,78660,6,0,L|343:231,1,90,2|0,0:0|0:0,0:0:0:0:
490,105,79005,1,0,0:0:0:0:
450,354,79177,1,2,0:0:0:0:
243,182,79350,2,0,P|247:85|321:29,1,180,8|0,0:0|0:0,0:0:0:0:
490,105,79867,1,0,0:0:0:0:
243,182,80040,6,0,L|142:172,1,90,2|0,0:0|0:0,0:0:0:0:
177,333,80384,1,0,0:0:0:0:
50,189,80557,2,0,P|51:148|83:97,1,90,2|8,0:0|0:0,0:0:0:0:
35,320,80902,1,0,0:0:0:0:
348,295,81074,1,2,0:0:0:0:
348,295,81419,6,0,P|312:334|239:333,1,90,2|0,0:0|0:0,0:0:0:0:
46,230,81764,2,0,L|32:342,1,90,0|2,0:0|0:0,0:0:0:0:
271,250,82108,2,0,B|253:83,1,135,8|0,0:0|0:0,0:0:0:0:
201,31,82453,2,0,L|213:142,1,90,0|8,0:0|0:0,0:0:0:0:
390,157,82798,5,2,0:0:0:0:
160,308,82971,1,2,0:0:0:0:
391,291,83143,2,0,P|439:282|495:307,1,90,0|2,0:0|0:0,0:0:0:0:
288,155,83488,2,0,P|243:148|205:110,1,90,8|0,0:0|0:0,0:0:0:0:
200,80,83746,1,0,0:0:0:0:
200,80,83833,1,2,0:0:0:0:
160,308,84005,1,0,0:0:0:0:
160,308,84091,1,0,0:0:0:0:
160,308,84177,5,2,0:0:0:0:
17,142,84350,1,0,0:0:0:0:
160,308,84522,2,0,L|260:328,1,90,0|2,0:0|0:0,0:0:0:0:
24,321,84867,2,0,L|16:132,1,180,8|0,0:0|0:0,0:0:0:0:
97,67,85384,1,0,0:0:0:0:
165,128,85557,6,0,P|140:148|84:155,1,67.5000025749208,2|0,0:0|0:0,0:0:0:0:
97,67,85902,1,0,0:0:0:0:
228,180,86074,2,0,P|175:221|85:238,1,135.000005149842,2|0,0:0|0:0,0:0:0:0:
110,238,86591,1,2,0:0:0:0:
160,319,86936,5,2,0:0:0:0:
110,238,87108,1,0,0:0:0:0:
150,152,87281,2,0,P|149:98|139:71,1,67.5000025749208,2|0,0:0|0:0,0:0:0:0:
16,266,87626,5,8,0:3:0:0:
398,84,87798,1,8,0:3:0:0:
310,342,87971,1,4,0:3:0:0:
150,152,88143,1,4,0:3:0:0:
376,259,88315,6,0,P|410:301|413:356,1,90,2|0,0:0|0:0,0:0:0:0:
230,279,88660,1,0,0:0:0:0:
398,84,88833,2,0,L|491:67,1,90,2|8,0:0|0:0,0:0:0:0:
376,259,89177,1,0,0:0:0:0:
172,147,89350,2,0,L|172:41,1,90,2|0,0:0|0:0,0:0:0:0:
144,33,89608,1,0,0:0:0:0:
144,33,89695,5,2,0:0:0:0:
316,40,89867,1,0,0:0:0:0:
39,178,90040,2,0,L|58:277,1,90,0|2,0:0|0:0,0:0:0:0:
298,217,90384,2,0,P|377:229|411:318,1,180,8|0,0:0|0:0,0:0:0:0:
298,217,90902,1,0,0:0:0:0:
441,51,91074,6,0,L|428:153,1,90,2|0,0:0|0:0,0:0:0:0:
325,302,91419,1,0,0:0:0:0:
157,197,91591,2,0,P|96:186|50:214,1,90,2|8,0:0|0:0,0:0:0:0:
197,74,91936,1,0,0:0:0:0:
117,300,92108,2,0,B|147:314|147:314|238:303,1,90,2|0,0:0|0:0,0:0:0:0:
377,282,92453,6,0,L|381:221,1,45,2|0,0:0|0:0,0:0:0:0:
487,249,92626,2,0,L|515:209,1,45,2|0,0:0|0:0,0:0:0:0:
430,157,92798,2,0,L|330:130,1,90,0|2,0:0|0:0,0:0:0:0:
117,300,93143,2,0,P|148:280|167:207,1,90,8|0,0:0|0:0,0:0:0:0:
430,157,93488,2,0,P|408:109|418:57,1,90,8|0,0:0|0:0,0:0:0:0:
356,335,93833,5,2,0:0:0:0:
169,232,94005,1,0,0:0:0:0:
430,157,94177,2,0,P|387:170|342:166,1,90,0|2,0:0|0:0,0:0:0:0:
41,91,94522,2,0,P|123:62|227:97,1,180,8|2,0:0|0:0,0:0:0:0:
357,265,95040,1,0,0:0:0:0:
195,173,95212,6,0,L|212:73,1,90,2|0,0:0|0:0,0:0:0:0:
68,225,95557,2,0,L|79:334,1,90,0|2,0:0|0:0,0:0:0:0:
357,265,95902,2,0,P|409:193|510:193,1,180,8|0,0:0|0:0,0:0:0:0:
466,297,96419,1,0,0:0:0:0:
284,114,96591,6,0,P|274:67|284:24,1,90,2|0,0:0|0:0,0:0:0:0:
494,185,96936,2,0,L|381:172,1,90,0|2,0:0|0:0,0:0:0:0:
78,187,97281,2,0,L|167:198,1,90,8|0,0:0|0:0,0:0:0:0:
438,339,97626,2,0,L|333:326,1,90,2|0,0:0|0:0,0:0:0:0:
339,337,97884,1,0,0:0:0:0:
330,347,97971,5,2,0:0:0:0:
167,198,98143,1,2,0:0:0:0:
404,174,98315,2,0,L|415:79,1,90,0|2,0:0|0:0,0:0:0:0:
459,289,98660,5,8,0:0:0:0:
121,99,98833,1,8,0:0:0:0:
414,84,99005,1,2,0:0:0:0:
195,317,99177,1,8,0:0:0:0:
324,76,99350,6,0,L|416:84,1,90,2|2,0:0|0:0,0:0:0:0:
355,259,99695,2,0,P|347:302|371:359,1,90,0|2,0:0|0:0,0:0:0:0:
213,193,100040,2,0,L|84:208,1,90,8|0,0:0|0:0,0:0:0:0:
103,228,100298,1,0,0:0:0:0:
103,228,100384,1,2,0:0:0:0:
169,78,100557,1,0,0:0:0:0:
33,271,100729,6,0,P|21:228|34:183,1,90,2|0,0:0|0:0,0:0:0:0:
243,280,101074,2,0,L|243:390,1,90,0|2,0:0|0:0,0:0:0:0:
364,139,101419,2,0,P|411:101|518:152,1,180,8|0,0:0|0:0,0:0:0:0:
286,290,101936,2,0,L|226:275,1,45
220,197,102108,6,0,P|185:152|135:135,1,90,2|0,0:0|0:0,0:0:0:0:
0,134,102453,1,0,0:0:0:0:
104,345,102626,2,0,L|132:233,1,90,2|8,0:0|0:0,0:0:0:0:
156,138,102971,1,0,0:0:0:0:
332,324,103143,6,0,P|397:348|506:313,1,180,2|2,0:0|0:0,0:0:0:0:
407,141,103660,1,0,0:0:0:0:
332,324,103833,1,0,0:0:0:0:
200,106,104005,1,2,0:0:0:0:
164,295,104177,2,0,L|180:418,1,90,8|0,0:0|0:0,0:0:0:0:
394,230,104522,2,0,L|408:133,1,90
494,57,104867,5,2,0:0:0:0:
200,106,105040,1,2,0:0:0:0:
333,295,105212,2,0,P|377:316|443:299,1,90,0|2,0:0|0:0,0:0:0:0:
378,118,105557,2,0,P|369:58|394:11,1,90,8|0,0:0|0:0,0:0:0:0:
199,232,105902,2,0,B|165:249|165:249|55:235,1,135,2|2,0:0|0:0,0:0:0:0:
0,180,106246,6,0,L|113:194,1,90,2|2,0:0|0:0,0:0:0:0:
0,331,106591,1,0,0:0:0:0:
158,75,106764,1,2,0:0:0:0:
146,342,106936,2,0,P|220:353|304:281,1,180,8|0,0:0|0:0,0:0:0:0:
369,146,107453,1,0,0:0:0:0:
369,146,107540,1,0,0:0:0:0:
369,146,107626,6,0,P|401:164|443:168,1,67.5000025749208,2|0,0:0|0:0,0:0:0:0:
300,78,107971,2,0,L|286:3,1,67.5000025749208,2|0,0:0|0:0,0:0:0:0:
341,239,108315,2,0,L|362:328,1,67.5000025749208,2|0,0:0|0:0,0:0:0:0:
256,65,108660,2,0,L|237:-19,1,67.5000025749208,2|0,0:0|0:0,0:0:0:0:
381,251,109005,2,0,L|397:328,1,67.5000025749208,2|0,0:0|0:0,0:0:0:0:
370,147,109350,2,0,L|448:123,1,67.5000025749208,2|0,0:0|0:0,0:0:0:0:
232,229,109695,2,0,L|154:253,1,67.5000025749208,2|0,0:0|0:0,0:0:0:0:
370,147,110384,6,0,P|369:96|381:51,1,76.5000014591217,2|2,0:0|0:0,0:0:0:0:
280,21,110729,1,0,0:0:0:0:
485,75,110902,1,2,0:0:0:0:
267,132,111074,2,0,P|180:137|99:154,1,153.000002918243,8|2,0:0|0:0,0:0:0:0:
220,294,111591,5,0,0:0:0:0:
223,263,111677,1,0,0:0:0:0:
226,232,111764,1,2,0:0:0:0:
406,243,111936,1,0,0:0:0:0:
399,215,112022,1,0,0:0:0:0:
389,183,112108,1,0,0:0:0:0:
485,75,112281,1,2,0:0:0:0:
266,132,112453,6,0,L|174:128,1,76.5000014591217,8|0,0:0|0:0,0:0:0:0:
158,128,112712,1,0,0:0:0:0:
127,127,112798,1,0,0:0:0:0:
232,26,112971,1,0,0:0:0:0:
82,223,113143,6,0,P|75:269|85:323,1,76.5000014591217,2|0,0:0|0:0,0:0:0:0:
266,132,113488,1,0,0:0:0:0:
89,125,113660,1,2,0:0:0:0:
259,233,113833,2,8,P|308:226|363:137,1,153.000002918243,8|2,0:0|0:0,0:0:0:0:
266,132,114350,1,0,0:0:0:0:
165,288,114522,5,2,0:0:0:0:
89,125,114695,1,0,0:0:0:0:
73,98,114781,1,0,0:0:0:0:
57,71,114867,1,0,0:0:0:0:
80,238,115040,1,2,0:0:0:0:
68,266,115126,1,0,0:0:0:0:
56,295,115212,1,8,0:0:0:0:
260,233,115384,1,0,0:0:0:0:
166,288,115557,2,0,P|188:320|237:341,1,76.5000014591217
400,180,115902,5,2,0:0:0:0:
179,185,116074,1,2,0:0:0:0:
320,317,116246,2,0,L|397:317,1,76.5000014591217,0|2,0:0|0:0,0:0:0:0:
179,185,116591,2,0,P|153:101|182:38,1,153.000002918243,8|2,0:0|0:0,0:0:0:0:
264,114,117108,1,0,0:0:0:0:
82,232,117281,6,0,L|97:330,1,76.5000014591217,2|0,0:0|0:0,0:0:0:0:
82,336,117540,1,0,0:0:0:0:
69,363,117626,1,0,0:0:0:0:
248,322,117798,1,2,0:0:0:0:
264,296,117884,1,0,0:0:0:0:
281,271,117971,2,0,L|368:257,1,76.5000014591217,8|0,0:0|0:0,0:0:0:0:
177,177,118315,2,0,P|183:239|210:273,1,76.5000014591217
445,244,118660,5,2,0:0:0:0:
224,228,132453,6,0,L|244:316,1,67.5000025749208,2|0,0:0|0:0,0:0:0:0:
274,138,132798,1,2,0:0:0:0:
128,192,132971,1,0,0:0:0:0:
336,260,133143,2,0,P|405:272|462:238,1,135.000005149842,2|0,0:0|0:0,0:0:0:0:
450,120,133660,1,0,0:0:0:0:
274,138,133833,6,0,L|350:171,1,67.5000025749208,2|0,0:0|0:0,0:0:0:0:
250,43,134177,2,0,L|173:69,1,67.5000025749208
128,192,134522,2,0,L|200:225,1,67.5000025749208,2|0,0:0|0:0,0:0:0:0:
68,126,134867,2,0,L|-13:160,1,67.5000025749208
84,309,135212,5,2,0:0:0:0:
128,192,135384,1,0,0:0:0:0:
228,266,135557,1,0,0:0:0:0:
171,103,135729,1,2,0:0:0:0:
228,266,135902,2,0,P|298:268|344:204,1,135.000005149842,2|0,0:0|0:0,0:0:0:0:
313,50,136418,1,0,0:0:0:0:
219,199,136591,6,0,L|228:266,1,67.5000025749208,2|0,0:0|0:0,0:0:0:0:
288,136,136936,1,0,0:0:0:0:
288,136,137108,1,0,0:0:0:0:
133,121,137281,2,0,L|113:199,1,67.5000025749208,2|0,0:0|0:0,0:0:0:0:
40,298,137626,1,0,0:0:0:0:
40,298,137798,1,0,0:0:0:0:
214,265,137970,6,0,P|222:223|211:175,1,67.5000025749208,2|0,0:0|0:0,0:0:0:0:
133,121,138315,1,0,0:0:0:0:
370,144,138488,2,0,P|367:210|315:266,1,135.000005149842,2|0,0:0|0:0,0:0:0:0:
262,164,139005,1,2,0:0:0:0:
435,286,139177,6,0,L|435:376,1,67.5000025749208,0|2,0:0|0:0,0:0:0:0:
324,260,139522,1,0,0:0:0:0:
370,144,139695,1,0,0:0:0:0:
435,285,139867,1,0,0:0:0:0:
212,226,140040,1,2,0:0:0:0:
370,144,140212,1,0,0:0:0:0:
324,260,140384,1,0,0:0:0:0:
212,226,140556,1,0,0:0:0:0:
226,71,140729,6,0,P|249:96|258:153,1,67.5000025749208,2|0,0:0|0:0,0:0:0:0:
157,292,141074,2,0,P|134:267|125:210,1,67.5000025749208,0|0,0:0|0:0,0:0:0:0:
324,260,141419,2,0,P|332:325|283:395,2,135.000005149842,2|0|0,0:0|0:0|0:0,0:0:0:0:
157,292,142281,6,0,L|74:320,1,67.5000025749208,2|0,0:0|0:0,0:0:0:0:
96,195,142626,2,0,P|86:133|126:62,1,135.000005149842,2|0,0:0|0:0,0:0:0:0:
199,149,143143,1,2,0:0:0:0:
199,149,143315,1,0,0:0:0:0:
329,255,143488,6,0,L|433:243,1,72,2|0,0:0|0:0,0:0:0:0:
271,155,143833,2,0,L|187:149,1,72
158,368,144177,2,0,L|319:381,1,144,2|0,0:0|0:0,0:0:0:0:
329,255,144695,1,0,0:0:0:0:
165,298,144867,6,0,P|154:347|161:377,1,72,2|0,0:0|0:0,0:0:0:0:
119,212,145212,1,0,0:0:0:0:
68,135,145384,1,0,0:0:0:0:
204,223,145557,2,0,P|243:214|277:179,1,72,2|0,0:0|0:0,0:0:0:0:
313,111,145902,1,0,0:0:0:0:
324,20,146074,1,0,0:0:0:0:
445,164,146246,6,0,L|459:267,1,72,2|0,0:0|0:0,0:0:0:0:
274,226,146591,2,0,P|229:217|188:233,1,72
333,300,146936,2,0,P|363:261|327:148,1,144,2|0,0:0|0:0,0:0:0:0:
404,81,147453,1,0,0:0:0:0:
274,226,147626,6,0,P|232:228|177:214,1,72,2|0,0:0|0:0,0:0:0:0:
122,180,147971,1,0,0:0:0:0:
76,96,148143,1,0,0:0:0:0:
58,252,148315,2,0,P|55:299|68:340,1,72,2|0,0:0|0:0,0:0:0:0:
122,180,148660,1,0,0:0:0:0:
213,157,148833,1,0,0:0:0:0:
76,97,149005,5,2,0:0:0:0:
213,157,149177,1,0,0:0:0:0:
28,216,149350,1,0,0:0:0:0:
184,68,149522,2,0,P|243:60|312:113,1,144,2|0,0:0|0:0,0:0:0:0:
342,230,150040,1,2,0:0:0:0:
212,157,150212,1,0,0:0:0:0:
180,280,150384,6,0,L|197:363,1,72,2|0,0:0|0:0,0:0:0:0:
342,230,150729,2,0,L|346:74,1,144,0|2,0:0|0:0,0:0:0:0:
279,29,151246,1,0,0:0:0:0:
192,20,151419,1,0,0:0:0:0:
114,57,151591,1,0,0:0:0:0:
77,141,151764,6,0,L|71:206,1,45,2|0,0:0|0:0,0:0:0:0:
20,241,152108,2,0,P|65:238|119:263,1,90,2|2,0:0|0:0,0:0:0:0:
160,308,152626,1,0,0:0:0:0:
107,254,152798,6,0,P|156:233|209:250,1,90,2|2,0:0|0:0,0:0:0:0:
245,292,153315,1,0,0:0:0:0:
304,243,153488,2,0,L|317:192,1,45,2|0,0:0|0:0,0:0:0:0:
390,185,153833,2,0,L|378:127,1,45,2|0,0:0|0:0,0:0:0:0:
435,88,154177,2,0,L|401:26,1,67.5,2|0,0:0|0:0,0:0:0:0:
326,51,154522,6,0,L|221:58,1,76.5000014591217,2|0,0:0|0:0,0:0:0:0:
165,197,154867,2,0,P|170:156|163:119,1,76.5000014591217,4|0,0:0|0:0,0:0:0:0:
90,270,155212,2,0,P|144:301|244:265,1,153.000002918243,2|4,0:0|0:0,0:0:0:0:
319,169,155729,1,0,0:0:0:0:
163,159,155902,6,0,L|165:197,3,38.2500007295609,6|4|0|0,0:0|0:0|0:0|0:0,0:0:0:0:
331,263,156247,2,0,L|322:300,3,38.2500007295609,2|4|4|0,0:0|0:0|0:0|0:0,0:0:0:0:
438,328,156591,1,2,0:0:0:0:
319,170,156764,1,0,0:0:0:0:
217,328,156936,2,0,P|178:334|131:321,1,76.5000014591217,4|0,0:0|0:0,0:0:0:0:
79,229,157281,5,2,0:0:0:0:
24,358,157453,1,0,0:0:0:0:
217,328,157626,1,4,0:0:0:0:
72,200,157798,1,0,0:0:0:0:
265,251,157971,2,0,P|305:306|277:393,1,153.000002918243,2|4,0:0|0:0,0:0:0:0:
118,318,158488,1,0,0:0:0:0:
242,160,158660,6,0,B|325:139,1,76.5000014591217,2|0,0:0|0:0,0:0:0:0:
151,89,159005,1,4,0:0:0:0:
144,111,159178,1,0,0:0:0:0:
289,102,159350,2,0,B|375:79,1,76.5000014591217,2|0,0:0|0:0,0:0:0:0:
308,262,159695,1,4,0:0:0:0:
320,280,159867,1,0,0:0:0:0:
193,221,160040,6,0,P|189:268|213:307,1,76.5000014591217,2|0,0:0|0:0,0:0:0:0:
289,102,160385,2,0,P|265:81|204:80,1,76.5000014591217,4|0,0:0|0:0,0:0:0:0:
375,204,160729,2,0,P|417:204|459:171,1,76.5000014591217,2|0,0:0|0:0,0:0:0:0:
193,221,161074,2,0,P|146:226|112:254,1,76.5000014591217,4|0,0:0|0:0,0:0:0:0:
306,341,161419,6,0,L|298:303,3,38.2500007295609,2|0|4|4,0:0|0:0|0:0|0:0,0:0:0:0:
376,204,161764,2,0,L|399:140,3,38.2500007295609,2|0|4|4,0:0|0:0|0:0|0:0,0:0:0:0:
356,71,162109,1,2,0:0:0:0:
481,229,162281,1,0,0:0:0:0:
268,242,162453,2,0,L|168:214,1,76.5000014591217,4|0,0:0|0:0,0:0:0:0:
84,273,162798,5,2,0:0:0:0:
126,109,162971,1,0,0:0:0:0:
194,221,163143,1,4,0:0:0:0:
30,175,163315,1,0,0:0:0:0:
230,232,163488,1,2,0:0:0:0:
268,242,163833,2,0,L|280:320,1,76.5000014591217,4|0,0:0|0:0,0:0:0:0:
400,190,164178,6,0,P|406:152|396:102,2,76.5000014591217,2|0|4,0:0|0:0|0:0,0:0:0:0:
341,62,164695,2,0,P|373:38|415:37,1,76.5000014591217,0|2,0:0|0:0,0:0:0:0:
400,189,165040,1,8,0:3:0:0:
175,62,165212,1,8,0:3:0:0:
269,242,165385,1,4,0:3:0:0:
269,242,165471,1,4,0:3:0:0:
269,242,165557,6,0,L|277:339,1,80.9999975280763,2|0,0:0|0:0,0:0:0:0:
86,298,165902,2,0,P|142:302|187:284,1,80.9999975280763,4|0,0:0|0:0,0:0:0:0:
401,189,166247,2,0,P|425:280|384:364,2,161.999995056153,2|4|2,0:0|0:0|0:0,0:0:0:0:
500,100,167109,5,0,0:0:0:0:
269,242,167281,2,0,P|194:240|127:190,1,161.999995056153,4|2,0:0|0:0,0:0:0:0:
324,53,167798,1,0,0:0:0:0:
373,213,167971,2,0,L|364:312,1,80.9999975280763,4|0,0:0|0:0,0:0:0:0:
205,125,168316,6,0,L|198:35,2,80.9999975280763,2|0|4,0:0|0:0|0:0,0:0:0:0:
269,241,168833,1,0,0:0:0:0:
461,240,169005,2,0,P|460:191|442:149,1,80.9999975280763,2|0,0:0|0:0,0:0:0:0:
269,241,169350,2,0,P|260:276|269:321,1,80.9999975280763,4|0,0:0|0:0,0:0:0:0:
327,124,169695,6,0,P|249:109|180:148,2,161.999995056153,2|4|2,0:0|0:0|0:0,0:0:0:0:
269,241,170557,1,0,0:0:0:0:
69,253,170729,2,0,L|56:153,1,80.9999975280763,4|0,0:0|0:0,0:0:0:0:
174,25,171074,5,2,0:0:0:0:
214,25,171160,1,0,0:0:0:0:
248,46,171246,1,0,0:0:0:0:
271,79,171333,1,0,0:0:0:0:
266,116,171419,2,0,L|245:171,3,40.4999987640381,4|0|0|0,0:0|0:0|0:0|0:0,0:0:0:0:
139,171,171764,1,6,0:0:0:0:
145,210,171850,1,0,0:0:0:0:
161,246,171936,1,0,0:0:0:0:
195,267,172022,1,0,0:0:0:0:
232,281,172108,2,0,L|276:274,3,40.4999987640381,4|0|0|0,0:0|0:0|0:0|0:0,0:0:0:0:
392,321,172453,5,6,0:0:0:0:
374,284,172540,1,0,0:0:0:0:
380,244,172626,1,0,0:0:0:0:
396,207,172712,1,0,0:0:0:0:
423,177,172798,1,4,0:0:0:0:
443,142,172884,1,0,0:0:0:0:
441,101,172971,1,0,0:0:0:0:
430,61,173057,1,0,0:0:0:0:
407,27,173143,5,6,0:0:0:0:
375,52,173229,1,0,0:0:0:0:
343,77,173315,1,0,0:0:0:0:
302,82,173402,1,0,0:0:0:0:
261,76,173488,1,4,0:0:0:0:
225,57,173574,1,0,0:0:0:0:
185,47,173660,1,0,0:0:0:0:
144,52,173746,1,0,0:0:0:0:
106,67,173833,6,0,L|50:99,1,40.4999987640381,6|0,0:0|0:0,0:0:0:0:
262,275,174005,2,0,L|249:216,1,40.4999987640381,2|0,0:0|0:0,0:0:0:0:
67,276,174177,2,0,L|91:243,1,40.4999987640381,6|0,0:0|0:0,0:0:0:0:
277,159,174350,2,0,L|291:219,1,40.4999987640381,2|0,0:0|0:0,0:0:0:0:
145,384,174522,2,0,L|175:342,1,40.4999987640381,2|0,0:0|0:0,0:0:0:0:
112,162,174695,2,0,L|75:212,1,40.4999987640381,2|0,0:0|0:0,0:0:0:0:
406,349,174867,2,0,L|393:292,1,40.4999987640381,6|0,0:0|0:0,0:0:0:0:
163,310,175040,2,0,L|169:358,1,40.4999987640381,2|0,0:0|0:0,0:0:0:0:
338,112,175212,6,0,P|250:24|170:120,1,270,8|8,0:0|0:3,0:0:0:0:
324,357,176419,1,4,0:3:0:0:
57,174,176591,6,0,P|33:219|54:299,1,99.0000030212403,2|2,0:0|0:0,0:0:0:0:
324,357,176936,1,8,0:0:0:0:
104,384,177108,1,0,0:0:0:0:
182,111,177281,2,0,P|157:58|96:37,1,99.0000030212403,0|2,0:0|0:0,0:0:0:0:
283,222,177626,6,0,L|496:198,1,198.000006042481,8|0,0:0|0:0,0:0:0:0:
355,17,178143,1,2,0:0:0:0:
189,182,178315,2,0,P|185:248|222:298,2,99.0000030212403,8|0|0,0:0|0:0|0:0,0:0:0:0:
267,89,178833,1,2,0:0:0:0:
43,54,179005,1,8,0:0:0:0:
276,223,179177,1,2,0:0:0:0:
294,230,179264,1,0,0:0:0:0:
313,234,179350,6,0,L|417:215,1,99.0000030212403,2|2,0:0|0:0,0:0:0:0:
464,39,179695,1,8,0:0:0:0:
276,223,179867,2,0,L|297:336,1,99.0000030212403
62,260,180212,1,2,0:0:0:0:
62,260,180384,6,0,P|145:204|149:81,1,198.000006042481,8|0,0:0|0:0,0:0:0:0:
32,140,180902,1,2,0:0:0:0:
234,271,181074,2,0,L|250:383,1,99.0000030212403,8|0,0:0|0:0,0:0:0:0:
359,162,181419,2,0,L|367:58,1,99.0000030212403,0|2,0:0|0:0,0:0:0:0:
481,250,181764,1,8,0:0:0:0:
160,112,181936,1,2,0:0:0:0:
481,250,182108,6,0,P|458:297|396:321,1,99.0000030212403,2|2,0:0|0:0,0:0:0:0:
108,240,182453,2,0,P|59:236|6:260,1,99.0000030212403,8|0,0:0|0:0,0:0:0:0:
283,207,182798,2,0,L|297:96,1,99.0000030212403,0|2,0:0|0:0,0:0:0:0:
301,63,183057,1,0,0:0:0:0:
301,63,183143,1,8,0:0:0:0:
502,231,183315,1,0,0:0:0:0:
502,231,183402,1,0,0:0:0:0:
502,231,183488,5,0,0:0:0:0:
159,204,183660,1,2,0:0:0:0:
490,135,183833,2,0,P|505:178|495:250,1,99.0000030212403,8|0,0:0|0:0,0:0:0:0:
148,299,184177,2,0,P|143:244|164:195,1,99.0000030212403,0|2,0:0|0:0,0:0:0:0:
375,302,184522,1,8,0:0:0:0:
206,193,184695,2,0,L|142:206,1,49.5000015106202,2|0,0:0|0:0,0:0:0:0:
45,225,184867,6,0,B|23:179|23:179|20:131,1,99.0000030212403,2|0,0:0|0:0,0:0:0:0:
167,54,185212,1,8,0:0:0:0:
96,360,185384,1,0,0:0:0:0:
206,193,185557,2,0,P|256:179|318:208,1,99.0000030212403,0|2,0:0|0:0,0:0:0:0:
430,300,185902,1,8,0:0:0:0:
313,50,186074,1,0,0:0:0:0:
253,262,186246,6,0,L|241:385,1,99.0000030212403,2|2,0:0|0:0,0:0:0:0:
408,112,186591,2,0,L|432:223,1,99.0000030212403,8|2,0:0|0:0,0:0:0:0:
253,262,186936,5,0,0:0:0:0:
185,18,187108,1,8,0:3:0:0:
74,237,187281,1,4,0:3:0:0:
428,208,187453,1,4,0:3:0:0:
90,128,187626,6,0,P|22:140|-11:172,1,99.0000030212403,2|2,0:0|0:0,0:0:0:0:
247,358,187971,2,0,P|258:284|241:236,1,99.0000030212403,8|0,0:0|0:0,0:0:0:0:
119,38,188315,2,0,B|157:63|157:63|316:44,1,198.000006042481,0|8,0:0|0:0,0:0:0:0:
441,30,188833,1,0,0:0:0:0:
252,261,189005,6,0,P|228:207|243:140,1,99.0000030212403,0|2,0:0|0:0,0:0:0:0:
486,268,189350,2,0,P|485:339|463:376,1,99.0000030212403,8|0,0:0|0:0,0:0:0:0:
366,109,189695,2,0,P|356:48|375:8,1,99.0000030212403,0|2,0:0|0:0,0:0:0:0:
486,269,190040,1,8,0:0:0:0:
287,190,190212,1,2,0:0:0:0:
259,178,190298,1,0,0:0:0:0:
230,168,190384,6,0,L|121:181,1,99.0000030212403,2|2,0:0|0:0,0:0:0:0:
148,20,190729,1,8,0:0:0:0:
296,276,190902,2,0,P|358:245|374:196,1,99.0000030212403
463,56,191246,1,2,0:0:0:0:
463,56,191419,6,0,L|488:280,1,198.000006042481,8|0,0:0|0:0,0:0:0:0:
296,276,191936,1,2,0:0:0:0:
322,19,192108,2,0,L|337:153,1,99.0000030212403,8|0,0:0|0:0,0:0:0:0:
174,126,192453,2,0,L|189:260,1,99.0000030212403,0|2,0:0|0:0,0:0:0:0:
199,360,192798,1,8,0:0:0:0:
0,140,192971,1,2,0:0:0:0:
281,275,193143,6,0,P|334:273|378:242,1,99.0000030212403,2|2,0:0|0:0,0:0:0:0:
277,21,193488,2,0,L|290:120,1,99.0000030212403,8|0,0:0|0:0,0:0:0:0:
67,215,193833,2,0,L|57:326,1,99.0000030212403,0|2,0:0|0:0,0:0:0:0:
34,344,194091,1,0,0:0:0:0:
34,344,194177,1,8,0:0:0:0:
371,248,194350,1,0,0:0:0:0:
371,248,194436,1,0,0:0:0:0:
371,248,194522,5,0,0:0:0:0:
221,145,194695,1,2,0:0:0:0:
412,341,194867,2,0,P|364:353|319:336,1,99.0000030212403,8|0,0:0|0:0,0:0:0:0:
331,156,195212,2,0,P|302:63|211:30,1,198.000006042481,0|8,0:0|0:0,0:0:0:0:
221,145,195729,1,0,0:0:0:0:
121,110,195902,6,0,P|114:137|124:186,1,67.5000025749208,2|0,0:0|0:0,0:0:0:0:
161,244,196246,1,0,0:0:0:0:
111,347,196419,2,0,P|172:322|268:339,1,135.000005149842,2|0,0:0|0:0,0:0:0:0:
239,326,196936,1,2,0:0:0:0:
239,326,197281,5,2,0:0:0:0:
300,254,197453,1,0,0:0:0:0:
388,287,197626,2,0,P|433:267|453:241,1,67.5000025749208,2|0,0:0|0:0,0:0:0:0:
239,326,197971,5,8,0:3:0:0:
361,62,198143,1,8,0:3:0:0:
458,360,198315,1,4,0:3:0:0:
150,219,198488,1,4,0:3:0:0:
463,162,198660,6,0,P|482:206|474:255,1,99.0000030212403,2|2,0:0|0:0,0:0:0:0:
361,62,199005,1,8,0:0:0:0:
274,319,199177,2,0,B|210:318|210:318|180:303|180:303|118:319|72:272,1,198.000006042481,0|2,0:0|0:0,0:0:0:0:
201,94,199695,2,0,P|194:164|161:198,1,99.0000030212403,8|0,0:0|0:0,0:0:0:0:
150,219,199953,1,0,0:0:0:0:
150,219,200040,5,0,0:0:0:0:
274,319,200212,1,2,0:0:0:0:
116,95,200384,2,0,P|137:34|187:8,1,99.0000030212403,8|0,0:0|0:0,0:0:0:0:
331,245,200729,2,0,P|303:302|254:323,1,99.0000030212403,0|2,0:0|0:0,0:0:0:0:
294,95,201074,2,0,P|349:86|405:117,1,99.0000030212403,8|2,0:0|0:0,0:0:0:0:
331,245,201419,5,2,0:0:0:0:
468,43,201591,1,2,0:0:0:0:
512,345,201764,1,8,0:0:0:0:
275,161,201936,2,0,P|236:230|299:336,1,198.000006042481,0|2,0:0|0:0,0:0:0:0:
275,161,202453,1,8,0:0:0:0:
124,45,202626,1,0,0:0:0:0:
124,45,202712,1,0,0:0:0:0:
124,45,202798,6,0,L|96:98,1,49.5000015106202,6|0,0:0|0:0,0:0:0:0:
29,177,202971,2,0,L|0:109,1,49.5000015106202,6|0,0:0|0:0,0:0:0:0:
133,181,203143,2,0,P|186:169|259:198,1,99.0000030212403,12|0,0:0|0:0,0:0:0:0:
277,260,203402,1,0,0:0:0:0:
277,260,203488,2,0,L|264:317,1,49.5000015106202,6|0,0:0|0:0,0:0:0:0:
380,357,203660,2,0,L|367:288,1,49.5000015106202,6|0,0:0|0:0,0:0:0:0:
371,210,203833,2,0,P|442:179|503:196,1,99.0000030212403,12|2,0:0|0:0,0:0:0:0:
216,381,204177,6,0,P|183:344|178:296,1,99.0000030212403,2|2,0:0|0:0,0:0:0:0:
371,210,204522,1,8,0:0:0:0:
145,268,204695,1,0,0:0:0:0:
238,98,204867,2,0,L|231:-11,1,99.0000030212403,0|2,0:0|0:0,0:0:0:0:
284,320,205212,6,0,L|80:284,1,198.000006042481,8|0,0:0|0:0,0:0:0:0:
238,98,205729,1,2,0:0:0:0:
195,336,205902,2,0,L|-6:301,1,198.000006042481,8|0,0:0|0:0,0:0:0:0:
130,121,206419,1,2,0:0:0:0:
383,156,206591,2,0,P|364:221|326:244,1,99.0000030212403,8|2,0:0|0:0,0:0:0:0:
309,253,206850,1,0,0:0:0:0:
299,286,206936,6,0,P|298:336|320:378,1,99.0000030212403,2|0,0:0|0:0,0:0:0:0:
383,156,207281,2,0,B|393:50,1,99.0000030212403,8|0,0:0|0:0,0:0:0:0:
159,324,207626,2,0,B|143:213,1,99.0000030212403,0|2,0:0|0:0,0:0:0:0:
416,184,207971,2,0,B|429:85,1,99.0000030212403,8|0,0:0|0:0,0:0:0:0:
144,226,208315,5,2,0:0:0:0:
487,255,208488,1,2,0:0:0:0:
487,255,208574,1,0,0:0:0:0:
487,255,208660,2,0,L|507:365,1,99.0000030212403,2|2,0:0|0:0,0:0:0:0:
240,330,209005,5,0,0:0:0:0:
512,229,209177,1,8,0:3:0:0:
221,55,209350,1,4,0:3:0:0:
362,232,209522,1,4,0:3:0:0:
83,208,209695,6,0,P|114:187|190:184,1,99.0000030212403,2|2,0:0|0:0,0:0:0:0:
362,232,210040,1,8,0:0:0:0:
427,62,210212,1,0,0:0:0:0:
256,272,210384,2,0,L|271:392,1,99.0000030212403,0|2,0:0|0:0,0:0:0:0:
83,208,210729,2,0,L|90:76,1,99.0000030212403,8|0,0:0|0:0,0:0:0:0:
0,292,211074,5,0,0:0:0:0:
268,370,211246,1,2,0:0:0:0:
248,130,211419,2,0,P|174:71|87:108,1,198.000006042481,8|0,0:0|0:0,0:0:0:0:
414,187,211936,1,2,0:0:0:0:
135,285,212108,2,0,P|123:240|141:185,1,99.0000030212403,8|2,0:0|0:0,0:0:0:0:
159,162,212367,1,0,0:0:0:0:
159,162,212453,5,2,0:0:0:0:
414,187,212626,1,2,0:0:0:0:
135,285,212798,1,8,0:0:0:0:
463,289,212971,2,0,L|446:73,1,198.000006042481,0|2,0:0|0:0,0:0:0:0:
280,298,213488,2,0,L|285:174,1,99.0000030212403,8|0,0:0|0:0,0:0:0:0:
56,181,213833,6,0,L|51:83,1,99.0000030212403,0|2,0:0|0:0,0:0:0:0:
280,298,214177,2,0,L|403:284,1,99.0000030212403,8|0,0:0|0:0,0:0:0:0:
150,89,214522,2,0,L|34:82,1,99.0000030212403,0|2,0:0|0:0,0:0:0:0:
136,238,214867,1,8,0:0:0:0:
288,32,215040,1,2,0:0:0:0:
52,243,215212,6,0,P|70:296|121:321,1,99.0000030212403,2|2,0:0|0:0,0:0:0:0:
372,273,215557,1,8,0:0:0:0:
136,238,215729,1,0,0:0:0:0:
357,175,215902,2,0,L|372:279,1,99.0000030212403,0|2,0:0|0:0,0:0:0:0:
136,238,216246,6,0,P|117:126|167:53,1,198.000006042481,8|0,0:0|0:0,0:0:0:0:
373,37,216764,1,2,0:0:0:0:
234,245,216936,2,0,L|127:237,1,99.0000030212403,8|0,0:0|0:0,0:0:0:0:
65,352,217281,1,0,0:0:0:0:
46,105,217453,1,2,0:0:0:0:
306,192,217626,2,0,P|321:230|304:295,1,99.0000030212403,8|2,0:0|0:0,0:0:0:0:
65,352,217971,6,0,L|190:340,1,99.0000030212403,8|0,0:0|0:0,0:0:0:0:
247,104,218315,2,0,L|231:4,1,99.0000030212403,8|0,0:0|0:0,0:0:0:0:
97,258,218660,2,0,L|58:372,1,99.0000030212403,8|0,0:0|0:0,0:0:0:0:
229,116,219005,2,0,L|213:16,1,99.0000030212403,8|0,0:0|0:0,0:0:0:0:
288,236,219350,6,0,L|399:264,1,99.0000030212403,2|0,0:0|0:0,0:0:0:0:
293,248,219695,2,0,L|404:276,1,99.0000030212403,2|0,0:0|0:0,0:0:0:0:
457,158,220040,5,8,0:3:0:0:
230,325,220212,1,8,0:3:0:0:
505,268,220384,1,4,0:3:0:0:
258,108,220557,1,4,0:3:0:0:
385,347,220729,6,0,P|384:296|396:251,1,76.5000014591217,2|2,0:0|0:0,0:0:0:0:
352,149,221074,1,0,0:0:0:0:
506,268,221247,1,2,0:0:0:0:
294,247,221419,2,0,P|216:227|132:178,1,153.000002918243,8|2,0:0|0:0,0:0:0:0:
8,150,221936,5,0,0:0:0:0:
11,119,222022,1,0,0:0:0:0:
14,88,222109,1,2,0:0:0:0:
170,253,222281,1,0,0:0:0:0:
163,225,222367,1,0,0:0:0:0:
153,193,222453,1,0,0:0:0:0:
54,269,222626,1,2,0:0:0:0:
131,85,222798,6,0,L|211:89,1,76.5000014591217,8|0,0:0|0:0,0:0:0:0:
238,89,223057,1,0,0:0:0:0:
268,91,223143,1,0,0:0:0:0:
397,99,223316,1,0,0:0:0:0:
327,221,223488,6,0,P|320:267|330:321,1,76.5000014591217,2|0,0:0|0:0,0:0:0:0:
453,265,223833,1,0,0:0:0:0:
397,99,224005,1,2,0:0:0:0:
323,297,224178,2,8,P|261:318|180:293,1,153.000002918243,8|2,0:0|0:0,0:0:0:0:
57,292,224695,1,0,0:0:0:0:
252,193,224867,5,2,0:0:0:0:
89,125,225040,1,0,0:0:0:0:
73,98,225126,1,0,0:0:0:0:
57,71,225212,1,0,0:0:0:0:
303,119,225384,1,2,0:0:0:0:
307,88,225471,1,0,0:0:0:0:
311,57,225557,1,8,0:0:0:0:
193,268,225729,1,0,0:0:0:0:
337,200,225902,2,0,P|378:216|408:253,1,76.5000014591217
310,323,226247,5,2,0:0:0:0:
436,135,226419,1,2,0:0:0:0:
193,268,226591,2,0,L|116:268,1,76.5000014591217,0|2,0:0|0:0,0:0:0:0:
239,44,226936,2,0,P|263:129|231:190,1,153.000002918243,8|2,0:0|0:0,0:0:0:0:
160,116,227453,1,0,0:0:0:0:
306,238,227626,6,0,L|412:229,1,76.5000014591217,2|0,0:0|0:0,0:0:0:0:
404,209,227885,1,0,0:0:0:0:
422,184,227971,1,0,0:0:0:0:
193,268,228143,1,2,0:0:0:0:
178,295,228229,1,0,0:0:0:0:
161,320,228316,2,0,L|85:332,1,76.5000014591217,8|0,0:0|0:0,0:0:0:0:
306,238,228660,2,0,P|323:291|317:341,1,76.5000014591217
211,141,229005,6,0,B|232:104|256:80|256:80|280:104|304:144,2,153.000002918243,0|2|0,0:0|0:0|0:0,0:0:0:0:
107,231,230040,1,2,0:0:0:0:
256,301,230384,5,2,0:0:0:0:
277,285,230729,1,2,0:0:0:0:
297,271,231074,1,2,0:0:0:0:
315,255,231419,1,2,0:0:0:0:
233,87,231764,5,0,0:0:0:0:
