osu file format v14

[General]
AudioFilename: MitiS - Touch.mp3
AudioLeadIn: 0
PreviewTime: 64867
Countdown: 0
SampleSet: None
StackLeniency: 0.7
Mode: 0
LetterboxInBreaks: 0
WidescreenStoryboard: 1

[Editor]
Bookmarks: 22108,33143,44177,55212,66246,88315,107626,110384,118660,121419,132453,143488,154522,165557,176591,187626,198660,209695,220729,231764
DistanceSpacing: 1
BeatDivisor: 2
GridSize: 32
TimelineZoom: 1.2

[Metadata]
Title:Touch (Original Mix)
TitleUnicode:Touch (Original Mix)
Artist:MitiS
ArtistUnicode:MitiS
Creator:[ Joey ]
Version:Normal
Source:
Tags:Drum&Bass dnb drumstep synth vibe EP Gear Milan Milan-
BeatmapID:862242
BeatmapSetID:255311

[Difficulty]
HPDrainRate:4
CircleSize:3.5
OverallDifficulty:4
ApproachRate:5
SliderMultiplier:1.15
SliderTickRate:1

[Events]
//Background and Video events
0,0,"BG.jpg",0,0
//Break Periods
2,121419,131253
//Storyboard Layer 0 (Background)
//Storyboard Layer 1 (Fail)
//Storyboard Layer 2 (Pass)
//Storyboard Layer 3 (Foreground)
//Storyboard Sound Samples

[TimingPoints]
40,344.827586206897,4,3,90,50,1,0
44177,-100,4,3,90,55,0,0
54695,-100,4,3,0,55,0,0
55212,-100,4,3,90,60,0,0
64867,-100,4,3,90,62,0,0
66246,-100,4,3,90,70,0,1
76591,-100,4,3,90,70,0,1
77281,-100,4,3,90,70,0,1
85557,-100,4,3,90,50,0,0
87626,-100,4,3,0,50,0,0
88143,-100,4,3,0,50,0,0
88315,-100,4,3,90,70,0,1
98660,-100,4,3,90,70,0,0
99350,-100,4,3,90,70,0,1
107626,-100,4,3,90,50,0,1
110384,-100,4,3,90,60,0,0
121419,-100,4,3,90,50,0,0
154522,-100,4,3,90,55,0,0
165040,-100,4,3,0,55,0,0
165557,-100,4,3,90,60,0,0
175212,-100,4,2,33,65,0,0
175384,-100,4,3,90,5,0,0
176246,-100,4,3,90,65,0,0
176591,-100,4,3,90,70,0,1
186936,-100,4,3,0,50,0,1
187626,-100,4,3,90,70,0,1
195902,-100,4,3,90,50,0,0
197971,-100,4,3,0,50,0,0
198488,-100,4,3,0,50,0,0
198660,-100,4,3,90,70,0,1
209005,-100,4,3,0,50,0,1
209695,-100,4,3,90,70,0,1
219350,-100,4,3,90,50,0,1
220040,-100,4,3,0,50,0,1
220729,-100,4,3,90,60,0,0
229005,-100,4,3,90,30,0,0
231764,-100,4,3,90,50,0,0

[Colours]
Combo1 : 64,128,128
Combo2 : 0,64,128
Combo3 : 22,175,250
Combo4 : 0,128,73

[HitObjects]
71,308,33143,6,0,P|43:212|96:135,1,172.5,2|0,0:0|0:0,0:0:0:0:
123,121,33833,1,0,0:0:0:0:
152,232,34177,1,0,0:0:0:0:
244,163,34522,2,0,L|370:173,1,115,2|0,0:0|0:0,0:0:0:0:
355,288,35212,2,0,L|481:298,1,115,0|0,0:0|0:0,0:0:0:0:
478,182,35902,6,0,P|492:121|465:42,1,115,2|0,0:0|0:0,0:0:0:0:
433,39,36419,2,0,L|376:34,1,57.5,0|0,0:0|0:0,0:0:0:0:
267,73,36936,1,0,0:0:0:0:
198,165,37281,2,0,P|180:227|199:288,1,115,2|0,0:0|0:0,0:0:0:0:
295,325,37971,2,0,B|353:327|353:327|389:283,1,115,2|0,0:0|0:0,0:0:0:0:
343,178,38660,6,0,P|358:110|441:52,1,172.5,2|0,0:0|0:0,0:0:0:0:
495,59,39350,1,0,0:0:0:0:
456,167,39695,1,0,0:0:0:0:
443,281,40040,2,0,P|384:278|302:286,1,115,2|0,0:0|0:0,0:0:0:0:
221,323,40729,2,0,P|159:331|96:327,1,115,0|0,0:0|0:0,0:0:0:0:
48,228,41419,6,0,B|30:196|30:196|58:113,1,115,2|0,0:0|0:0,0:0:0:0:
112,114,41936,1,0,0:0:0:0:
112,114,42108,2,0,P|173:125|237:111,1,115,0|0,0:0|0:0,0:0:0:0:
329,67,42798,2,0,L|321:218,1,115,2|0,0:0|0:0,0:0:0:0:
325,239,43315,2,0,P|423:270|503:233,1,172.5,0|0,0:0|0:0,0:0:0:0:
410,160,44177,6,0,L|418:37,1,115,6|0,0:3|0:0,0:0:0:0:
311,90,44867,2,0,L|223:6,1,115
212,124,45557,2,0,L|69:129,2,115,2|0|0,0:0|0:0|0:0,0:0:0:0:
283,214,46591,1,0,0:0:0:0:
244,322,46936,6,0,P|305:327|357:300,1,115,2|0,0:0|0:0,0:0:0:0:
394,264,47453,1,0,0:0:0:0:
394,264,47626,2,0,L|410:129,1,115
456,45,48315,2,0,L|388:31,1,57.5,2|0,0:0|0:0,0:0:0:0:
352,67,48660,2,0,P|292:84|225:55,1,115,0|2,0:0|0:0,0:0:0:0:
192,41,49177,2,0,P|167:41|133:56,1,57.5
177,161,49695,6,0,P|166:227|127:263,1,115,6|0,0:3|0:0,0:0:0:0:
75,257,50212,1,0,0:0:0:0:
21,235,50384,2,0,P|6:173|33:105,1,115
133,81,51074,2,0,P|196:71|248:100,1,115,2|0,0:0|0:0,0:0:0:0:
228,207,51764,2,0,P|287:214|341:187,1,115
446,150,52453,6,0,P|435:222|481:298,1,115,2|0,0:0|0:0,0:0:0:0:
483,306,52971,1,0,0:0:0:0:
483,306,53143,2,0,B|449:337|449:337|338:354,1,115,0|0,0:0|0:0,0:0:0:0:
279,292,53833,2,0,P|196:280|145:297,1,115,2|0,0:0|0:0,0:0:0:0:
111,304,54350,2,0,P|97:240|124:175,1,115,0|8,0:0|0:3,0:0:0:0:
152,153,54867,2,0,L|221:142,1,57.5,8|4,0:3|0:3,0:0:0:0:
263,162,55212,6,0,L|273:24,1,115,6|0,0:0|0:0,0:0:0:0:
360,120,55902,2,0,L|368:270,1,115,2|0,0:2|0:0,0:0:0:0:
464,175,56591,2,0,L|472:325,1,115,2|0,0:2|0:0,0:0:0:0:
372,350,57281,2,0,L|224:336,1,115,2|0,0:2|0:0,0:0:0:0:
200,327,57798,1,0,0:0:0:0:
200,327,57971,6,0,P|221:267|207:191,1,115,2|0,0:0|0:0,0:0:0:0:
121,152,58660,2,0,P|161:114|223:102,1,115
309,172,59350,2,0,P|407:195|460:162,2,115,2|0|2,0:0|0:0|0:0,0:0:0:0:
352,64,60384,1,0,0:0:0:0:
237,62,60729,6,0,L|207:10,2,57.5,2|0|0,0:0|0:0|0:0,0:0:0:0:
136,119,61419,2,0,L|78:97,2,57.5,2|0|0,0:0|0:0|0:2,0:0:0:0:
107,230,62108,2,0,L|50:238,2,57.5,2|0|0,0:0|0:0|0:0,0:0:0:0:
164,330,62798,2,0,L|113:359,2,57.5,2|0|0,0:0|0:0|0:0,0:0:0:0:
208,293,63315,1,0,0:0:0:0:
208,293,63488,6,0,B|211:241|250:212|250:212|277:202|315:219|315:219|354:223|387:202|400:157|384:117|338:105|338:105|272:113|200:70,1,460,2|8,0:2|0:0,0:0:0:0:
108,88,65212,2,0,P|58:111|23:179,2,115,8|4|4,0:0|0:0|0:0,0:0:0:0:
131,201,66246,6,0,B|117:276|117:276|149:326|225:313,1,172.5,4|0,0:2|0:0,0:0:0:0:
256,304,66936,1,8,0:0:0:0:
350,237,67281,1,0,0:0:0:0:
340,126,67626,2,0,P|389:75|468:67,2,115,0|0|8,0:0|0:0|0:0,0:0:0:0:
441,179,68660,1,0,0:0:0:0:
422,292,69005,6,0,P|356:303|269:265,1,115,2|0,0:0|0:0,0:0:0:0:
272,248,69522,1,0,0:0:0:0:
272,248,69695,2,0,P|201:237|136:263,1,115,8|0,0:0|0:0,0:0:0:0:
50,282,70384,1,0,0:0:0:0:
50,282,70557,2,0,B|36:243|36:243|53:146,1,115
63,114,71074,1,8,0:0:0:0:
163,170,71419,1,8,0:0:0:0:
261,109,71764,6,0,P|345:95|377:203,1,172.5,2|0,0:0|0:0,0:0:0:0:
386,217,72453,1,8,0:0:0:0:
346,324,72798,1,0,0:0:0:0:
246,266,73143,2,0,P|178:261|108:293,2,115,0|0|8,0:0|0:0|0:0,0:0:0:0:
354,303,74177,1,0,0:0:0:0:
449,247,74522,6,0,B|473:192|473:192|429:135,1,115,2|0,0:0|0:0,0:0:0:0:
345,81,75212,1,8,0:0:0:0:
252,149,75557,1,0,0:0:0:0:
159,80,75902,1,0,0:0:0:0:
159,80,76074,2,0,P|136:142|160:207,1,115,0|0,0:0|0:0,0:0:0:0:
200,209,76591,2,0,P|241:247|242:292,1,57.5,8|8,0:0|0:0,0:0:0:0:
238,304,76936,2,0,P|241:337|258:359,1,57.5,2|8,0:0|0:0,0:0:0:0:
310,371,77281,6,0,B|348:373|348:373|457:333,1,115,4|0,0:2|0:0,0:0:0:0:
412,231,77971,2,0,L|287:174,1,115,8|0,0:0|0:0,0:0:0:0:
369,86,78660,2,0,L|237:63,2,115,0|0|8,0:0|0:0|0:0,0:0:0:0:
473,134,79695,1,0,0:0:0:0:
380,201,80040,6,0,P|351:267|370:343,1,115,2|0,0:0|0:0,0:0:0:0:
384,358,80557,1,0,0:0:0:0:
384,358,80729,2,0,L|217:344,1,115,8|0,0:0|0:0,0:0:0:0:
203,253,81419,1,0,0:0:0:0:
105,314,81764,2,0,L|86:252,1,57.5,0|0,0:0|0:0,0:0:0:0:
38,230,82108,2,0,P|101:210|140:157,1,115,8|0,0:0|0:0,0:0:0:0:
216,92,82798,5,2,0:0:0:0:
216,92,82971,2,0,P|275:76|343:103,1,115,0|0,0:0|0:0,0:0:0:0:
338,146,83488,2,0,L|316:271,1,115,8|0,0:0|0:0,0:0:0:0:
210,299,84177,2,0,L|234:174,1,115,0|0,0:0|0:0,0:0:0:0:
247,130,84695,1,0,0:0:0:0:
247,130,84867,2,0,B|221:98|221:98|103:70,1,115,8|0,0:0|0:0,0:0:0:0:
49,139,85557,6,0,P|23:198|116:309,2,172.5,2|0|2,0:2|0:0|0:2,0:0:0:0:
148,80,86936,1,2,0:2:0:0:
255,120,87281,1,2,0:2:0:0:
268,234,87626,2,0,B|310:248|310:248|355:222|409:242,1,115,8|4,0:3|0:3,0:0:0:0:
418,276,88143,1,4,0:3:0:0:
475,274,88315,6,0,B|503:250|508:215|508:215|481:137,1,115,4|0,0:2|0:0,0:0:0:0:
471,117,88833,1,0,0:0:0:0:
471,117,89005,2,0,L|424:-10,1,115,8|0,0:0|0:0,0:0:0:0:
359,99,89695,2,0,L|346:228,1,115,0|0,0:0|0:0,0:0:0:0:
343,270,90212,1,0,0:0:0:0:
343,270,90384,2,0,P|285:249|211:271,1,115,8|0,0:0|0:0,0:0:0:0:
138,323,91074,6,0,P|120:255|154:181,1,115,2|0,0:0|0:0,0:0:0:0:
179,182,91591,1,0,0:0:0:0:
179,182,91764,2,0,B|197:160|197:160|195:66,1,115,8|0,0:0|0:0,0:0:0:0:
310,74,92453,1,0,0:0:0:0:
310,74,92626,2,0,P|342:123|326:210,1,115,0|0,0:0|0:0,0:0:0:0:
320,231,93143,1,8,0:0:0:0:
388,323,93488,1,8,0:0:0:0:
273,337,93833,6,0,B|210:351|153:316|153:316|100:342,1,172.5,2|0,0:0|0:0,0:0:0:0:
60,365,94522,1,8,0:0:0:0:
80,251,94867,1,0,0:0:0:0:
93,136,95212,2,0,P|163:113|221:129,1,115,0|0,0:0|0:0,0:0:0:0:
232,169,95729,1,0,0:0:0:0:
232,169,95902,2,0,P|301:182|365:154,1,115,8|0,0:0|0:0,0:0:0:0:
432,97,96591,6,0,L|455:225,1,115,2|0,0:0|0:0,0:0:0:0:
503,235,97108,2,0,L|516:313,1,57.5,0|8,0:0|0:0,0:0:0:0:
411,347,97626,1,0,0:0:0:0:
302,309,97971,1,0,0:0:0:0:
302,309,98143,2,0,P|316:236|279:168,1,115,0|0,0:0|0:0,0:0:0:0:
256,165,98660,2,0,P|250:133|265:89,1,57.5,8|8,0:0|0:0,0:0:0:0:
299,72,99005,2,0,P|331:65|362:71,1,57.5,0|8,0:0|0:0,0:0:0:0:
392,112,99350,6,0,B|429:128|474:113|474:113|484:131|481:154,1,115,4|0,0:2|0:0,0:0:0:0:
469,257,100040,1,8,0:0:0:0:
394,343,100384,1,0,0:0:0:0:
279,346,100729,1,0,0:0:0:0:
186,278,101074,2,0,L|104:264,1,57.5
77,292,101419,2,0,P|91:221|49:163,1,115,8|0,0:0|0:0,0:0:0:0:
28,78,102108,6,0,P|89:44|201:70,1,172.5,2|0,0:0|0:0,0:0:0:0:
223,106,102798,1,8,0:0:0:0:
335,80,103143,1,0,0:0:0:0:
332,194,103488,2,0,B|333:253|333:253|365:304,1,115,0|0,0:0|0:0,0:0:0:0:
420,299,104005,1,0,0:0:0:0:
420,299,104177,2,0,P|450:244|439:176,1,115,8|0,0:0|0:0,0:0:0:0:
369,107,104867,5,2,0:0:0:0:
369,107,105040,2,0,L|226:117,1,115,0|0,0:0|0:0,0:0:0:0:
197,126,105557,2,0,P|189:206|226:263,1,115,8|0,0:0|0:0,0:0:0:0:
109,303,106246,2,0,P|106:236|63:180,1,115,0|0,0:0|0:0,0:0:0:0:
43,152,106764,1,0,0:0:0:0:
43,152,106936,2,0,B|45:118|45:118|107:31,1,115,8|0,0:0|0:0,0:0:0:0:
205,30,107626,5,0,0:0:0:0:
288,108,107971,2,0,P|340:129|422:82,2,115,2|2|2,0:2|0:2|0:2,0:0:0:0:
216,198,109005,2,0,P|204:274|151:319,1,115,2|2,0:2|0:2,0:0:0:0:
105,214,109695,1,2,0:2:0:0:
327,284,110384,5,4,0:2:0:0:
327,284,110557,2,0,P|318:212|349:151,1,115,0|0,0:0|0:0,0:0:0:0:
367,127,111074,1,8,0:0:0:0:
261,81,111419,1,0,0:0:0:0:
212,185,111764,2,0,L|79:173,2,115,0|0|8,0:0|0:0|0:0,0:0:0:0:
275,280,112798,1,0,0:0:0:0:
343,187,113143,5,2,0:0:0:0:
343,187,113315,2,0,P|382:234|379:314,1,115,0|0,0:0|0:0,0:0:0:0:
376,342,113833,2,0,L|248:384,1,115,8|0,0:0|0:0,0:0:0:0:
222,271,114522,2,0,L|91:256,2,115,0|0|8,0:0|0:0|0:0,0:0:0:0:
307,193,115557,1,0,0:0:0:0:
209,131,115902,5,2,0:0:0:0:
209,131,116074,2,0,B|240:79|240:79|306:72,1,115,0|0,0:0|0:0,0:0:0:0:
351,68,116591,2,0,L|491:60,1,115,8|0,0:0|0:0,0:0:0:0:
403,158,117281,2,0,P|384:223|400:276,2,115,0|0|8,0:0|0:0|0:0,0:0:0:0:
498,221,118315,2,0,P|509:276|490:330,1,115
71,308,132453,6,0,L|275:283,1,172.5,2|0,0:0|0:0,0:0:0:0:
292,315,133143,1,0,0:0:0:0:
350,216,133487,1,0,0:0:0:0:
278,125,133832,2,0,P|233:111|193:55,1,115,2|0,0:0|0:0,0:0:0:0:
297,6,134522,2,0,P|342:20|382:76,1,115
381,190,135212,6,0,L|226:232,1,115,2|0,0:0|0:0,0:0:0:0:
215,238,135729,2,0,L|204:312,1,57.5,0|0,0:0|0:0,0:0:0:0:
103,345,136246,1,0,0:0:0:0:
49,243,136591,2,0,L|68:122,1,115,2|0,0:0|0:0,0:0:0:0:
181,141,137281,2,0,B|202:-1,1,115,2|0,0:0|0:0,0:0:0:0:
283,104,137971,6,0,P|365:156|443:132,1,172.5,2|0,0:0|0:0,0:0:0:0:
466,92,138661,1,0,0:0:0:0:
499,202,139006,1,0,0:0:0:0:
460,310,139351,2,0,P|395:319|317:309,1,115,2|0,0:0|0:0,0:0:0:0:
230,318,140040,2,0,P|168:326|104:318,1,115,0|0,0:0|0:0,0:0:0:0:
39,234,140730,6,0,P|19:191|74:164,1,115,2|0,0:0|0:0,0:0:0:0:
124,172,141247,1,0,0:0:0:0:
124,172,141419,2,0,P|185:183|249:169,1,115,0|0,0:0|0:0,0:0:0:0:
279,66,142109,2,0,B|360:54|360:54|423:73,1,115,2|0,0:0|0:0,0:0:0:0:
441,92,142626,2,0,B|453:125|453:125|430:286,1,172.5
405,374,143488,6,0,P|336:326|319:244,1,172.5,2|0,0:0|0:0,0:0:0:0:
335,188,144178,1,0,0:0:0:0:
291,81,144522,1,0,0:0:0:0:
186,130,144867,2,0,L|197:245,1,115,2|0,0:0|0:0,0:0:0:0:
171,357,145557,2,0,B|114:377|114:377|50:356,1,115
14,254,146247,6,0,P|0:193|27:114,1,115,2|0,0:0|0:0,0:0:0:0:
61,115,146764,2,0,L|138:104,1,57.5,0|0,0:0|0:0,0:0:0:0:
232,93,147281,1,0,0:0:0:0:
188,199,147626,2,0,B|190:260|190:260|242:324,1,115,2|0,0:0|0:0,0:0:0:0:
308,223,148315,2,0,B|342:181|342:181|344:120,1,115,2|0,0:0|0:0,0:0:0:0:
323,6,149005,6,0,P|251:50|227:131,1,172.5,2|0,0:0|0:0,0:0:0:0:
245,186,149695,1,0,0:0:0:0:
278,295,150040,1,0,0:0:0:0:
157,276,150385,2,0,P|99:282|22:310,1,115,2|0,0:0|0:0,0:0:0:0:
52,184,151074,2,0,P|45:126|63:50,1,115,0|0,0:0|0:0,0:0:0:0:
154,128,151764,6,0,B|239:165|316:113|316:113|301:144|305:179,1,230,2|2,0:0|0:0,0:0:0:0:
333,281,152798,1,0,0:0:0:0:
333,281,153143,2,0,P|436:273|366:209,1,230,2|0,0:0|0:0,0:0:0:0:
272,206,154177,1,4,0:0:0:0:
167,254,154522,6,0,P|113:276|43:254,1,115,6|0,0:3|0:0,0:0:0:0:
6,161,155212,2,0,P|1:114|29:48,1,115,0|0,0:2|0:0,0:0:0:0:
116,123,155902,2,0,L|260:112,2,115,2|0|0,0:0|0:0|0:2,0:0:0:0:
101,237,156936,1,0,0:0:0:0:
198,297,157281,6,0,B|251:311|251:311|306:287,1,115,2|0,0:0|0:0,0:0:0:0:
356,259,157798,1,0,0:0:0:0:
356,259,157971,2,0,P|369:196|355:146,1,115,0|0,0:2|0:0,0:0:0:0:
255,204,158660,2,0,L|179:204,1,57.5,2|0,0:0|0:0,0:0:0:0:
146,177,159005,2,0,P|160:249|121:312,1,115,0|2,0:0|0:0,0:0:0:0:
101,324,159522,2,0,L|29:324,1,57.5
38,208,160040,6,0,L|32:61,1,115,2|0,0:0|0:0,0:0:0:0:
71,49,160557,1,0,0:0:0:0:
71,49,160729,2,0,B|114:62|114:62|209:48,1,115,0|0,0:2|0:0,0:0:0:0:
291,92,161419,2,0,L|422:92,1,115,2|0,0:0|0:0,0:0:0:0:
426,205,162109,2,0,L|303:205,1,115,0|0,0:2|0:0,0:0:0:0:
208,152,162798,6,0,P|197:224|243:300,1,115,2|0,0:0|0:0,0:0:0:0:
242,311,163316,1,0,0:0:0:0:
242,311,163488,2,0,B|222:335|222:335|97:359,1,115,0|0,0:2|0:0,0:0:0:0:
75,251,164178,2,0,P|87:196|64:139,1,115,2|0,0:0|0:0,0:0:0:0:
40,91,164695,2,0,L|165:59,1,115,0|8,0:2|0:3,0:0:0:0:
207,48,165212,2,0,L|276:32,1,57.5,8|4,0:3|0:3,0:0:0:0:
320,29,165557,6,0,P|340:87|322:161,1,115,6|0,0:0|0:0,0:0:0:0:
227,186,166247,2,0,L|279:339,1,115,2|0,0:2|0:0,0:0:0:0:
371,336,166936,2,0,L|333:227,1,115,2|0,0:2|0:0,0:0:0:0:
442,188,167626,2,0,L|467:42,1,115,2|0,0:2|0:0,0:0:0:0:
472,18,168143,1,0,0:0:0:0:
472,18,168316,6,0,P|417:38|341:12,1,115,2|0,0:0|0:0,0:0:0:0:
252,56,169005,2,0,P|275:96|268:165,1,115
192,249,169695,2,0,P|261:279|325:259,2,115,2|0|2,0:0|0:0|0:0,0:0:0:0:
108,170,170729,1,0,0:0:0:0:
135,58,171074,6,0,L|218:47,2,57.5
231,122,171764,2,0,L|321:110,2,57.5
320,194,172453,2,0,L|327:258,2,57.5
415,259,173143,2,0,L|472:252,2,57.5
332,339,173833,6,0,P|303:350|267:345,1,57.5
237,306,174177,2,0,P|209:302|174:311,1,57.5
136,344,174522,1,0,0:0:0:0:
53,263,174867,1,0,0:0:0:0:
96,225,175040,1,0,0:0:0:0:
103,168,175212,6,0,B|159:90|260:133|260:133|290:145|326:154|357:139|366:99|347:73|312:68|291:100,1,345,8|0,0:0|0:0,0:0:0:0:
311,203,176591,6,0,L|324:307,1,57.5,4|0,0:2|0:0,0:0:0:0:
328,316,176936,1,8,0:0:0:0:
219,269,177281,2,0,L|197:405,1,115,0|8,0:0|0:0,0:0:0:0:
85,384,177971,2,0,L|104:268,1,115,0|8,0:0|0:0,0:0:0:0:
31,180,178660,2,0,P|34:111|58:73,1,115,0|8,0:0|0:0,0:0:0:0:
105,42,179177,1,0,0:0:0:0:
105,42,179350,6,0,P|172:62|218:47,1,115,2|8,0:0|0:0,0:0:0:0:
259,16,179867,2,0,P|286:78|257:162,1,115
254,175,180384,1,8,0:0:0:0:
146,215,180729,2,0,L|156:279,1,57.5
161,329,181074,2,0,B|72:349|72:349|35:324,1,115,8|0,0:0|0:0,0:0:0:0:
16,290,181591,1,0,0:0:0:0:
16,290,181764,1,8,0:0:0:0:
54,182,182108,6,0,P|51:150|54:125,1,57.5,2|0,0:0|0:0,0:0:0:0:
90,80,182453,1,8,0:0:0:0:
188,139,182798,2,0,P|240:152|310:128,1,115,0|8,0:0|0:0,0:0:0:0:
379,53,183488,2,0,P|412:109|407:173,1,115,0|8,0:0|0:0,0:0:0:0:
329,237,184177,2,0,B|275:253|275:253|218:326,1,115,0|8,0:0|0:0,0:0:0:0:
249,356,184695,1,0,0:0:0:0:
249,356,184867,6,0,B|300:378|300:378|391:359,1,115,2|8,0:0|0:0,0:0:0:0:
453,301,185557,2,0,L|460:219,1,57.5
464,186,185902,1,8,0:0:0:0:
352,155,186246,2,0,L|338:73,1,57.5
333,41,186591,1,8,0:0:0:0:
249,119,186936,2,0,P|197:153|117:122,1,115,8|4,0:3|0:3,0:0:0:0:
95,119,187453,1,4,0:3:0:0:
43,145,187626,6,0,L|28:234,1,57.5,4|0,0:2|0:0,0:0:0:0:
37,259,187971,1,8,0:0:0:0:
140,319,188315,2,0,P|202:327|261:302,1,115,0|8,0:0|0:0,0:0:0:0:
363,331,189005,2,0,P|433:299|455:249,1,115,0|8,0:0|0:0,0:0:0:0:
350,210,189695,2,0,P|337:133|357:80,1,115,0|8,0:0|0:0,0:0:0:0:
386,55,190212,1,0,0:0:0:0:
386,55,190384,6,0,L|268:38,1,115,2|8,0:0|0:0,0:0:0:0:
241,88,190902,2,0,L|90:109,1,115,0|0,0:0|0:0,0:0:0:0:
76,76,191419,1,8,0:0:0:0:
52,188,191764,2,0,P|53:226|65:252,1,57.5
99,285,192108,2,0,L|247:264,1,115,8|0,0:0|0:0,0:0:0:0:
251,224,192626,1,0,0:0:0:0:
251,224,192798,2,0,L|320:215,1,57.5,8|0,0:0|0:0,0:0:0:0:
358,189,193143,6,0,P|357:162|348:131,2,57.5,2|0|8,0:0|0:0|0:0,0:0:0:0:
324,299,193833,2,0,L|193:315,1,115,0|8,0:0|0:0,0:0:0:0:
95,321,194522,2,0,B|111:291|111:291|102:192,1,115,0|8,0:0|0:0,0:0:0:0:
95,95,195212,2,0,P|162:70|214:91,1,115,0|8,0:0|0:0,0:0:0:0:
226,133,195729,1,0,0:0:0:0:
226,133,195902,6,0,P|275:183|345:127,2,172.5,2|0|2,0:2|0:0|0:2,0:0:0:0:
153,43,197281,1,2,0:2:0:0:
80,133,197626,1,2,0:2:0:0:
92,247,197971,2,4,P|149:284|240:277,1,115,8|4,0:3|0:3,0:3:0:0:
251,282,198488,1,4,0:3:0:0:
291,240,198660,6,0,P|352:222|363:225,1,57.5,4|0,0:2|0:0,0:0:0:0:
395,246,199005,1,0,0:0:0:0:
395,246,199177,2,0,P|414:187|395:103,1,115,0|0,0:0|0:0,0:0:0:0:
380,84,199695,1,8,0:0:0:0:
272,124,200040,2,0,B|235:131|235:131|184:100|131:127,1,115,0|8,0:0|0:0,0:0:0:0:
174,230,200729,2,0,B|145:255|145:255|46:278,1,115,0|8,0:0|0:0,0:0:0:0:
48,219,201246,1,0,0:0:0:0:
48,219,201419,6,0,P|32:158|56:92,1,115,2|8,0:0|0:0,0:0:0:0:
84,66,201936,2,0,B|107:55|107:55|211:49,1,115,0|0,0:0|0:0,0:0:0:0:
240,86,202453,1,8,0:0:0:0:
180,184,202798,2,0,P|243:204|309:178,2,115,0|8|0,0:0|0:0|0:0,0:0:0:0:
82,121,203833,1,8,0:0:0:0:
71,235,204177,6,0,L|87:300,1,57.5,2|0,0:0|0:0,0:0:0:0:
64,344,204522,1,8,0:0:0:0:
178,329,204867,2,0,L|326:316,1,115,0|8,0:0|0:0,0:0:0:0:
223,226,205557,2,0,L|208:96,1,115,0|8,0:0|0:0,0:0:0:0:
323,132,206246,2,0,L|456:122,1,115,0|8,0:0|0:0,0:0:0:0:
481,160,206764,1,0,0:0:0:0:
481,160,206936,6,0,P|493:198|491:244,1,57.5,2|0,0:0|0:0,0:0:0:0:
484,272,207281,1,8,0:0:0:0:
375,233,207626,1,0,0:0:0:0:
279,296,207971,1,8,0:0:0:0:
186,228,208315,2,0,L|95:227,1,57.5,0|0,0:0|0:0,0:0:0:0:
113,171,208660,2,0,L|46:171,1,57.5,8|0,0:0|0:0,0:0:0:0:
42,114,209005,2,0,P|85:77|184:89,1,115,8|4,0:3|0:3,0:0:0:0:
196,87,209522,1,4,0:3:0:0:
213,143,209695,6,0,P|221:186|254:230,1,57.5,4|0,0:2|0:0,0:0:0:0:
268,238,210040,1,8,0:0:0:0:
336,146,210384,2,0,P|369:182|381:251,1,115,0|8,0:0|0:0,0:0:0:0:
314,337,211074,2,0,P|245:331|167:353,1,115,0|8,0:0|0:0,0:0:0:0:
85,346,211764,2,0,P|72:269|92:216,1,115,0|8,0:0|0:0,0:0:0:0:
106,182,212281,1,0,0:0:0:0:
106,182,212453,6,0,B|130:157|130:157|246:145,1,115,2|8,0:0|0:0,0:0:0:0:
245,194,212971,2,0,L|379:179,1,115,0|0,0:0|0:0,0:0:0:0:
390,132,213488,1,8,0:0:0:0:
443,233,213833,2,0,P|447:271|428:305,1,57.5,0|0,0:0|0:0,0:0:0:0:
390,316,214177,2,0,B|328:310|328:310|276:332,1,115,8|0,0:0|0:0,0:0:0:0:
227,356,214695,1,0,0:0:0:0:
227,356,214867,2,0,L|168:336,1,57.5,8|0,0:0|0:0,0:0:0:0:
134,293,215212,6,0,P|130:262|137:233,2,57.5,2|0|8,0:0|0:0|0:0,0:0:0:0:
245,263,215902,2,0,L|373:244,1,115,0|8,0:0|0:0,0:0:0:0:
287,155,216591,2,0,L|163:147,1,115,0|8,0:0|0:0,0:0:0:0:
130,254,217281,2,0,L|257:263,1,115,0|8,0:0|0:0,0:0:0:0:
288,299,217798,1,0,0:0:0:0:
288,299,217971,5,10,0:0:0:0:
400,275,218315,1,8,0:0:0:0:
410,160,218660,1,8,0:0:0:0:
326,80,219005,1,8,0:0:0:0:
218,121,219350,2,0,P|158:134|87:127,1,115,2|0,0:2|0:0,0:0:0:0:
96,246,220040,2,0,B|157:254|157:254|204:229|204:229|261:238,1,172.5,8|4,2:3|2:3,0:0:0:0:
311,267,220729,5,4,0:2:0:0:
311,267,220902,2,0,P|312:197|355:142,1,115,0|0,0:0|0:0,0:0:0:0:
378,122,221419,1,8,0:0:0:0:
284,55,221764,1,0,0:0:0:0:
211,144,222109,2,0,L|78:132,2,115,0|0|8,0:0|0:0|0:0,0:0:0:0:
255,250,223143,1,0,0:0:0:0:
156,309,223488,5,2,0:0:0:0:
156,309,223660,2,0,P|187:345|253:367,1,115
302,357,224178,2,0,L|411:321,1,115,8|0,0:0|0:0,0:0:0:0:
356,220,224867,2,0,L|225:205,2,115,0|0|8,0:0|0:0|0:0,0:0:0:0:
431,132,225902,1,0,0:0:0:0:
334,68,226247,5,2,0:0:0:0:
334,68,226419,2,0,B|307:55|307:55|212:54,1,115,0|0,0:0|0:0,0:0:0:0:
165,43,226936,2,0,P|173:111|141:166,1,115,8|0,0:0|0:0,0:0:0:0:
46,194,227626,2,0,P|27:259|41:315,2,115,0|0|8,0:0|0:0|0:0,0:0:0:0:
140,259,228660,2,0,L|265:250,1,115
450,112,229695,5,0,0:0:0:0:
414,338,230384,2,0,B|352:333|316:284|316:284|270:333|212:313|212:313|156:341|96:313,1,345
156,213,231764,5,4,0:1:0:0:
