osu file format v14

[General]
AudioFilename: MitiS - Touch.mp3
AudioLeadIn: 0
PreviewTime: 64867
Countdown: 0
SampleSet: None
StackLeniency: 0.7
Mode: 0
LetterboxInBreaks: 0
WidescreenStoryboard: 1

[Editor]
Bookmarks: 22108,33143,44177,55212,66246,88315,107626,110384,118660,121419,132453,143488,154522,165557,176591,187626,198660,209695,220729,231764
DistanceSpacing: 1.1
BeatDivisor: 2
GridSize: 32
TimelineZoom: 1.2

[Metadata]
Title:Touch (Original Mix)
TitleUnicode:Touch (Original Mix)
Artist:MitiS
ArtistUnicode:MitiS
Creator:[ Joey ]
Version:Milan-'s Easy
Source:
Tags:Drum&Bass dnb drumstep synth vibe EP Gear Milan Milan-
BeatmapID:769135
BeatmapSetID:255311

[Difficulty]
HPDrainRate:2
CircleSize:3
OverallDifficulty:2
ApproachRate:3
SliderMultiplier:0.799999999999999
SliderTickRate:1

[Events]
//Background and Video events
0,0,"BG.jpg",0,0
//Break Periods
2,121619,131013
//Storyboard Layer 0 (Background)
//Storyboard Layer 1 (Fail)
//Storyboard Layer 2 (Pass)
//Storyboard Layer 3 (Foreground)
//Storyboard Sound Samples

[TimingPoints]
40,344.827586206897,4,3,90,50,1,0
44177,-100,4,3,90,55,0,0
55212,-100,4,3,90,60,0,0
64867,-100,4,3,90,62,0,0
66246,-100,4,3,90,70,0,1
76591,-100,4,3,90,70,0,0
77281,-100,4,3,90,70,0,1
85557,-100,4,3,90,50,0,0
88143,-100,4,3,0,50,0,0
88315,-100,4,3,90,70,0,1
98660,-100,4,3,90,70,0,0
99350,-100,4,3,90,70,0,1
107626,-100,4,3,90,50,0,1
110384,-100,4,3,90,60,0,0
121419,-100,4,3,90,50,0,0
154522,-100,4,3,90,55,0,0
165557,-100,4,3,90,60,0,0
175212,-100,4,2,33,65,0,0
176591,-100,4,3,90,70,0,1
186936,-100,4,3,90,50,0,0
187626,-100,4,3,90,70,0,1
195902,-100,4,3,90,50,0,0
198488,-100,4,3,0,50,0,0
198660,-100,4,3,90,70,0,1
209005,-100,4,3,90,50,0,0
209695,-100,4,3,90,70,0,1
219350,-100,4,3,90,50,0,1
220729,-100,4,3,90,60,0,0
231764,-100,4,3,90,50,0,0

[Colours]
Combo1 : 64,128,128
Combo2 : 0,64,128
Combo3 : 22,175,250
Combo4 : 0,128,73

[HitObjects]
47,23,33143,6,0,P|29:100|55:175,1,160,2|0,0:0|0:0,0:0:0:0:
124,228,34177,1,0,0:0:0:0:
190,170,34522,2,0,L|349:157,1,160,2|0,0:0|0:0,0:0:0:0:
396,327,35902,6,0,L|300:334,2,79.9999999999999,2|0|0,0:0|0:0|0:0,0:0:0:0:
458,264,36936,1,0,0:0:0:0:
426,181,37281,1,2,0:0:0:0:
255,224,37971,1,2,0:0:0:0:
145,86,38660,6,0,P|92:150|85:243,1,160,2|0,0:0|0:0,0:0:0:0:
110,307,39695,1,0,0:0:0:0:
195,287,40040,2,0,P|246:226|258:148,1,160,2|0,0:0|0:0,0:0:0:0:
116,45,41419,6,0,L|21:52,2,79.9999999999999,2|0|0,0:0|0:0|0:0,0:0:0:0:
201,66,42453,1,0,0:0:0:0:
286,86,42798,1,2,0:0:0:0:
370,240,43488,2,0,L|373:326,1,79.9999999999999
288,346,44177,6,0,L|285:266,2,79.9999999999999,6|0|0,0:3|0:0|0:0,0:0:0:0:
206,380,45212,1,0,0:0:0:0:
148,313,45557,2,0,L|143:141,1,160,2|0,0:0|0:0,0:0:0:0:
274,35,46936,6,0,P|313:28|353:32,2,79.9999999999999,2|0|0,0:0|0:0|0:0,0:0:0:0:
215,101,47971,1,0,0:0:0:0:
266,171,48315,2,0,L|273:261,1,79.9999999999999,2|0,0:0|0:0,0:0:0:0:
324,321,49005,2,0,P|347:288|356:250,1,79.9999999999999,2|0,0:0|0:0,0:0:0:0:
355,162,49695,6,0,P|313:97|236:89,1,160,6|0,0:3|0:0,0:0:0:0:
160,134,50729,1,0,0:0:0:0:
92,77,51074,2,0,P|73:112|70:151,1,79.9999999999999,2|0,0:0|0:0,0:0:0:0:
126,219,51764,2,0,P|122:258|104:293,1,79.9999999999999
43,357,52453,6,0,P|23:322|18:283,2,79.9999999999999,2|0|0,0:0|0:0|0:0,0:0:0:0:
131,353,53488,1,0,0:0:0:0:
215,328,53833,2,0,B|266:323|266:323|291:331|355:330,2,120,2|0|4,0:0|0:0|0:3,0:0:0:0:
151,267,55212,6,0,P|144:227|150:188,1,79.9999999999999,6|0,0:0|0:0,0:0:0:0:
200,115,55902,2,0,L|283:99,1,79.9999999999999,2|0,0:2|0:0,0:0:0:0:
348,153,56591,2,0,L|431:137,1,79.9999999999999,2|0,0:2|0:0,0:0:0:0:
456,220,57281,2,0,L|377:235,1,79.9999999999999,2|0,0:2|0:0,0:0:0:0:
290,249,57971,6,0,P|229:248|110:222,1,160,2|0,0:0|0:0,0:0:0:0:
55,185,59005,1,0,0:0:0:0:
52,273,59350,1,2,0:0:0:0:
178,150,60040,1,2,0:0:0:0:
300,276,60729,6,0,P|317:312|330:363,2,79.9999999999999,2|0|2,0:0|0:0|0:2,0:0:0:0:
222,233,61764,1,0,0:2:0:0:
152,284,62108,2,0,P|113:292|73:292,1,79.9999999999999,2|0,0:2|0:0,0:0:0:0:
29,215,62798,2,0,P|67:206|107:206,1,79.9999999999999,2|0,0:2|0:0,0:0:0:0:
196,204,63488,6,0,P|225:182|252:145,1,79.9999999999999,2|0,0:2|0:0,0:0:0:0:
268,60,64177,2,0,P|303:78|329:108,1,79.9999999999999,2|0,0:2|0:0,0:0:0:0:
330,196,64867,5,8,0:0:0:0:
298,278,65212,2,0,B|296:319|296:319|302:377,2,79.9999999999999,8|4|4,0:0|0:0|0:0,0:0:0:0:
330,196,66246,6,0,P|336:129|233:96,1,160,4|8,0:2|0:0,0:0:0:0:
179,113,67281,1,0,0:0:0:0:
143,193,67626,2,0,L|149:272,1,79.9999999999999
204,341,68315,2,0,P|242:352|281:349,1,79.9999999999999,8|0,0:0|0:0,0:0:0:0:
353,296,69005,6,0,B|375:196|375:196|374:132,1,160,2|8,0:0|0:0,0:0:0:0:
344,55,70040,1,0,0:0:0:0:
258,74,70384,1,0,0:0:0:0:
89,123,71074,1,8,0:0:0:0:
79,210,71419,1,8,0:0:0:0:
75,297,71764,6,0,P|94:357|199:346,1,160,2|8,0:0|0:0,0:0:0:0:
251,312,72798,1,0,0:0:0:0:
287,232,73143,2,0,L|286:140,2,79.9999999999999,0|0|8,0:0|0:0|0:0,0:0:0:0:
339,302,74177,1,0,0:0:0:0:
426,306,74522,5,2,0:0:0:0:
398,131,75212,2,0,L|397:39,1,79.9999999999999,8|0,0:0|0:0,0:0:0:0:
314,18,75902,2,0,L|300:114,1,79.9999999999999
280,182,76591,2,0,P|226:205|168:194,1,120,8|8,0:0|0:0,0:0:0:0:
129,173,77281,6,0,P|109:250|102:330,1,160,4|8,0:2|0:0,0:0:0:0:
178,373,78315,1,0,0:0:0:0:
250,322,78660,2,0,P|286:306|325:299,1,79.9999999999999
387,362,79350,2,0,P|404:326|410:287,1,79.9999999999999,8|0,0:0|0:0,0:0:0:0:
358,215,80040,6,0,P|359:121|410:56,1,160,2|8,0:0|0:0,0:0:0:0:
474,31,81074,1,0,0:0:0:0:
504,113,81419,1,0,0:0:0:0:
471,285,82108,2,0,P|434:299|391:307,1,79.9999999999999,8|0,0:0|0:0,0:0:0:0:
307,292,82798,6,0,P|227:287|152:313,1,160,2|8,0:0|0:0,0:0:0:0:
81,365,83833,1,0,0:0:0:0:
24,295,84177,2,0,P|15:257|19:217,2,79.9999999999999,0|0|8,0:0|0:0|0:0,0:0:0:0:
101,252,85212,1,0,0:0:0:0:
187,268,85557,6,0,L|343:250,1,120,2|0,0:2|0:0,0:0:0:0:
425,197,86591,1,2,0:2:0:0:
375,124,86936,2,0,L|381:30,1,79.9999999999999,2|2,0:2|0:2,0:0:0:0:
295,18,87626,2,0,L|285:153,1,120,2|8,0:2|0:3,0:0:0:0:
277,180,88315,6,0,P|202:202|130:173,1,160,4|8,0:2|0:0,0:0:0:0:
71,107,89350,1,0,0:0:0:0:
155,82,89695,2,0,P|195:78|250:79,1,79.9999999999999
321,93,90384,2,0,P|360:92|400:89,1,79.9999999999999,8|0,0:0|0:0,0:0:0:0:
469,33,91074,6,0,P|482:113|421:174,1,160,2|8,0:0|0:0,0:0:0:0:
346,184,92108,1,0,0:0:0:0:
258,191,92453,1,0,0:0:0:0:
82,207,93143,1,8,0:0:0:0:
61,121,93488,1,8,0:0:0:0:
39,34,93833,6,0,P|114:51|149:121,1,160,2|8,0:0|0:0,0:0:0:0:
150,209,94867,1,0,0:0:0:0:
112,288,95212,2,0,P|73:297|33:297,2,79.9999999999999,0|0|8,0:0|0:0|0:0,0:0:0:0:
199,283,96246,1,0,0:0:0:0:
286,289,96591,5,2,0:0:0:0:
395,149,97281,2,0,P|399:110|393:70,1,79.9999999999999,8|0,0:0|0:0,0:0:0:0:
315,29,97971,2,0,P|310:68|316:108,1,79.9999999999999
313,196,98660,2,0,P|259:219|201:208,1,120,8|8,0:0|0:0,0:0:0:0:
168,180,99350,6,0,P|109:159|6:208,1,160,4|8,0:2|0:0,0:0:0:0:
24,278,100384,1,0,0:0:0:0:
74,350,100729,2,0,P|113:351|153:343,1,79.9999999999999
224,289,101419,2,0,P|255:265|292:251,1,79.9999999999999,8|0,0:0|0:0,0:0:0:0:
380,241,102108,6,0,P|426:204|426:100,1,160,2|8,0:0|0:0,0:0:0:0:
369,45,103143,1,0,0:0:0:0:
283,26,103488,1,0,0:0:0:0:
128,111,104177,2,0,L|135:206,1,79.9999999999999,8|0,0:0|0:0,0:0:0:0:
54,228,104867,6,0,L|41:67,1,160,2|8,0:0|0:0,0:0:0:0:
117,22,105902,2,0,P|156:27|190:47,2,79.9999999999999
128,111,106936,2,0,L|135:206,1,79.9999999999999,8|0,0:0|0:0,0:0:0:0:
171,270,107626,6,0,P|248:281|319:247,1,160,2|2,0:2|0:2,0:0:0:0:
373,177,108660,1,2,0:2:0:0:
397,92,109005,2,0,L|389:0,2,79.9999999999999,2|2|2,0:2|0:2|0:2,0:0:0:0:
443,261,110384,6,0,P|368:283|296:254,1,160,4|8,0:2|0:0,0:0:0:0:
242,182,111419,1,0,0:0:0:0:
183,248,111764,2,0,P|144:259|104:261,1,79.9999999999999
31,212,112453,2,0,L|15:125,1,79.9999999999999,8|0,0:0|0:0,0:0:0:0:
33,46,113143,6,0,B|88:59|99:113|99:113|112:172,1,160,2|8,0:0|0:0,0:0:0:0:
104,261,114177,1,0,0:0:0:0:
79,345,114522,2,0,L|0:356,2,79.9999999999999,0|0|8,0:0|0:0|0:0,0:0:0:0:
165,329,115557,1,0,0:0:0:0:
250,308,115902,6,0,P|310:279|316:161,1,160,2|8,0:0|0:0,0:0:0:0:
247,218,116936,1,0,0:0:0:0:
159,205,117281,2,0,L|72:218,1,79.9999999999999
34,140,117971,2,0,L|113:128,1,79.9999999999999,8|0,0:0|0:0,0:0:0:0:
256,192,118660,12,4,121419,0:1:0:0:
430,28,132453,6,0,L|426:221,1,160,2|0,0:0|0:0,0:0:0:0:
405,273,133488,1,0,0:0:0:0:
343,207,133833,2,0,P|265:196|189:218,1,160,2|0,0:0|0:0,0:0:0:0:
82,358,135212,6,0,P|43:366|3:367,2,79.9999999999999,2|0|0,0:0|0:0|0:0,0:0:0:0:
160,318,136246,1,0,0:0:0:0:
225,258,136591,1,2,0:0:0:0:
191,85,137281,1,2,0:0:0:0:
358,139,137971,6,0,P|428:133|515:71,1,160,2|0,0:0|0:0,0:0:0:0:
481,0,139005,1,0,0:0:0:0:
393,4,139350,2,0,P|323:10|236:72,1,160,2|0,0:0|0:0,0:0:0:0:
112,169,140729,6,0,P|90:140|78:85,2,79.9999999999999,2|0|0,0:0|0:0|0:0,0:0:0:0:
167,100,141764,1,0,0:0:0:0:
254,100,142108,1,2,0:0:0:0:
374,228,142798,2,0,L|377:314,1,79.9999999999999
292,334,143488,6,0,L|289:254,2,79.9999999999999,2|0|0,0:0|0:0|0:0,0:0:0:0:
218,382,144522,1,0,0:0:0:0:
144,334,144867,2,0,L|139:162,1,160,2|0,0:0|0:0,0:0:0:0:
92,4,146246,6,0,P|53:-3|13:1,2,79.9999999999999,2|0|0,0:0|0:0|0:0,0:0:0:0:
170,43,147281,1,0,0:0:0:0:
246,85,147626,2,0,P|285:92|324:88,1,79.9999999999999,2|0,0:0|0:0,0:0:0:0:
377,17,148315,2,0,P|401:48|413:86,1,79.9999999999999,2|0,0:0|0:0,0:0:0:0:
375,165,149005,6,0,P|359:242|389:315,1,160,2|0,0:0|0:0,0:0:0:0:
465,361,150040,1,0,0:0:0:0:
471,273,150384,2,0,B|476:212|476:212|485:141,2,120,2|0|0,0:0|0:0|0:0,0:0:0:0:
389,315,151764,5,2,0:0:0:0:
258,196,152453,1,2,0:0:0:0:
185,246,152798,1,0,0:0:0:0:
108,289,153143,2,0,B|59:296|27:289|27:289|1:317,2,120,2|0|4,0:0|0:0|0:0,0:0:0:0:
185,246,154522,6,0,P|191:206|185:167,1,79.9999999999999,6|0,0:3|0:0,0:0:0:0:
142,90,155212,2,0,P|135:50|142:11,1,79.9999999999999,0|0,0:2|0:0,0:0:0:0:
222,49,155902,2,0,P|261:53|300:45,1,79.9999999999999,2|0,0:0|0:0,0:0:0:0:
379,6,156591,2,0,P|385:45|378:84,1,79.9999999999999,0|0,0:2|0:0,0:0:0:0:
344,165,157281,6,0,P|323:251|375:339,1,160,2|0,0:0|0:2,0:0:0:0:
423,362,158315,1,0,0:0:0:0:
483,298,158660,1,2,0:0:0:0:
442,126,159350,1,2,0:0:0:0:
312,246,160040,6,0,P|273:252|234:243,2,79.9999999999999,2|0|0,0:0|0:0|0:2,0:0:0:0:
276,165,161074,1,0,0:0:0:0:
188,168,161419,2,0,P|159:195|142:231,1,79.9999999999999,2|0,0:0|0:0,0:0:0:0:
105,311,162108,2,0,P|74:285|57:249,1,79.9999999999999,0|0,0:2|0:0,0:0:0:0:
65,161,162798,6,0,B|77:115|62:55|62:55|85:52|134:32,1,160,2|0,0:0|0:2,0:0:0:0:
197,14,163833,1,0,0:0:0:0:
270,62,164177,2,0,L|288:214,2,120,2|0|4,0:0|0:2|0:3,0:0:0:0:
196,13,165557,6,0,P|118:26|53:71,1,160,6|2,0:0|0:2,0:0:0:0:
19,152,166591,1,0,0:0:0:0:
87,207,166936,2,0,L|102:312,1,79.9999999999999,2|0,0:2|0:0,0:0:0:0:
151,356,167626,2,0,P|175:324|184:285,1,79.9999999999999,2|0,0:2|0:0,0:0:0:0:
188,198,168315,6,0,P|196:159|221:127,2,79.9999999999999,2|0|0,0:0|0:0|0:0,0:0:0:0:
276,195,169350,1,0,0:0:0:0:
347,143,169695,1,2,0:0:0:0:
471,267,170384,2,0,L|465:372,1,79.9999999999999,2|0,0:0|0:0,0:0:0:0:
256,192,171074,12,8,175212,0:0:0:0:
182,188,176591,6,0,P|176:255|279:288,1,160,4|0,0:2|0:0,0:0:0:0:
333,271,177626,1,8,0:0:0:0:
369,191,177971,2,0,L|363:112,1,79.9999999999999,0|8,0:0|0:0,0:0:0:0:
308,43,178660,2,0,P|270:32|231:35,1,79.9999999999999,0|8,0:0|0:0,0:0:0:0:
159,88,179350,6,0,B|138:168|138:168|141:222,2,120,2|0|8,0:0|0:0|0:0,0:0:0:0:
242,117,180729,2,0,L|268:219,1,79.9999999999999,0|8,0:0|0:0,0:0:0:0:
308,269,181419,1,0,0:0:0:0:
395,281,181764,1,8,0:0:0:0:
464,226,182108,6,0,P|479:150|442:81,1,160,2|0,0:0|0:0,0:0:0:0:
359,51,183143,1,8,0:0:0:0:
299,115,183488,2,0,L|294:204,2,79.9999999999999,0|8|0,0:0|0:0|0:0,0:0:0:0:
269,31,184522,1,8,0:0:0:0:
182,44,184867,6,0,B|140:47|113:40|113:40|46:50,2,120,2|0|8,0:0|0:0|0:0,0:0:0:0:
269,31,186246,2,0,P|308:27|351:33,1,79.9999999999999,0|8,0:0|0:0,0:0:0:0:
436,72,186936,1,0,0:0:0:0:
390,242,187626,6,0,P|320:208|307:132,1,160,4|0,0:2|0:0,0:0:0:0:
334,48,188660,1,8,0:0:0:0:
247,66,189005,2,0,P|211:82|172:89,1,79.9999999999999,0|8,0:0|0:0,0:0:0:0:
107,28,189695,2,0,P|90:64|84:103,1,79.9999999999999,0|8,0:0|0:0,0:0:0:0:
112,186,190384,6,0,P|119:244|100:301,2,120,2|0|8,0:0|0:0|0:0,0:0:0:0:
33,230,191764,2,0,P|23:192|29:153,1,79.9999999999999,0|8,0:0|0:0,0:0:0:0:
101,102,192453,2,0,P|146:98|201:104,1,79.9999999999999,0|8,0:0|0:0,0:0:0:0:
262,134,193143,6,0,P|342:139|417:113,1,160,2|0,0:0|0:0,0:0:0:0:
483,56,194177,1,8,0:0:0:0:
500,142,194522,2,0,P|509:180|505:220,2,79.9999999999999,0|8|0,0:0|0:0|0:0,0:0:0:0:
416,113,195557,1,8,0:0:0:0:
328,120,195902,6,0,L|172:138,1,120,2|0,0:2|0:0,0:0:0:0:
87,187,196936,1,2,0:2:0:0:
137,260,197281,2,0,L|131:354,1,79.9999999999999,2|2,0:2|0:2,0:0:0:0:
217,366,197971,2,0,L|227:231,1,120,2|8,0:2|0:0,0:0:0:0:
235,204,198660,6,0,P|310:182|382:211,1,160,4|0,0:2|0:0,0:0:0:0:
441,277,199695,1,8,0:0:0:0:
357,302,200040,2,0,P|317:306|262:305,1,79.9999999999999,0|8,0:0|0:0,0:0:0:0:
191,291,200729,2,0,P|152:292|112:295,1,79.9999999999999,0|8,0:0|0:0,0:0:0:0:
44,237,201419,6,0,P|23:292|40:348,2,120,2|0|8,0:0|0:0|0:0,0:0:0:0:
111,180,202798,2,0,P|133:147|144:108,1,79.9999999999999,0|8,0:0|0:0,0:0:0:0:
139,20,203488,1,0,0:0:0:0:
220,52,203833,1,8,0:0:0:0:
305,72,204177,6,0,P|413:67|478:71,1,160,2|0,0:0|0:0,0:0:0:0:
510,145,205212,1,8,0:0:0:0:
475,226,205557,2,0,P|477:265|489:304,2,79.9999999999999,0|8|0,0:0|0:0|0:0,0:0:0:0:
424,153,206591,1,8,0:0:0:0:
337,139,206936,6,0,L|233:141,1,79.9999999999999,2|8,0:0|0:0,0:0:0:0:
182,187,207626,2,0,L|102:185,1,79.9999999999999,0|8,0:0|0:0,0:0:0:0:
80,270,208315,2,0,L|159:271,1,79.9999999999999,0|8,0:0|0:0,0:0:0:0:
246,253,209005,1,0,0:0:0:0:
403,330,209695,6,0,P|412:254|432:172,1,160,4|0,0:2|0:0,0:0:0:0:
488,106,210729,1,8,0:0:0:0:
438,34,211074,2,0,P|399:33|359:41,1,79.9999999999999,0|8,0:0|0:0,0:0:0:0:
288,95,211764,2,0,P|257:119|220:133,1,79.9999999999999,0|8,0:0|0:0,0:0:0:0:
131,143,212453,6,0,P|85:180|67:236,2,120,2|0|8,0:0|0:0|0:0,0:0:0:0:
219,133,213833,2,0,L|261:213,1,79.9999999999999,0|8,0:0|0:0,0:0:0:0:
316,267,214522,2,0,P|335:232|341:193,1,79.9999999999999,0|8,0:0|0:0,0:0:0:0:
309,110,215212,6,0,P|386:114|433:176,1,160,2|0,0:0|0:0,0:0:0:0:
449,262,216246,1,8,0:0:0:0:
377,312,216591,2,0,L|274:321,1,79.9999999999999,0|8,0:0|0:0,0:0:0:0:
209,318,217281,2,0,P|183:287|171:249,1,79.9999999999999,0|8,0:0|0:0,0:0:0:0:
174,161,217971,6,0,B|175:117|175:117|170:61,2,79.9999999999999,10|8|8,0:0|0:0|0:0,0:0:0:0:
94,199,219005,1,8,0:0:0:0:
41,269,219350,2,0,P|37:308|44:348,1,79.9999999999999,2|0,0:2|0:0,0:0:0:0:
128,374,220040,2,0,P|166:328|223:312,1,120,2|2,0:2|0:2,0:0:0:0:
265,324,220729,6,0,P|340:310|374:240,1,160,4|8,0:2|0:0,0:0:0:0:
362,153,221764,1,0,0:0:0:0:
358,65,222108,2,0,P|397:70|430:92,1,79.9999999999999
472,170,222798,2,0,L|488:257,1,79.9999999999999,8|0,0:0|0:0,0:0:0:0:
470,336,223488,6,0,B|415:323|404:269|404:269|391:210,1,160,2|8,0:0|0:0,0:0:0:0:
396,122,224522,1,0,0:0:0:0:
424,38,224867,2,0,L|503:27,2,79.9999999999999,0|0|8,0:0|0:0|0:0,0:0:0:0:
337,56,225902,1,0,0:0:0:0:
251,77,226246,6,0,P|191:106|185:224,1,160,2|8,0:0|0:0,0:0:0:0:
253,165,227281,1,0,0:0:0:0:
340,177,227626,2,0,L|427:164,1,79.9999999999999
461,242,228315,2,0,L|382:254,1,79.9999999999999,8|0,0:0|0:0,0:0:0:0:
256,192,229005,12,4,231764,0:1:0:0:
