osu file format v14

[General]
AudioFilename: MitiS - Touch.mp3
AudioLeadIn: 0
PreviewTime: 64867
Countdown: 0
SampleSet: Normal
StackLeniency: 0.7
Mode: 0
LetterboxInBreaks: 0
WidescreenStoryboard: 1

[Editor]
DistanceSpacing: 1.4
BeatDivisor: 4
GridSize: 4
TimelineZoom: 1.5

[Metadata]
Title:Touch (Original Mix)
TitleUnicode:Touch (Original Mix)
Artist:MitiS
ArtistUnicode:MitiS
Creator:[ Joey ]
Version:Gear's Hard
Source:
Tags:Drum&Bass dnb drumstep synth vibe EP Gear Milan Milan-
BeatmapID:764055
BeatmapSetID:255311

[Difficulty]
HPDrainRate:5
CircleSize:3.5
OverallDifficulty:6
ApproachRate:7.5
SliderMultiplier:1.4
SliderTickRate:1

[Events]
//Background and Video events
0,0,"BG.jpg",0,0
//Break Periods
2,121419,131628
//Storyboard Layer 0 (Background)
//Storyboard Layer 1 (Fail)
//Storyboard Layer 2 (Pass)
//Storyboard Layer 3 (Foreground)
//Storyboard Sound Samples

[TimingPoints]
40,344.827586206897,4,1,0,100,1,0
40,-125,4,1,0,100,0,0
33143,-125,4,2,0,55,0,0
44177,-111.111111111111,4,2,2,65,0,0
54695,-111.111111111111,4,2,1,70,0,0
55212,-111.111111111111,4,2,2,65,0,0
64867,-125,4,2,1,30,0,0
65557,-111.111111111111,4,2,1,50,0,0
66246,-100,4,2,1,75,0,1
85557,-125,4,2,0,50,0,0
87626,-125,4,2,1,50,0,0
88315,-100,4,2,1,75,0,1
107626,-125,4,2,0,70,0,0
110384,-111.111111111111,4,2,1,60,0,0
132453,-125,4,2,0,55,0,0
151764,-125,4,2,0,40,0,0
154522,-111.111111111111,4,2,2,55,0,0
165040,-111.111111111111,4,2,1,45,0,0
165557,-111.111111111111,4,2,2,60,0,0
175212,-125,4,2,33,65,0,0
176246,-111.111111111111,4,2,1,50,0,0
176591,-100,4,2,1,75,0,1
195902,-125,4,2,0,50,0,0
197971,-125,4,2,1,55,0,0
198660,-100,4,2,1,75,0,1
209005,-100,4,2,1,55,0,1
209695,-100,4,2,1,75,0,1
219350,-100,4,2,1,50,0,1
220040,-100,4,2,1,65,0,1
220729,-111.111111111111,4,2,1,55,0,0
229005,-111.111111111111,4,2,0,30,0,0

[Colours]
Combo1 : 64,128,128
Combo2 : 0,64,128
Combo3 : 22,175,250
Combo4 : 0,128,73

[HitObjects]
112,192,33143,6,0,L|112:248,2,56,2|0|0,0:0|0:0|0:0,0:0:0:0:
88,115,33660,2,0,P|142:117|182:155,1,112,2|0,0:0|0:0,0:0:0:0:
188,232,34177,2,0,L|244:232,1,56,2|0,0:0|0:0,0:0:0:0:
324,232,34522,6,0,P|338:178|323:125,1,112,2|0,0:0|0:0,0:0:0:0:
284,56,35040,1,0,0:0:0:0:
240,120,35212,2,0,P|216:134|188:140,1,56
140,76,35557,2,0,P|164:62|192:56,1,56
240,120,35902,6,0,L|240:176,2,56,2|0|0,0:0|0:0|0:0,0:0:0:0:
300,68,36419,2,0,B|384:68|384:68|366:89,1,112,2|0,0:0|0:0,0:0:0:0:
340,164,36936,2,0,P|367:167|395:163,1,56,2|0,0:0|0:0,0:0:0:0:
452,108,37281,5,2,0:0:0:0:
452,108,37453,2,0,P|466:131|472:159,1,56
456,236,37798,1,0,0:0:0:0:
375,240,37971,2,0,P|347:245|325:261,1,56,2|0,0:0|0:0,0:0:0:0:
332,340,38315,2,0,P|359:334|381:318,1,56
448,276,38660,6,0,L|468:332,2,56,2|0|0,0:0|0:0|0:0,0:0:0:0:
420,204,39177,2,0,P|427:149|467:112,1,112,2|0,0:0|0:0,0:0:0:0:
460,32,39695,2,0,L|404:32,1,56,2|0,0:0|0:0,0:0:0:0:
324,32,40040,6,0,P|309:85|323:138,1,112,2|0,0:0|0:0,0:0:0:0:
336,216,40557,1,0,0:0:0:0:
259,212,40729,2,0,P|235:225|215:244,1,56
240,320,41074,2,0,P|264:306|284:287,1,56
364,280,41419,6,0,L|419:295,2,56,2|0|0,0:0|0:0|0:0,0:0:0:0:
336,204,41936,1,0,0:0:0:0:
344,128,42108,2,0,L|350:72,1,56,2|0,0:0|0:0,0:0:0:0:
428,72,42453,2,0,L|421:127,1,56,2|0,0:0|0:0,0:0:0:0:
412,204,42798,6,0,L|405:259,2,56,2|0|0,0:0|0:0|0:0,0:0:0:0:
336,204,43315,2,0,B|324:288|324:288|303:306,1,112,2|0,0:0|0:0,0:0:0:0:
259,189,43833,2,0,L|252:244,1,56,2|0,0:0|0:0,0:0:0:0:
178,364,44177,6,0,P|121:340|101:283,1,125.999996154785,6|0,0:0|0:0,0:0:0:0:
110,193,44695,1,0,0:0:0:0:
197,196,44867,2,0,P|229:196|260:188,1,62.9999980773926,2|0,0:0|0:0,0:0:0:0:
218,109,45212,2,0,P|186:108|156:116,1,62.9999980773926
110,192,45557,6,0,P|127:251|182:280,1,125.999996154785,6|0,0:0|0:0,0:0:0:0:
256,228,46074,1,0,0:0:0:0:
334,186,46246,2,0,P|391:207|417:263,1,125.999996154785,2|0,0:0|0:0,0:0:0:0:
418,264,46936,6,0,L|408:326,1,62.9999980773926,6|0,0:0|0:0,0:0:0:0:
332,284,47281,2,0,L|307:341,1,62.9999980773926,4|0,0:0|0:0,0:0:0:0:
244,280,47626,2,0,P|194:241|133:229,1,125.999996154785,6|0,0:0|0:0,0:0:0:0:
48,252,48143,1,0,0:0:0:0:
71,168,48315,6,0,P|102:113|152:76,1,125.999996154785,6|0,0:0|0:0,0:0:0:0:
236,40,48833,1,0,0:0:0:0:
256,124,49005,2,0,L|256:187,2,62.9999980773926,6|0|2,0:0|0:0|0:0,0:0:0:0:
320,60,49522,1,2,0:0:0:0:
344,144,49695,6,0,L|344:276,1,125.999996154785,6|0,0:0|0:0,0:0:0:0:
344,360,50212,1,0,0:0:0:0:
268,312,50384,2,0,L|205:312,1,62.9999980773926,2|0,0:0|0:0,0:0:0:0:
120,340,50729,2,0,P|112:309|120:279,1,62.9999980773926
139,192,51074,6,0,P|201:180|260:201,1,125.999996154785,6|0,0:0|0:0,0:0:0:0:
280,288,51591,1,0,0:0:0:0:
356,244,51764,2,0,P|360:181|332:126,1,125.999996154785,2|0,0:0|0:0,0:0:0:0:
332,126,52453,6,0,L|272:106,1,62.9999980773926,6|0,0:0|0:0,0:0:0:0:
226,183,52798,2,0,L|183:136,1,62.9999980773926,6|0,0:0|0:0,0:0:0:0:
134,211,53143,2,0,P|172:259|232:275,1,125.999996154785,6|0,0:0|0:0,0:0:0:0:
312,236,53660,1,0,0:0:0:0:
368,304,53833,6,0,L|368:367,2,62.9999980773926,6|4|2,0:0|0:0|0:0,0:0:0:0:
400,220,54350,2,0,L|400:144,1,62.9999980773926,6|0,0:0|0:0,0:0:0:0:
360,76,54695,5,8,0:3:0:0:
272,84,54867,1,8,0:3:0:0:
212,148,55040,1,4,0:3:0:0:
200,235,55212,6,0,P|138:245|84:215,1,125.999996154785,6|0,0:0|0:0,0:0:0:0:
56,132,55729,1,0,0:0:0:0:
108,60,55902,2,0,P|169:50|223:80,1,125.999996154785,6|0,0:0|0:0,0:0:0:0:
252,164,56419,1,0,0:0:0:0:
332,128,56591,6,0,L|390:104,1,62.9999980773926,6|0,0:0|0:0,0:0:0:0:
452,168,56936,2,0,L|393:191,1,62.9999980773926,2|0,0:0|0:0,0:0:0:0:
308,216,57281,2,0,P|275:268|287:328,1,125.999996154785,6|0,0:0|0:0,0:0:0:0:
368,368,57798,1,0,0:0:0:0:
420,296,57971,6,0,L|358:281,2,62.9999980773926,6|0|0,0:0|0:0|0:0,0:0:0:0:
507,288,58488,2,0,P|503:226|457:185,1,125.999996154785,4|0,0:0|0:0,0:0:0:0:
372,168,59005,2,0,L|398:110,1,62.9999980773926,4|0,0:0|0:0,0:0:0:0:
312,108,59350,6,0,L|285:165,2,62.9999980773926,6|0|2,0:0|0:0|0:0,0:0:0:0:
312,20,59867,1,0,0:0:0:0:
236,63,60040,2,0,P|208:78|178:88,1,62.9999980773926,6|0,0:0|0:0,0:0:0:0:
176,176,60384,2,0,P|202:192|225:213,1,62.9999980773926,2|0,0:0|0:0,0:0:0:0:
280,284,60729,6,0,L|341:268,1,62.9999980773926,6|0,0:0|0:0,0:0:0:0:
396,200,61074,2,0,L|381:138,1,62.9999980773926,6|0,0:0|0:0,0:0:0:0:
312,84,61419,2,0,L|251:100,1,62.9999980773926,6|0,0:0|0:0,0:0:0:0:
196,168,61764,1,2,0:0:0:0:
196,168,61936,1,0,0:0:0:0:
112,140,62108,6,0,L|102:202,1,62.9999980773926,6|0,0:0|0:0,0:0:0:0:
187,230,62453,2,0,L|196:167,1,62.9999980773926,6|0,0:0|0:0,0:0:0:0:
284,164,62798,2,0,L|274:226,1,62.9999980773926,6|0,0:0|0:0,0:0:0:0:
236,308,63143,1,2,0:0:0:0:
236,308,63315,1,0,0:0:0:0:
160,260,63488,6,0,L|133:243,7,31.4999990386963,4|0|0|0|4|0|0|0,0:0|0:0|0:0|0:0|0:0|0:0|0:0|0:0,0:0:0:0:
114,293,64177,2,0,L|83:300,7,31.4999990386963,4|0|0|0|4|0|0|0,0:0|0:0|0:0|0:0|0:0|0:0|0:0|0:0,0:0:0:0:
108,348,64867,5,8,0:0:0:0:
88,216,65212,2,0,L|104:162,1,56,8|0,0:0|0:0,0:0:0:0:
172,108,65557,5,8,0:3:0:0:
184,193,65729,1,8,0:3:0:0:
256,121,65902,1,8,0:3:0:0:
268,209,66074,1,8,0:3:0:0:
340,134,66246,6,0,L|336:64,2,70,2|0|0,0:0|0:0|0:0,0:0:0:0:
440,136,66764,1,2,0:0:0:0:
384,215,66936,2,0,P|324:251|255:251,1,140,8|2,0:0|0:0,0:0:0:0:
156,256,67453,1,0,0:0:0:0:
216,336,67626,6,0,L|368:352,1,140,2|0,0:0|0:0,0:0:0:0:
452,344,68143,1,2,0:0:0:0:
500,260,68315,2,0,P|499:191|468:129,1,140,8|0,0:0|0:0,0:0:0:0:
412,48,68833,1,0,0:0:0:0:
380,139,69005,6,0,P|351:159|316:161,1,70,2|0,0:0|0:0,0:0:0:0:
232,108,69350,1,0,0:0:0:0:
183,191,69522,1,2,0:0:0:0:
183,191,69695,2,0,P|239:233|261:298,1,140,8|2,0:0|0:0,0:0:0:0:
80,220,70384,5,2,0:0:0:0:
80,220,70557,2,0,P|88:151|133:99,1,140,2|0,0:0|0:0,0:0:0:0:
232,108,71074,2,0,L|251:175,1,70,8|0,0:0|0:0,0:0:0:0:
296,272,71419,2,0,P|326:254|346:226,1,70,8|0,0:0|0:0,0:0:0:0:
332,108,71764,6,0,L|313:41,2,70,2|0|0,0:0|0:0|0:0,0:0:0:0:
428,92,72281,1,2,0:0:0:0:
468,180,72453,2,0,P|430:237|363:251,1,140,8|2,0:0|0:0,0:0:0:0:
284,196,72971,1,0,0:0:0:0:
204,252,73143,6,0,P|137:237|99:181,1,140,2|0,0:0|0:0,0:0:0:0:
84,84,73660,1,2,0:0:0:0:
180,64,73833,2,0,P|246:78|284:134,1,140,8|0,0:0|0:0,0:0:0:0:
280,232,74350,1,0,0:0:0:0:
368,188,74522,6,0,P|399:203|421:230,1,70,2|0,0:0|0:0,0:0:0:0:
440,328,74867,1,0,0:0:0:0:
348,296,75040,1,2,0:0:0:0:
348,296,75212,2,0,L|208:296,1,140,8|2,0:0|0:0,0:0:0:0:
208,100,75902,5,2,0:0:0:0:
207,100,76074,2,0,P|277:92|346:102,1,140,2|0,0:0|0:0,0:0:0:0:
428,160,76591,1,8,0:0:0:0:
336,196,76764,1,8,0:0:0:0:
412,256,76936,1,2,0:0:0:0:
320,292,77109,1,8,0:0:0:0:
400,348,77281,6,0,L|468:363,2,70,2|2|0,0:0|0:0|0:0,0:0:0:0:
320,292,77798,1,2,0:0:0:0:
411,256,77971,2,0,P|426:189|394:128,1,140,8|2,0:0|0:0,0:0:0:0:
320,64,78488,1,0,0:0:0:0:
292,156,78660,6,0,P|223:166|161:137,1,140,2|0,0:0|0:0,0:0:0:0:
92,68,79177,1,2,0:0:0:0:
24,139,79350,2,0,P|7:206|38:267,1,140,8|0,0:0|0:0,0:0:0:0:
116,328,79867,1,0,0:0:0:0:
176,248,80040,6,0,P|210:240|244:243,1,70,2|0,0:0|0:0,0:0:0:0:
332,288,80384,1,0,0:0:0:0:
392,208,80557,1,2,0:0:0:0:
392,208,80729,2,0,L|320:87,1,140,8|2,0:0|0:0,0:0:0:0:
132,32,81419,6,0,P|80:78|61:144,1,140,2|0,0:0|0:0,0:0:0:0:
48,244,81936,1,2,0:0:0:0:
139,207,82108,2,0,P|205:229|249:282,1,140,8|0,0:0|0:0,0:0:0:0:
296,372,82626,1,0,0:0:0:0:
356,291,82798,6,0,P|368:259|372:224,1,70,2|2,0:0|0:0,0:0:0:0:
368,128,83143,1,0,0:0:0:0:
304,56,83315,1,2,0:0:0:0:
228,120,83488,2,0,P|158:124|92:103,1,140,8|0,0:0|0:0,0:0:0:0:
72,300,84177,6,0,L|137:274,1,70,2|0,0:0|0:0,0:0:0:0:
228,240,84522,2,0,P|261:249|291:267,1,70,0|2,0:0|0:0,0:0:0:0:
372,324,84867,2,0,P|438:312|468:252,1,140,8|0,0:0|0:0,0:0:0:0:
456,156,85384,1,0,0:0:0:0:
371,208,85557,6,0,P|344:206|320:192,1,56,2|0,0:0|0:0,0:0:0:0:
268,132,85902,1,2,0:0:0:0:
196,164,86074,2,0,P|165:209|166:265,1,112,2|0,0:0|0:0,0:0:0:0:
204,336,86591,2,0,P|231:338|256:327,1,56,2|0,0:0|0:0,0:0:0:0:
336,328,86936,6,0,P|361:339|388:336,1,56,2|0,0:0|0:0,0:0:0:0:
432,271,87281,2,0,L|438:216,1,56,2|0,0:0|0:0,0:0:0:0:
452,132,87626,1,8,0:3:0:0:
412,56,87798,1,8,0:3:0:0:
332,28,87971,1,8,0:3:0:0:
248,36,88143,1,8,0:3:0:0:
187,96,88315,6,0,P|179:164|214:222,1,140,2|0,0:0|0:0,0:0:0:0:
308,256,88833,1,2,0:0:0:0:
252,336,89005,2,0,P|186:355|127:321,1,140,8|2,0:0|0:0,0:0:0:0:
72,240,89522,1,0,0:0:0:0:
140,168,89695,6,0,P|205:148|264:182,1,140,2|0,0:0|0:0,0:0:0:0:
308,272,90212,1,2,0:0:0:0:
404,252,90384,2,0,P|443:194|449:125,1,140,8|0,0:0|0:0,0:0:0:0:
412,36,90902,1,0,0:0:0:0:
340,104,91074,6,0,P|306:114|271:115,1,70,2|0,0:0|0:0,0:0:0:0:
184,72,91419,1,0,0:0:0:0:
120,148,91591,1,2,0:0:0:0:
120,148,91764,2,0,L|141:286,1,140,8|2,0:0|0:0,0:0:0:0:
320,364,92453,5,2,0:0:0:0:
320,364,92626,2,0,L|341:225,1,140,2|2,0:0|0:0,0:0:0:0:
424,172,93143,2,0,L|440:240,1,70,8|0,0:0|0:0,0:0:0:0:
508,148,93488,2,0,P|493:115|465:90,1,70,8|0,0:0|0:0,0:0:0:0:
340,140,93833,6,0,L|270:150,2,70,2|0|0,0:0|0:0|0:0,0:0:0:0:
424,172,94350,1,2,0:0:0:0:
496,236,94522,2,0,P|451:286|382:289,1,140,8|2,0:0|0:0,0:0:0:0:
308,224,95040,1,0,0:0:0:0:
240,295,95212,6,0,P|180:329|117:304,1,140,2|0,0:0|0:0,0:0:0:0:
52,232,95729,1,2,0:0:0:0:
148,208,95902,2,0,P|207:172|241:112,1,140,8|0,0:0|0:0,0:0:0:0:
268,16,96419,1,0,0:0:0:0:
331,87,96591,6,0,P|357:111|389:125,1,70,2|0,0:0|0:0,0:0:0:0:
484,108,96936,1,0,0:0:0:0:
452,200,97108,1,2,0:0:0:0:
452,199,97281,2,0,P|391:232|322:225,1,140,8|2,0:0|0:0,0:0:0:0:
248,164,97798,1,0,0:0:0:0:
204,252,97971,5,2,0:0:0:0:
204,252,98143,2,0,P|135:258|74:226,1,140,2|0,0:0|0:0,0:0:0:0:
36,136,98660,1,8,0:0:0:0:
132,148,98833,1,8,0:0:0:0:
92,60,99005,1,2,0:0:0:0:
188,72,99178,1,8,0:0:0:0:
228,160,99350,6,0,L|228:230,1,70,2|2,0:0|0:0,0:0:0:0:
272,320,99695,2,0,P|306:320|336:303,1,70,0|2,0:0|0:0,0:0:0:0:
384,216,100040,2,0,P|377:147|333:94,1,140,8|2,0:0|0:0,0:0:0:0:
256,36,100557,1,0,0:0:0:0:
178,94,100729,6,0,P|134:147|128:216,1,140,2|0,0:0|0:0,0:0:0:0:
152,312,101246,1,2,0:0:0:0:
219,239,101419,2,0,P|288:231|349:263,1,140,8|0,0:0|0:0,0:0:0:0:
408,344,101936,1,0,0:0:0:0:
472,268,102108,6,0,P|485:236|487:201,1,70,2|0,0:0|0:0,0:0:0:0:
464,104,102453,1,0,0:0:0:0:
372,144,102626,1,2,0:0:0:0:
372,143,102798,2,0,P|303:156|238:132,1,140,8|2,0:0|0:0,0:0:0:0:
64,228,103488,6,0,P|132:215|197:239,1,140,2|0,0:0|0:0,0:0:0:0:
256,316,104005,1,2,0:0:0:0:
314,239,104177,2,0,P|379:215|448:228,1,140,8|0,0:0|0:0,0:0:0:0:
508,304,104695,1,0,0:0:0:0:
432,364,104867,6,0,P|399:376|364:374,2,70,2|2|0,0:0|0:0|0:0,0:0:0:0:
388,276,105384,1,2,0:0:0:0:
292,296,105557,2,0,P|226:276|186:220,1,140,8|2,0:0|0:0,0:0:0:0:
164,124,106074,6,0,L|159:89,2,35,0|2|2,0:0|0:0|0:0,0:0:0:0:
260,148,106419,2,0,L|329:139,1,70,2|0,0:0|0:0,0:0:0:0:
427,131,106764,1,2,0:0:0:0:
427,131,106936,2,0,P|404:196|343:225,1,140,8|0,0:0|0:0,0:0:0:0:
248,208,107453,1,0,0:0:0:0:
168,268,107626,6,0,P|188:285|214:297,1,56,2|0,0:0|0:0,0:0:0:0:
292,304,107971,2,0,L|348:304,1,56,2|0,0:0|0:0,0:0:0:0:
420,276,108315,2,0,P|422:221|392:175,1,112,2|0,0:0|0:0,0:0:0:0:
248,116,109005,5,2,0:0:0:0:
236,272,109350,2,0,L|232:327,2,56,2|2|2,0:0|0:0|0:0,0:0:0:0:
296,196,109867,1,0,0:0:0:0:
295,196,110384,6,0,P|322:179|353:174,1,62.9999980773926,2|2,0:0|0:0,0:0:0:0:
440,192,110729,1,0,0:0:0:0:
380,260,110902,1,2,0:0:0:0:
468,275,111074,2,0,P|439:330|381:349,1,125.999996154785,8|2,0:0|0:0,0:0:0:0:
296,328,111591,1,0,0:0:0:0:
300,240,111764,6,0,L|288:114,1,125.999996154785,2|0,0:0|0:0,0:0:0:0:
216,64,112281,1,2,0:0:0:0:
216,64,112453,1,8,0:0:0:0:
84,184,112798,2,0,L|96:245,1,62.9999980773926
120,332,113143,6,0,P|182:331|236:300,1,125.999996154785,2|0,0:0|0:0,0:0:0:0:
288,228,113660,1,2,0:0:0:0:
276,140,113833,2,0,P|219:163|198:221,1,125.999996154785,8|2,0:0|0:0,0:0:0:0:
236,300,114350,1,0,0:0:0:0:
324,308,114522,6,0,L|386:311,1,62.9999980773926,2|0,0:0|0:0,0:0:0:0:
436,236,114867,2,0,L|373:232,1,62.9999980773926,0|2,0:0|0:0,0:0:0:0:
284,224,115212,2,0,P|240:179|235:118,1,125.999996154785,8|0,0:0|0:0,0:0:0:0:
392,32,115902,5,2,0:0:0:0:
392,32,116074,2,0,L|399:157,1,125.999996154785,2|0,0:0|0:0,0:0:0:0:
404,247,116591,2,0,P|362:294|302:309,1,125.999996154785,8|2,0:0|0:0,0:0:0:0:
216,288,117108,1,0,0:0:0:0:
216,288,117281,5,2,0:0:0:0:
180,116,117626,1,0,0:0:0:0:
108,168,117798,1,2,0:0:0:0:
108,168,117971,2,0,P|157:206|219:202,1,125.999996154785,8|0,0:0|0:0,0:0:0:0:
256,120,118488,1,0,0:0:0:0:
308,192,118660,5,0,0:0:0:0:
168,184,132453,6,0,L|156:238,1,56,2|0,0:0|0:0,0:0:0:0:
236,236,132798,2,0,L|253:289,1,56,0|2,0:0|0:0,0:0:0:0:
332,276,133143,2,0,L|293:170,1,112,0|2,0:0|0:0,0:0:0:0:
260,100,133660,1,0,0:0:0:0:
184,124,133833,6,0,P|156:127|128:128,2,56,2|0|0,0:0|0:0|0:0,0:0:0:0:
200,48,134350,1,0,0:0:0:0:
260,100,134522,2,0,P|285:88|310:75,2,56
184,124,135040,1,0,0:0:0:0:
140,188,135212,6,0,P|141:215|152:241,1,56,2|0,0:0|0:0,0:0:0:0:
193,308,135557,1,0,0:0:0:0:
252,260,135729,2,0,P|306:254|353:282,1,112,2|0,0:0|0:0,0:0:0:0:
432,296,136246,2,0,L|460:248,1,56,2|0,0:0|0:0,0:0:0:0:
468,168,136591,6,0,L|440:120,2,56,2|0|0,0:0|0:0|0:0,0:0:0:0:
312,200,137281,2,0,L|284:152,1,56,2|0,0:0|0:0,0:0:0:0:
204,152,137626,2,0,L|176:200,1,56
224,264,137971,6,0,P|245:281|272:288,1,56,2|0,0:0|0:0,0:0:0:0:
296,364,138315,2,0,P|322:354|341:334,1,56,0|2,0:0|0:0,0:0:0:0:
376,264,138660,2,0,L|411:157,1,112,0|2,0:0|0:0,0:0:0:0:
436,84,139177,1,0,0:0:0:0:
360,96,139350,6,0,P|332:99|304:98,1,56,2|0,0:0|0:0,0:0:0:0:
227,84,139695,2,0,P|193:126|194:181,1,112,0|2,0:0|0:0,0:0:0:0:
228,252,140212,1,0,0:0:0:0:
276,188,140384,2,0,P|303:183|331:185,1,56
404,220,140729,6,0,P|408:247|403:275,1,56,2|0,0:0|0:0,0:0:0:0:
360,340,141074,1,2,0:0:0:0:
360,340,141246,1,0,0:0:0:0:
299,287,141419,2,0,P|246:271|191:279,1,112,2|0,0:0|0:0,0:0:0:0:
96,156,142108,6,2,L|101:100,2,56,2|0|0,0:0|0:0|0:0,0:0:0:0:
92,236,142626,2,0,B|84:320|84:320|107:305,1,112,2|0,0:0|0:0,0:0:0:0:
168,252,143143,1,2,0:0:0:0:
168,252,143315,1,0,0:0:0:0:
228,304,143488,6,0,L|284:304,1,56,2|0,0:0|0:0,0:0:0:0:
276,224,143833,2,0,L|332:224,1,56,0|2,0:0|0:0,0:0:0:0:
412,219,144177,2,0,P|424:165|410:112,1,112,0|2,0:0|0:0,0:0:0:0:
356,56,144695,1,0,0:0:0:0:
296,108,144867,6,0,P|272:122|246:132,1,56,2|0,0:0|0:0,0:0:0:0:
224,208,145212,2,0,P|248:221|270:238,1,56
248,316,145557,2,0,P|223:302|201:285,1,56
148,228,145902,1,0,0:0:0:0:
148,228,146074,1,0,0:0:0:0:
168,152,146246,6,0,L|168:96,1,56,2|0,0:0|0:0,0:0:0:0:
112,40,146591,1,0,0:0:0:0:
55,96,146764,2,0,P|48:151|55:206,1,112,2|0,0:0|0:0,0:0:0:0:
88,280,147281,2,0,L|111:330,1,56,2|0,0:0|0:0,0:0:0:0:
192,336,147626,5,2,0:0:0:0:
192,336,147798,1,0,0:0:0:0:
196,255,147971,2,0,P|211:233|233:216,1,56
304,252,148315,1,2,0:0:0:0:
304,251,148488,2,0,P|309:196|277:151,1,112
216,112,149005,6,0,L|160:112,2,56,2|0|0,0:0|0:0|0:0,0:0:0:0:
203,192,149522,2,0,P|172:237|119:248,1,112,2|0,0:0|0:0,0:0:0:0:
44,220,150040,1,2,0:0:0:0:
44,220,150212,1,0,0:0:0:0:
80,152,150384,6,0,L|142:58,1,112,2|0,0:0|0:0,0:0:0:0:
300,76,151074,2,0,L|309:131,1,56
388,128,151419,2,0,L|397:72,1,56
476,76,151764,6,0,L|486:131,2,56
319,76,152453,2,0,L|308:131,2,56
432,184,153143,6,0,L|442:239,1,56
452,316,153488,2,0,P|435:338|411:351,1,56
332,340,153833,1,0,0:0:0:0:
332,340,154005,1,0,0:0:0:0:
288,276,154177,2,0,P|260:269|232:270,1,56
168,316,154522,6,0,P|112:290|91:232,1,125.999996154785,6|2,0:0|0:0,0:0:0:0:
104,144,155040,2,0,P|159:169|180:227,1,125.999996154785,4|0,0:0|0:0,0:0:0:0:
168,316,155557,2,0,L|231:316,1,62.9999980773926,6|0,0:0|0:0,0:0:0:0:
319,316,155902,6,0,P|340:292|345:262,1,62.9999980773926,6|0,0:0|0:0,0:0:0:0:
344,176,156246,1,2,0:0:0:0:
264,216,156419,1,0,0:0:0:0:
268,128,156591,2,0,P|244:107|214:102,1,62.9999980773926
127,103,156935,1,2,0:0:0:0:
167,183,157108,1,0,0:0:0:0:
80,176,157281,6,0,L|51:232,1,62.9999980773926,6|0,0:0|0:0,0:0:0:0:
52,320,157626,1,2,0:0:0:0:
127,276,157798,2,0,P|188:286|230:332,1,125.999996154785,4|0,0:0|0:0,0:0:0:0:
320,336,158315,2,0,L|383:336,1,62.9999980773926,6|0,0:0|0:0,0:0:0:0:
471,336,158660,6,0,P|476:304|470:274,1,62.9999980773926,6|0,0:0|0:0,0:0:0:0:
416,204,159005,1,2,0:0:0:0:
416,204,159177,1,0,0:0:0:0:
328,224,159350,2,0,P|303:205|285:179,1,62.9999980773926,6|0,0:0|0:0,0:0:0:0:
274,91,159695,1,2,0:0:0:0:
356,120,159867,1,2,0:0:0:0:
285,179,160040,6,0,L|222:184,1,62.9999980773926,6|0,0:0|0:0,0:0:0:0:
204,272,160384,2,0,L|266:266,1,62.9999980773926,2|4,0:0|0:0,0:0:0:0:
352,288,160729,2,0,P|318:339|258:353,1,125.999996154785,2|6,0:0|0:0,0:0:0:0:
172,344,161246,1,0,0:0:0:0:
116,276,161419,6,0,L|96:212,1,62.9999980773926,6|0,0:0|0:0,0:0:0:0:
164,156,161764,2,0,L|184:220,1,62.9999980773926,2|0,0:0|0:0,0:0:0:0:
260,256,162108,2,0,B|356:256|356:256|338:232,1,125.999996154785,2|2,0:0|0:0,0:0:0:0:
296,152,162626,1,0,0:0:0:0:
336,72,162798,6,0,P|366:77|393:93,1,62.9999980773926,6|0,0:0|0:0,0:0:0:0:
432,172,163143,2,0,L|432:235,1,62.9999980773926,6|0,0:0|0:0,0:0:0:0:
412,320,163488,2,0,P|350:333|289:321,1,125.999996154785,6|6,0:0|0:0,0:0:0:0:
136,240,164177,6,0,L|146:177,1,62.9999980773926,6|0,0:0|0:0,0:0:0:0:
160,92,164522,1,2,0:0:0:0:
228,148,164695,1,0,0:0:0:0:
228,148,165040,5,0,0:0:0:0:
312,116,165212,1,0,0:0:0:0:
356,192,165384,2,0,L|334:213,2,31.4999990386963,4|4|2,0:3|0:3|0:0,0:0:0:0:
436,152,165729,5,0,0:0:0:0:
436,240,165902,2,0,L|436:303,1,62.9999980773926,6|0,0:0|0:0,0:0:0:0:
364,352,166246,1,2,0:0:0:0:
348,264,166419,1,0,0:0:0:0:
280,320,166591,2,0,L|217:320,1,62.9999980773926,6|0,0:0|0:0,0:0:0:0:
128,336,166936,5,2,0:0:0:0:
128,336,167108,1,0,0:0:0:0:
80,260,167281,2,0,L|53:203,1,62.9999980773926,6|0,0:0|0:0,0:0:0:0:
100,128,167626,2,0,L|73:71,1,62.9999980773926,2|0,0:0|0:0,0:0:0:0:
156,44,167971,2,0,L|215:65,1,62.9999980773926,6|0,0:0|0:0,0:0:0:0:
232,152,168315,5,2,0:0:0:0:
304,100,168488,1,0,0:0:0:0:
312,188,168660,1,6,0:0:0:0:
383,135,168833,2,0,P|400:195|375:252,1,125.999996154785,4|0,0:0|0:0,0:0:0:0:
292,276,169350,2,0,L|231:294,1,62.9999980773926,6|0,0:0|0:0,0:0:0:0:
144,280,169695,6,0,P|143:311|154:340,2,62.9999980773926,2|0|6,0:0|0:0|0:0,0:0:0:0:
164,192,170212,1,0,0:0:0:0:
252,204,170384,2,0,L|313:188,1,62.9999980773926,2|0,0:0|0:0,0:0:0:0:
368,120,170729,2,0,L|306:104,1,62.9999980773926,6|0,0:0|0:0,0:0:0:0:
224,76,171074,6,0,L|193:66,7,31.4999990386963,6|0|0|0|0|0|0|0,0:0|0:0|0:0|0:0|0:0|0:0|0:0|0:0,0:0:0:0:
152,80,171764,2,0,L|121:70,7,31.4999990386963,6|0|0|0|0|0|0|0,0:0|0:0|0:0|0:0|0:0|0:0|0:0|0:0,0:0:0:0:
120,160,172453,6,0,L|150:169,3,31.4999990386963,6|0|0|0,0:0|0:0|0:0|0:0,0:0:0:0:
192,156,172798,2,0,L|222:165,3,31.4999990386963,2|0|0|0,0:0|0:0|0:0|0:0,0:0:0:0:
248,200,173143,2,0,L|278:209,3,31.4999990386963,6|0|0|0,0:0|0:0|0:0|0:0,0:0:0:0:
320,196,173488,2,0,L|350:205,3,31.4999990386963,2|0|0|0,0:0|0:0|0:0|0:0,0:0:0:0:
384,232,173833,6,0,L|392:294,1,62.9999980773926,6|2,0:0|0:0,0:0:0:0:
276,360,174177,2,0,L|285:297,1,62.9999980773926,6|2,0:0|0:0,0:0:0:0:
248,200,174522,1,6,0:0:0:0:
181,260,174695,1,2,0:0:0:0:
153,175,174867,1,6,0:0:0:0:
87,236,175040,1,2,0:0:0:0:
56,120,175212,5,8,0:0:0:0:
216,124,176246,2,0,L|277:109,1,62.9999980773926
268,195,176591,6,0,P|236:211|201:211,1,70,2|2,0:0|0:0,0:0:0:0:
104,200,176936,2,0,P|104:234|119:266,1,70,8|0,0:0|0:0,0:0:0:0:
184,340,177281,1,0,0:0:0:0:
272,296,177453,1,2,0:0:0:0:
272,296,177626,2,0,L|405:253,1,140,8|0,0:0|0:0,0:0:0:0:
488,200,178143,1,2,0:0:0:0:
401,153,178315,6,0,L|267:195,1,140,8|0,0:0|0:0,0:0:0:0:
176,228,178833,1,2,0:0:0:0:
100,168,179005,1,8,0:0:0:0:
192,132,179177,1,2,0:0:0:0:
176,227,179350,6,0,P|174:262|191:293,1,70,2|2,0:0|0:0,0:0:0:0:
256,368,179695,1,8,0:0:0:0:
316,292,179867,2,0,P|381:271|447:292,1,140,0|2,0:0|0:0,0:0:0:0:
500,212,180384,2,0,L|490:142,1,70,8|0,0:0|0:0,0:0:0:0:
476,44,180729,5,0,0:0:0:0:
380,28,180902,1,2,0:0:0:0:
380,28,181074,2,0,L|399:166,1,140,8|0,0:0|0:0,0:0:0:0:
412,264,181591,1,2,0:0:0:0:
320,228,181764,2,0,P|286:216|252:211,1,70,8|2,0:0|0:0,0:0:0:0:
256,308,182108,6,0,P|220:302|187:291,1,70,2|2,0:0|0:0,0:0:0:0:
160,196,182453,2,0,P|147:163|140:129,1,70,8|0,0:0|0:0,0:0:0:0:
168,36,182798,1,0,0:0:0:0:
264,52,182971,1,2,0:0:0:0:
264,52,183143,2,0,L|370:143,1,140,8|0,0:0|0:0,0:0:0:0:
444,208,183660,1,2,0:0:0:0:
368,272,183833,6,0,B|336:288|336:288|231:288,1,140,8|0,0:0|0:0,0:0:0:0:
132,284,184350,1,2,0:0:0:0:
88,196,184522,1,8,0:0:0:0:
188,204,184695,1,2,0:0:0:0:
132,283,184867,6,0,P|134:318|151:348,1,70,2|0,0:0|0:0,0:0:0:0:
231,288,185212,2,0,L|277:235,1,70,8|0,0:0|0:0,0:0:0:0:
288,136,185557,1,0,0:0:0:0:
204,188,185729,1,2,0:0:0:0:
204,188,185902,2,0,L|112:293,1,140,8|2,0:0|0:0,0:0:0:0:
44,364,186419,1,2,0:0:0:0:
16,272,186591,6,0,P|14:237|17:202,1,70,8|0,0:0|0:0,0:0:0:0:
80,128,186936,1,8,0:3:0:0:
115,217,187108,1,8,0:3:0:0:
205,181,187281,1,4,0:3:0:0:
169,91,187453,1,4,0:3:0:0:
264,108,187626,6,0,P|299:110|333:103,1,70,2|2,0:0|0:0,0:0:0:0:
432,104,187971,2,0,P|450:133|461:166,1,70,8|0,0:0|0:0,0:0:0:0:
448,264,188315,1,0,0:0:0:0:
352,284,188488,1,2,0:0:0:0:
352,284,188660,2,0,L|212:274,1,140,8|0,0:0|0:0,0:0:0:0:
116,260,189177,1,2,0:0:0:0:
176,184,189350,6,0,L|315:193,1,140,8|0,0:0|0:0,0:0:0:0:
412,204,189867,1,2,0:0:0:0:
448,296,190040,1,8,0:0:0:0:
352,284,190212,1,2,0:0:0:0:
315,193,190384,6,0,P|310:158|316:123,1,70,2|2,0:0|0:0,0:0:0:0:
352,32,190729,1,8,0:0:0:0:
256,47,190902,2,0,P|194:79|124:79,1,140,0|2,0:0|0:0,0:0:0:0:
48,144,191419,2,0,L|41:213,1,70,8|0,0:0|0:0,0:0:0:0:
40,312,191764,5,0,0:0:0:0:
136,304,191936,1,2,0:0:0:0:
136,304,192108,2,0,L|148:164,1,140,8|0,0:0|0:0,0:0:0:0:
160,68,192626,1,2,0:0:0:0:
239,119,192798,2,0,P|269:138|303:145,1,70,8|2,0:0|0:0,0:0:0:0:
328,48,193143,6,0,P|359:60|385:84,1,70,2|2,0:0|0:0,0:0:0:0:
420,176,193488,2,0,P|428:208|423:243,1,70,8|0,0:0|0:0,0:0:0:0:
376,328,193833,1,0,0:0:0:0:
280,328,194005,1,2,0:0:0:0:
280,328,194177,2,0,L|142:301,1,140,8|0,0:0|0:0,0:0:0:0:
48,268,194695,1,2,0:0:0:0:
88,180,194867,6,0,B|120:164|120:164|224:164,1,140,8|0,0:0|0:0,0:0:0:0:
320,176,195384,1,2,0:0:0:0:
384,248,195557,1,8,0:0:0:0:
288,264,195729,1,2,0:0:0:0:
320,175,195902,6,0,P|342:159|369:151,1,56,2|0,0:0|0:0,0:0:0:0:
448,144,196246,1,2,0:0:0:0:
472,220,196419,2,0,P|472:275|443:322,1,112,2|0,0:0|0:0,0:0:0:0:
368,344,196936,2,0,L|312:340,1,56,2|0,0:0|0:0,0:0:0:0:
217,342,197281,6,0,L|248:296,1,56,2|0,0:0|0:0,0:0:0:0:
320,264,197626,2,0,L|294:214,1,56,2|0,0:0|0:0,0:0:0:0:
236,144,197971,1,8,0:3:0:0:
152,128,198143,1,8,0:3:0:0:
72,156,198315,1,8,0:3:0:0:
36,232,198488,1,8,0:3:0:0:
47,316,198660,6,0,P|74:338|108:347,1,70,2|2,0:0|0:0,0:0:0:0:
204,336,199005,1,8,0:0:0:0:
240,244,199177,2,0,L|250:104,1,140,0|2,0:0|0:0,0:0:0:0:
327,43,199695,2,0,P|344:74|347:109,1,70,8|0,0:0|0:0,0:0:0:0:
340,208,200040,5,0,0:0:0:0:
427,167,200212,1,2,0:0:0:0:
427,167,200384,2,0,P|430:236|389:291,1,140,8|0,0:0|0:0,0:0:0:0:
300,328,200902,1,2,0:0:0:0:
232,256,201074,1,8,0:0:0:0:
328,232,201246,1,2,0:0:0:0:
300,327,201419,6,0,P|272:348|238:356,1,70,2|2,0:0|0:0,0:0:0:0:
144,328,201764,1,8,0:0:0:0:
151,232,201936,2,0,P|136:164|85:118,1,140
144,40,202453,2,0,L|214:40,1,70,8|0,0:0|0:0,0:0:0:0:
308,64,202798,5,0,0:0:0:0:
264,152,202971,1,2,0:0:0:0:
264,152,203143,2,0,P|278:219|329:265,1,140,8|0,0:0|0:0,0:0:0:0:
416,312,203660,1,2,0:0:0:0:
452,220,203833,2,0,P|452:185|437:153,1,70,8|2,0:0|0:0,0:0:0:0:
374,80,204177,6,0,P|341:67|307:71,1,70,2|2,0:0|0:0,0:0:0:0:
217,113,204522,2,0,P|196:141|191:175,1,70,8|0,0:0|0:0,0:0:0:0:
208,272,204867,1,0,0:0:0:0:
300,236,205040,1,2,0:0:0:0:
300,236,205212,2,0,L|306:96,1,140,8|0,0:0|0:0,0:0:0:0:
360,12,205729,1,2,0:0:0:0:
456,36,205902,6,0,B|440:68|440:68|440:173,1,140,8|0,0:0|0:0,0:0:0:0:
376,244,206419,1,2,0:0:0:0:
411,336,206591,1,8,0:0:0:0:
319,372,206764,1,2,0:0:0:0:
282,279,206936,6,0,L|262:210,1,70,2|0,0:0|0:0,0:0:0:0:
215,127,207281,2,0,P|187:146|171:178,1,70,8|0,0:0|0:0,0:0:0:0:
175,275,207626,1,0,0:0:0:0:
83,303,207798,1,2,0:0:0:0:
3,243,207971,2,0,L|5:173,1,70,8|0,0:0|0:0,0:0:0:0:
27,79,208315,5,2,0:0:0:0:
119,47,208488,2,0,L|153:54,2,35,2|2|8,0:0|0:0|0:0,0:0:0:0:
99,143,208833,1,2,0:0:0:0:
196,144,209005,5,8,0:3:0:0:
248,56,209177,1,8,0:3:0:0:
329,112,209350,1,4,0:3:0:0:
280,196,209522,1,4,0:3:0:0:
352,252,209695,6,0,P|328:278|295:286,1,70,2|2,0:0|0:0,0:0:0:0:
196,285,210040,2,0,P|162:276|139:251,1,70,8|0,0:0|0:0,0:0:0:0:
108,160,210384,1,0,0:0:0:0:
180,92,210557,1,2,0:0:0:0:
180,92,210729,2,0,L|247:214,1,140,8|0,0:0|0:0,0:0:0:0:
240,312,211246,1,2,0:0:0:0:
148,276,211419,6,0,L|81:154,1,140,8|0,0:0|0:0,0:0:0:0:
24,72,211936,1,2,0:0:0:0:
105,20,212108,1,8,0:0:0:0:
165,100,212281,1,2,0:0:0:0:
80,152,212453,6,0,P|63:183|61:218,1,70,2|2,0:0|0:0,0:0:0:0:
128,292,212798,1,8,0:0:0:0:
215,244,212971,2,0,P|282:224|351:232,1,140,0|2,0:0|0:0,0:0:0:0:
424,164,213488,2,0,L|427:94,1,70,8|0,0:0|0:0,0:0:0:0:
344,44,213833,6,0,L|204:58,2,140,0|8|0,0:0|0:0|0:0,0:0:0:0:
440,32,214695,1,2,0:0:0:0:
467,123,214867,2,0,P|466:158|457:192,1,70,8|2,0:0|0:0,0:0:0:0:
364,220,215212,6,0,P|366:185|375:151,1,70,2|2,0:0|0:0,0:0:0:0:
295,96,215557,2,0,P|263:111|230:121,1,70,8|0,0:0|0:0,0:0:0:0:
132,104,215902,1,0,0:0:0:0:
60,168,216074,1,2,0:0:0:0:
60,168,216246,2,0,L|153:272,1,140,8|0,0:0|0:0,0:0:0:0:
220,344,216764,5,2,0:0:0:0:
284,268,216936,2,0,L|423:261,1,140,8|0,0:0|0:0,0:0:0:0:
452,168,217453,1,2,0:0:0:0:
388,96,217626,2,0,P|360:74|326:67,1,70,8|0,0:0|0:0,0:0:0:0:
228,64,217971,6,0,L|221:133,1,70,8|0,0:0|0:0,0:0:0:0:
128,220,218315,2,0,L|197:226,1,70,8|0,0:0|0:0,0:0:0:0:
284,320,218660,2,0,L|290:250,1,70,8|0,0:0|0:0,0:0:0:0:
384,164,219005,2,0,L|314:157,1,70,8|0,0:0|0:0,0:0:0:0:
197,226,219350,6,0,P|221:290|283:319,1,140
282,318,220040,1,8,0:3:0:0:
284,224,220212,1,8,0:3:0:0:
380,224,220384,1,8,0:3:0:0:
380,320,220556,1,8,0:3:0:0:
282,318,220729,6,0,L|156:318,1,125.999996154785,2|0,0:0|0:0,0:0:0:0:
76,280,221246,1,2,0:0:0:0:
71,192,221419,2,0,P|111:144|169:121,1,125.999996154785,8|2,0:0|0:0,0:0:0:0:
296,244,222108,6,0,L|422:244,1,125.999996154785,2|0,0:0|0:0,0:0:0:0:
492,188,222625,1,2,0:0:0:0:
408,156,222798,2,0,P|353:125|328:69,1,125.999996154785,8|0,0:0|0:0,0:0:0:0:
164,136,223488,6,0,L|125:185,1,62.9999980773926,2|0,0:0|0:0,0:0:0:0:
208,220,223833,2,0,L|216:282,1,62.9999980773926,0|2,0:0|0:0,0:0:0:0:
296,244,224177,2,0,P|355:227|415:244,1,125.999996154785,8|2,0:0|0:0,0:0:0:0:
268,344,224867,6,0,P|208:360|148:343,1,125.999996154785,2|0,0:0|0:0,0:0:0:0:
96,272,225384,1,2,0:0:0:0:
168,220,225557,2,0,P|180:158|166:97,1,125.999996154785,8|0,0:0|0:0,0:0:0:0:
108,28,226074,1,0,0:0:0:0:
60,100,226246,6,0,L|56:162,1,62.9999980773926,2|2,0:0|0:0,0:0:0:0:
68,252,226591,1,0,0:0:0:0:
68,252,226764,1,2,0:0:0:0:
147,220,226936,2,0,P|210:213|269:232,1,125.999996154785,8|2,0:0|0:0,0:0:0:0:
408,344,227626,6,0,L|433:220,1,125.999996154785,2|0,0:0|0:0,0:0:0:0:
448,132,228143,1,2,0:0:0:0:
364,159,228315,2,0,P|303:177|242:168,1,125.999996154785,8|0,0:0|0:0,0:0:0:0:
95,68,229005,6,0,P|69:124|72:186,2,125.999996154785,0|2|0,0:0|0:0|0:0,0:0:0:0:
168,232,230040,1,2,0:0:0:0:
324,148,230384,6,0,P|364:188|360:256,2,125.999996154785,0|2|2,0:0|0:0|0:0,0:0:0:0:
236,100,231419,1,0,0:0:0:0:
140,136,231764,5,0,0:0:0:0:
