osu file format v14

[General]
AudioFilename: 111.mp3
AudioLeadIn: 0
PreviewTime: 33272
Countdown: 0
SampleSet: Soft
StackLeniency: 0.3
Mode: 0
LetterboxInBreaks: 0
WidescreenStoryboard: 0

[Editor]
Bookmarks: 193507
DistanceSpacing: 1
BeatDivisor: 4
GridSize: 4
TimelineZoom: 1.5

[Metadata]
Title:Open Window (feat. Anna Yvette)
TitleUnicode:Open Window (feat. Anna Yvette)
Artist:MitiS
ArtistUnicode:MitiS
Creator:X Light
Version:Normal
Source:
Tags:
BeatmapID:725711
BeatmapSetID:322052

[Difficulty]
HPDrainRate:4
CircleSize:3.5
OverallDifficulty:5
ApproachRate:5
SliderMultiplier:1.1
SliderTickRate:1

[Events]
//Background and Video events
0,0,"bg.jpg",0,0
//Break Periods
2,56766,76543
2,135825,155601
//Storyboard Layer 0 (Background)
//Storyboard Layer 1 (Fail)
//Storyboard Layer 2 (Pass)
//Storyboard Layer 3 (Foreground)
//Storyboard Sound Samples

[TimingPoints]
96,352.941176470588,4,2,1,60,1,0
11390,-100,4,2,1,60,0,0
19860,-100,4,2,1,60,0,0
22684,-100,4,2,1,70,0,0
33978,-100,4,2,1,80,0,0
77743,-100,4,2,1,40,0,0
79154,-100,4,2,1,60,0,0
84448,-100,4,2,1,60,0,0
87625,-100,4,2,1,70,0,0
90448,-100,4,2,1,80,0,0
101743,-100,4,2,1,80,0,0
111625,-100,4,2,1,80,0,0
113037,-100,4,2,1,80,0,1
123625,-100,4,2,1,80,0,0
124331,-100,4,2,1,80,0,1
126448,-100,4,2,1,80,0,0
127154,-100,4,2,1,80,0,1
129272,-100,4,2,1,80,0,0
129978,-100,4,2,1,80,0,1
132095,-100,4,2,1,80,0,0
132801,-100,4,2,1,80,0,1
135625,-100,4,2,1,80,0,0
158213,-100,4,2,1,70,0,0
163860,-100,4,2,1,70,0,0
166684,-100,4,2,1,70,0,0
169507,-100,4,2,1,80,0,1
185037,-100,4,2,1,40,0,0
186448,-100,4,2,1,60,0,1
192095,-100,4,2,1,60,0,0
193507,-100,4,2,1,60,0,1
204095,-100,4,2,1,60,0,0
204801,-100,4,2,1,60,0,1
206919,-100,4,2,1,60,0,0
207625,-100,4,2,1,60,0,1
209743,-100,4,2,1,60,0,0
210095,-100,4,2,1,60,0,1
212566,-100,4,2,1,60,0,0
213272,-100,4,2,1,60,0,1
216095,-100,4,2,1,60,0,0

[Colours]
Combo1 : 170,170,255
Combo2 : 23,139,255

[HitObjects]
128,96,11390,6,0,L|120:216,1,110
196,284,12095,1,0,0:0:0:0:
296,240,12448,2,0,P|380:224|472:312,1,220
248,332,13860,5,0,0:0:0:0:
248,332,14213,2,0,L|232:216,1,110
308,144,14919,1,0,0:0:0:0:
404,196,15272,2,0,P|404:88|316:36,1,220
232,240,16684,6,0,L|164:248,1,55
124,248,17037,2,0,P|92:180|136:104,1,165.000006294251
176,72,17743,1,0,0:0:0:0:
272,120,18095,2,0,B|344:112|344:112|416:136|416:136|492:124,1,220
180,248,19860,5,0,0:0:0:0:
256,192,20213,12,0,22684,0:0:0:0:
180,184,23390,5,0,0:0:0:0:
276,132,23743,2,0,L|432:128,1,110
444,224,24448,2,0,L|334:226,2,110
376,312,25507,6,0,P|300:300|220:340,1,165
180,368,26213,2,0,L|160:252,1,110
60,304,26919,2,0,P|52:240|68:196,1,110
136,112,27625,1,0,0:0:0:0:
244,136,27978,2,0,L|300:132,1,55
352,128,28331,6,0,P|324:184|360:280,1,165
392,316,29037,2,0,L|504:308,1,110
512,196,29743,2,0,L|402:203,1,110
316,272,30448,2,0,P|268:300|212:300,1,110
108,276,31154,1,0,0:0:0:0:
256,192,31331,12,0,32566,0:0:0:0:
184,176,33448,6,0,L|176:244,2,55
228,144,33978,6,0,P|280:140|328:168,1,110,4|0,0:0|0:0,0:0:0:0:
304,276,34684,2,0,P|320:324|388:348,1,110,8|0,0:0|0:0,0:0:0:0:
460,284,35390,6,0,L|468:168,1,110,4|0,0:0|0:0,0:0:0:0:
360,204,36095,2,0,L|352:92,1,110,8|0,0:0|0:0,0:0:0:0:
319,49,36625,1,0,0:0:0:0:
265,60,36801,6,0,P|221:92|157:88,1,110,4|0,0:0|0:0,0:0:0:0:
122,58,37331,1,0,0:0:0:0:
122,58,37507,2,0,P|67:45|0:74,1,110,8|0,0:0|0:0,0:0:0:0:
33,169,38213,6,0,L|26:223,1,55,4|0,0:0|0:0,0:0:0:0:
73,252,38566,2,0,P|104:297|86:370,1,110,0|8,0:0|0:0,0:0:0:0:
180,275,39272,2,0,L|188:215,1,55
215,173,39625,6,0,P|271:189|335:169,1,110,4|0,0:0|0:0,0:0:0:0:
369,153,40154,1,0,0:0:0:0:
413,119,40331,2,0,L|401:243,1,110,8|0,0:0|0:0,0:0:0:0:
348,328,41037,6,0,P|296:312|240:316,1,110,4|0,0:0|0:0,0:0:0:0:
148,376,41743,2,0,L|136:260,1,110,8|0,0:0|0:0,0:0:0:0:
64,184,42448,6,0,L|52:240,2,55,4|0|0,0:0|0:0|0:0,0:0:0:0:
128,92,43154,2,0,B|96:68|96:68|224:48,1,165,8|0,0:0|0:0,0:0:0:0:
264,80,43860,6,0,P|276:132|256:192,1,110,4|0,0:0|0:0,0:0:0:0:
176,256,44566,2,0,P|176:324|200:368,1,110,8|0,0:0|0:0,0:0:0:0:
247,374,45095,1,0,0:0:0:0:
290,339,45272,6,0,L|406:335,1,110,4|0,0:0|0:0,0:0:0:0:
467,247,45978,1,8,0:0:0:0:
424,144,46331,1,0,0:0:0:0:
468,44,46684,6,0,B|360:28,1,110,4|0,0:0|0:0,0:0:0:0:
320,132,47390,2,0,B|208:140,1,110,8|0,0:0|0:0,0:0:0:0:
100,132,48095,6,0,P|84:76|100:20,1,110,4|0,0:0|0:0,0:0:0:0:
196,76,48801,2,0,L|192:192,1,110,8|0,0:0|0:0,0:0:0:0:
88,220,49507,6,0,L|96:280,1,55,4|0,0:0|0:0,0:0:0:0:
84,328,49860,2,0,P|132:310|204:312,1,110,0|8,0:0|0:0,0:0:0:0:
292,348,50566,2,0,L|346:340,1,55
380,296,50919,6,0,P|396:240|384:188,1,110,4|0,0:0|0:0,0:0:0:0:
288,136,51625,2,0,P|272:192|284:244,1,110,8|0,0:0|0:0,0:0:0:0:
184,292,52331,6,0,L|56:288,1,110,4|0,0:0|0:0,0:0:0:0:
20,188,53037,2,0,L|148:164,1,110,8|0,0:0|0:0,0:0:0:0:
212,96,53743,6,0,L|224:40,2,55,4|0|0,0:0|0:0|0:0,0:0:0:0:
268,192,54448,2,0,B|284:232|284:232|264:300|264:300|220:332,1,165,8|0,0:0|0:0,0:0:0:0:
176,304,55154,6,0,P|128:288|68:296,1,110,4|0,0:0|0:0,0:0:0:0:
28,192,55860,1,8,0:0:0:0:
120,128,56213,2,0,L|180:124,1,55,0|4,0:0|0:0,0:0:0:0:
228,120,56566,5,0,0:0:0:0:
256,192,77743,12,0,79154,0:0:0:0:
404,188,80213,6,0,P|392:308|296:336,1,220,2|0,0:0|0:0,0:0:0:0:
208,300,81272,2,0,L|100:320,1,110
32,232,81978,6,0,L|144:212,1,110
236,156,82684,1,0,0:0:0:0:
316,232,83037,2,0,P|416:264|504:200,1,220,2|0,0:0|0:0,0:0:0:0:
404,152,84095,1,0,0:0:0:0:
412,44,84448,6,0,L|352:52,1,55
304,60,84801,2,0,P|324:112|308:168,1,110,4|0,0:0|0:0,0:0:0:0:
280,268,85507,2,0,L|408:256,1,110,4|0,0:0|0:0,0:0:0:0:
352,360,86213,6,0,L|242:370,1,110,4|0,0:0|0:0,0:0:0:0:
144,324,86919,2,0,P|120:276|125:206,1,110,4|0,0:0|0:0,0:0:0:0:
256,192,87625,12,0,89037,0:0:0:0:
128,104,90448,6,0,L|136:168,2,55,4|0|0,0:0|0:0|0:0,0:0:0:0:
44,176,91154,2,0,L|32:296,1,110,8|0,0:0|0:0,0:0:0:0:
120,352,91860,2,0,P|144:300|136:248,1,110,4|0,0:0|0:0,0:0:0:0:
240,212,92566,2,0,L|300:224,2,55,8|0|0,0:0|0:0|0:0,0:0:0:0:
316,132,93272,6,0,L|372:124,1,55,4|0,0:0|0:0,0:0:0:0:
424,132,93625,2,0,P|448:192|424:252,1,110,0|8,0:0|0:0,0:0:0:0:
348,296,94331,1,0,0:0:0:0:
244,260,94684,2,0,L|124:252,1,110,4|0,0:0|0:0,0:0:0:0:
36,304,95390,2,0,L|24:368,2,55,8|0|0,0:0|0:0|0:0,0:0:0:0:
56,196,96095,6,0,L|64:140,1,55,4|0,0:0|0:0,0:0:0:0:
76,88,96448,2,0,L|188:76,1,110,0|8,0:0|0:0,0:0:0:0:
276,12,97154,1,0,0:0:0:0:
320,112,97507,5,4,0:0:0:0:
400,36,97860,1,0,0:0:0:0:
472,116,98213,2,0,L|480:172,2,55,8|0|0,0:0|0:0|0:0,0:0:0:0:
380,176,98919,6,0,L|376:236,1,55,4|0,0:0|0:0,0:0:0:0:
392,284,99272,2,0,B|428:288|428:288|464:280|464:280|500:284,2,110,0|8|0,0:0|0:0|0:0,0:0:0:0:
284,260,100331,6,0,B|268:300|268:300|280:372,1,110,4|0,0:0|0:0,0:0:0:0:
172,340,101037,2,0,B|164:276|164:276|132:240|132:240|124:184,1,165,8|0,0:0|0:0,0:0:0:0:
112,136,101743,6,0,P|56:152|44:149,1,55,4|0,0:0|0:0,0:0:0:0:
8,136,102095,1,0,0:0:0:0:
60,40,102448,2,0,L|172:28,1,110,8|0,0:0|0:0,0:0:0:0:
248,104,103154,2,0,L|364:112,1,110,4|0,0:0|0:0,0:0:0:0:
400,12,103860,2,0,L|340:16,2,55,8|0|0,0:0|0:0|0:0,0:0:0:0:
488,80,104566,6,0,L|484:144,1,55,4|0,0:0|0:0,0:0:0:0:
480,188,104919,2,0,P|496:240|476:292,1,110,0|8,0:0|0:0,0:0:0:0:
372,328,105625,1,0,0:0:0:0:
284,264,105978,2,0,P|228:252|172:264,1,110,4|0,0:0|0:0,0:0:0:0:
124,360,106684,2,0,P|180:372|232:360,1,110
284,264,107390,6,0,L|292:192,2,55,4|0|0,0:0|0:0|0:0,0:0:0:0:
392,232,108095,2,0,P|392:176|356:132,1,110,8|0,0:0|0:0,0:0:0:0:
264,80,108801,2,0,L|152:88,1,110,4|0,0:0|0:0,0:0:0:0:
72,160,109507,2,0,L|64:216,2,55,8|0|0,0:0|0:0|0:0,0:0:0:0:
176,192,110213,6,0,L|184:252,1,55,4|0,0:0|0:0,0:0:0:0:
232,268,110566,2,0,L|220:377,2,110,0|8|0,0:0|0:0|0:0,0:0:0:0:
336,228,111625,5,4,0:0:0:0:
392,128,113037,6,0,L|320:140,1,55,4|0,0:0|0:0,0:0:0:0:
360,188,113390,2,0,P|380:240|364:304,1,110,0|8,0:0|0:0,0:0:0:0:
268,252,114095,1,0,0:0:0:0:
168,300,114448,2,0,L|56:308,1,110,4|0,0:0|0:0,0:0:0:0:
108,208,115154,2,0,L|172:204,1,55,8|0,0:0|0:0,0:0:0:0:
215,179,115507,2,0,P|227:127|199:75,1,110,0|4,0:0|0:0,0:0:0:0:
104,28,116213,5,0,0:0:0:0:
202,78,116566,2,0,L|318:70,1,110,8|0,0:0|0:0,0:0:0:0:
268,172,117272,2,0,P|216:196|156:184,1,110,4|0,0:0|0:0,0:0:0:0:
68,140,117978,2,0,L|56:84,2,55,8|0|0,0:0|0:0|0:0,0:0:0:0:
56,248,118684,6,0,L|65:321,1,55,4|0,0:0|0:0,0:0:0:0:
76,356,119037,1,0,0:0:0:0:
184,384,119390,2,0,L|192:272,1,110,8|0,0:0|0:0,0:0:0:0:
260,188,120095,2,0,P|312:168|372:176,1,110,4|0,0:0|0:0,0:0:0:0:
456,236,120801,2,0,L|464:300,2,55,8|0|0,0:0|0:0|0:0,0:0:0:0:
356,284,121507,6,0,L|352:340,1,55,4|0,0:0|0:0,0:0:0:0:
308,372,121860,2,0,P|244:360|196:376,1,110,0|8,0:0|0:0,0:0:0:0:
124,296,122566,1,0,0:0:0:0:
36,348,122919,2,0,P|20:296|44:236,1,110,4|0,0:0|0:0,0:0:0:0:
136,192,123625,6,0,B|192:188|192:188|236:160|236:160|296:156,1,165
344,160,124331,6,0,P|364:212|348:268,1,110,4|0,0:0|0:0,0:0:0:0:
240,260,125037,1,8,0:0:0:0:
284,360,125390,1,0,0:0:0:0:
176,340,125743,2,0,L|60:348,1,110,4|0,0:0|0:0,0:0:0:0:
8,252,126448,6,0,P|64:256|120:228,1,110,8|0,0:0|0:0,0:0:0:0:
188,156,127154,6,0,L|180:40,1,110,4|0,0:0|0:0,0:0:0:0:
292,68,127860,2,0,L|300:188,1,110,8|0,0:0|0:0,0:0:0:0:
328,284,128566,2,0,L|304:344,2,55,4|0|0,0:0|0:0|0:0,0:0:0:0:
404,200,129272,6,0,P|452:184|508:196,1,110,8|0,0:0|0:0,0:0:0:0:
464,92,129978,6,0,L|344:104,1,110,4|0,0:0|0:0,0:0:0:0:
248,72,130684,2,0,L|128:84,1,110,8|0,0:0|0:0,0:0:0:0:
48,144,131390,2,0,P|32:88|48:28,1,110,4|0,0:0|0:0,0:0:0:0:
139,83,132095,6,0,L|135:195,1,110,8|0,0:0|0:0,0:0:0:0:
236,236,132801,6,0,L|228:176,2,55,4|0|0,0:0|0:0|0:0,0:0:0:0:
164,320,133507,2,0,P|108:316|40:336,1,110,8|0,0:0|0:0,0:0:0:0:
256,192,134213,12,4,135625,0:0:0:0:
256,192,156801,12,0,158213,0:0:0:0:
268,68,159272,6,0,B|196:88|196:88|128:68|128:68|48:84,1,220,2|0,0:0|0:0,0:0:0:0:
28,188,160331,2,0,L|140:164,1,110
104,272,161037,6,0,L|220:284,1,110
312,332,161743,1,0,0:0:0:0:
412,292,162095,2,0,P|448:216|384:100,1,220,2|0,0:0|0:0,0:0:0:0:
292,156,163154,1,0,0:0:0:0:
192,112,163507,6,0,L|180:44,1,55
132,36,163860,2,0,P|76:36|28:64,1,110,4|0,0:0|0:0,0:0:0:0:
92,152,164566,2,0,P|108:208|84:268,1,110,6|0,0:0|0:0,0:0:0:0:
32,348,165272,2,0,L|142:338,1,110,4|0,0:0|0:0,0:0:0:0:
232,272,165978,2,0,L|342:262,1,110,4|0,0:0|0:0,0:0:0:0:
256,192,166684,12,0,168096,0:0:0:0:
48,88,169507,6,0,L|64:204,1,110,4|8,0:0|0:0,0:0:0:0:
168,164,170213,2,0,L|156:284,1,110,4|8,0:0|0:0,0:0:0:0:
248,336,170919,2,0,P|268:276|248:224,1,110,4|8,0:0|0:0,0:0:0:0:
168,164,171625,2,0,L|104:168,2,55,4|4|8,0:0|0:0|0:0,0:0:0:0:
256,96,172331,6,0,L|372:84,1,110,4|8,0:0|0:0,0:0:0:0:
460,144,173037,2,0,P|480:196|468:252,1,110,4|8,0:0|0:0,0:0:0:0:
386,319,173743,2,0,L|378:263,1,55
336,300,174095,2,0,L|328:233,1,55
290,283,174448,2,0,L|282:337,1,55
234,365,174801,1,0,0:0:0:0:
187,334,174978,1,0,0:0:0:0:
133,344,175154,6,0,L|5:340,1,110,4|8,0:0|0:0,0:0:0:0:
33,230,175860,2,0,L|145:218,1,110,4|8,0:0|0:0,0:0:0:0:
218,138,176566,5,4,0:0:0:0:
328,156,176919,1,8,0:0:0:0:
424,96,177272,2,0,L|432:40,2,55,0|4|8,0:0|0:0|0:0,0:0:0:0:
328,156,177978,6,0,L|336:220,1,55,4|0,0:0|0:0,0:0:0:0:
348,264,178331,2,0,P|404:272|468:248,2,110,8|4|8,0:0|0:0|0:0,0:0:0:0:
255,203,179390,1,0,0:0:0:0:
153,245,179743,2,0,L|95:253,1,55
60,213,180095,2,0,B|72:170|72:170|138:141,1,110,8|0,0:0|0:0,0:0:0:0:
185,128,180625,1,0,0:0:0:0:
238,114,180801,6,0,P|226:162|250:218,1,110,4|8,0:0|0:0,0:0:0:0:
356,252,181507,2,0,P|364:204|340:148,1,110,4|8,0:0|0:0,0:0:0:0:
248,216,182213,2,0,L|129:230,1,110,4|8,0:0|0:0,0:0:0:0:
60,308,182919,2,0,L|0:316,2,55,0|4|8,0:0|0:0|0:0,0:0:0:0:
168,332,183625,6,0,L|232:340,1,55,4|0,0:0|0:0,0:0:0:0:
272,316,183978,2,0,P|296:260|288:204,2,110,8|4|8,0:0|0:0|0:0,0:0:0:0:
368,368,185037,5,2,0:0:0:0:
468,324,185390,1,2,0:0:0:0:
388,248,185743,1,2,0:0:0:0:
488,204,186095,1,2,0:0:0:0:
416,120,186448,6,0,L|296:116,1,110,4|8,0:0|0:0,0:0:0:0:
216,56,187154,2,0,P|164:36|108:44,1,110,4|8,0:0|0:0,0:0:0:0:
44,140,187860,2,0,P|96:160|152:152,1,110,4|8,0:0|0:0,0:0:0:0:
244,208,188566,2,0,L|252:264,2,55,0|4|8,0:0|0:0|0:0,0:0:0:0:
348,244,189272,6,0,L|340:304,1,55,4|0,0:0|0:0,0:0:0:0:
312,348,189625,2,0,P|264:372|208:360,2,110,8|4|8,0:0|0:0|0:0,0:0:0:0:
348,244,190684,2,0,L|352:121,1,110,4|8,0:0|0:0,0:0:0:0:
333,26,191390,5,0,0:0:0:0:
421,91,191743,1,0,0:0:0:0:
500,15,192095,1,0,0:0:0:0:
248,148,193508,6,0,L|188:156,1,55,4|0,0:0|0:0,0:0:0:0:
148,188,193861,2,0,P|128:240|144:304,1,110,0|8,0:0|0:0,0:0:0:0:
240,252,194566,1,0,0:0:0:0:
340,300,194919,2,0,L|452:308,1,110,4|0,0:0|0:0,0:0:0:0:
488,204,195625,2,0,L|424:200,1,55,8|0,0:0|0:0,0:0:0:0:
380,196,195978,1,0,0:0:0:0:
320,104,196331,6,0,L|312:48,1,55,4|0,0:0|0:0,0:0:0:0:
260,32,196684,2,0,P|204:24|144:36,1,110,0|8,0:0|0:0,0:0:0:0:
112,136,197390,1,0,0:0:0:0:
208,192,197743,2,0,P|262:201|320:184,1,110,4|0,0:0|0:0,0:0:0:0:
412,132,198449,2,0,L|424:76,2,55,8|0|0,0:0|0:0|0:0,0:0:0:0:
452,232,199154,6,0,L|432:344,1,110,4|0,0:0|0:0,0:0:0:0:
328,376,199861,2,0,L|320:264,1,110,8|0,0:0|0:0,0:0:0:0:
244,184,200566,2,0,P|192:168|132:180,1,110,4|0,0:0|0:0,0:0:0:0:
48,240,201272,2,0,L|40:304,2,55,8|0|0,0:0|0:0|0:0,0:0:0:0:
152,276,201978,6,0,L|156:332,1,55,4|0,0:0|0:0,0:0:0:0:
196,368,202331,2,0,P|252:376|304:356,1,110,0|8,0:0|0:0,0:0:0:0:
384,284,203037,1,0,0:0:0:0:
480,340,203390,2,0,P|496:288|480:232,1,110,4|0,0:0|0:0,0:0:0:0:
372,212,204096,6,0,B|352:184|352:184|348:148|348:148|380:116|380:116|376:68,1,165,8|0,0:0|0:0,0:0:0:0:
368,12,204801,6,0,P|416:36|476:28,1,110,4|0,0:0|0:0,0:0:0:0:
456,140,205507,2,0,L|468:252,1,110,8|0,0:0|0:0,0:0:0:0:
388,328,206213,2,0,P|340:352|272:344,1,110
188,300,206919,2,0,P|136:280|72:296,1,110
104,184,207625,6,0,L|216:176,1,110,4|0,0:0|0:0,0:0:0:0:
312,224,208331,2,0,P|324:168|300:112,1,110
200,80,209037,2,0,L|136:68,2,55,4|0|0,0:0|0:0|0:0,0:0:0:0:
304,40,209743,6,0,L|420:32,1,110,8|0,0:0|0:0,0:0:0:0:
451,72,210272,1,0,0:0:0:0:
488,112,210448,6,0,P|496:172|468:220,1,110
368,252,211155,2,0,L|248:240,1,110,8|0,0:0|0:0,0:0:0:0:
164,184,211861,2,0,P|148:240|160:292,1,110,4|0,0:0|0:0,0:0:0:0:
258,241,212566,6,0,L|254:129,1,110,8|0,0:0|0:0,0:0:0:0:
356,172,213272,6,0,L|348:232,2,55,4|0|0,0:0|0:0|0:0,0:0:0:0:
380,64,213978,2,0,L|500:56,1,110,8|0,0:0|0:0,0:0:0:0:
256,192,214684,12,4,216096,0:0:0:0:
