osu file format v14

[General]
AudioFilename: audio.mp3
AudioLeadIn: 0
PreviewTime: -1
Countdown: 0
SampleSet: Soft
StackLeniency: 0.7
Mode: 0
LetterboxInBreaks: 0
WidescreenStoryboard: 0

[Editor]
DistanceSpacing: 0.5
BeatDivisor: 4
GridSize: 4
TimelineZoom: 1.2

[Metadata]
Title:Moments (feat. Adara)
TitleUnicode:Moments (feat. Adara)
Artist:MitiS
ArtistUnicode:MitiS
Creator:Ambrew
Version:Remembrance
Source:
Tags:melodic dubstep living color
BeatmapID:1741441
BeatmapSetID:831209

[Difficulty]
HPDrainRate:4
CircleSize:4
OverallDifficulty:4
ApproachRate:8.8
SliderMultiplier:1.7
SliderTickRate:1

[Events]
//Background and Video events
0,0,"landscape__31_by_sylar113-d7m8a3n.jpg",0,0
//Break Periods
2,166481,178461
//Storyboard Layer 0 (Background)
//Storyboard Layer 1 (Fail)
//Storyboard Layer 2 (Pass)
//Storyboard Layer 3 (Foreground)
//Storyboard Sound Samples

[TimingPoints]
-18.7017002732183,400,4,1,0,35,1,0
12781,-133.333333333333,4,2,1,75,0,0
36781,-181.818181818181,4,2,1,45,0,0
38381,-100,4,2,2,75,0,0
63981,-181.818181818181,4,2,0,45,0,0
89581,-133.333333333333,4,2,1,75,0,0
102381,-105.263157894737,4,2,0,45,0,0
113581,-153.846153846153,4,2,0,45,0,0
115181,-100,4,2,2,75,0,1
139181,-153.846153846153,4,2,0,45,0,0
140781,-100,4,2,2,75,0,1
166381,-100,4,2,2,75,0,0
179181,-181.818181818181,4,2,0,45,0,0
191981,-181.818181818181,4,2,1,75,0,0
204781,-133.333333333333,4,2,0,45,0,0
217581,-100,4,2,2,75,0,1
241581,-153.846153846153,4,2,2,75,0,0
243181,-100,4,2,2,75,0,1
268781,-100,4,2,2,75,0,0

[HitObjects]
202,129,12781,6,0,P|219:163|231:209,1,63.7500024318696,4|0,0:0|0:0,0:0:0:0:
257,271,13181,1,0,0:0:0:0:
352,203,13381,1,0,0:0:0:0:
352,203,13581,2,0,P|303:203|224:186,1,127.500004863739,8|0,0:0|0:0,0:0:0:0:
226,188,14381,6,0,P|210:142|194:56,1,127.500004863739
83,103,14981,2,0,P|97:151|106:242,1,127.500004863739
105,307,15581,1,0,0:0:0:0:
30,236,15781,1,0,0:0:0:0:
170,255,15981,6,0,B|239:265|239:265|312:262,1,127.500004863739,0|0,1:0|0:0,0:0:0:0:
471,190,16781,2,0,B|413:192|413:192|344:182,1,127.500004863739
224,52,17581,2,0,B|215:110|215:110|228:195,1,127.500004863739,2|0,0:0|0:0,0:0:0:0:
467,132,18381,2,0,B|476:74|476:74|463:-11,1,127.500004863739,2|0,0:0|0:0,0:0:0:0:
317,32,19181,5,0,1:0:0:0:
179,96,19581,2,0,L|107:88,1,63.7500024318696
22,151,19981,2,0,P|69:159|138:197,1,127.500004863739,8|0,0:0|0:0,0:0:0:0:
150,210,20581,2,0,P|161:247|172:340,1,127.500004863739
59,315,21181,1,0,0:0:0:0:
49,313,21381,2,0,P|48:259|61:180,1,127.500004863739
117,125,21981,2,0,P|109:82|97:57,2,63.7500024318696
198,192,22781,5,0,0:0:0:0:
276,112,23181,2,0,P|342:100|422:94,1,127.500004863739,2|0,0:0|0:0,0:0:0:0:
453,317,23981,2,0,B|453:259|453:259|439:184,1,127.500004863739
268,114,24781,2,0,L|281:200,1,63.7500024318696,2|0,0:0|0:0,0:0:0:0:
301,286,25181,1,2,0:0:0:0:
225,258,25381,1,0,0:0:0:0:
177,320,25581,6,0,B|123:312|123:312|41:320,1,127.500004863739,0|0,1:0|0:0,0:0:0:0:
50,319,26181,1,0,0:0:0:0:
18,227,26381,1,0,0:0:0:0:
18,227,26581,2,0,L|96:218,1,63.7500024318696
174,243,26981,2,0,P|170:171|156:110,1,127.500004863739,8|0,0:0|0:0,0:0:0:0:
112,55,27581,1,0,0:0:0:0:
26,128,27781,2,0,P|79:128|156:152,1,127.500004863739
311,162,28381,2,0,P|257:157|240:150,1,63.7500024318696,8|0,0:0|0:0,0:0:0:0:
197,79,28781,5,0,1:0:0:0:
193,259,29181,1,0,0:0:0:0:
339,112,29581,2,0,L|329:33,1,63.7500024318696
438,112,29981,2,0,L|426:259,1,127.500004863739
429,238,30781,1,0,0:0:0:0:
355,212,30981,1,0,0:0:0:0:
371,309,31181,2,0,P|411:325|505:305,1,127.500004863739,2|0,0:0|0:0,0:0:0:0:
336,195,31981,6,0,P|288:187|184:205,1,127.500004863739,0|0,1:0|0:0,0:0:0:0:
93,263,32781,1,8,0:0:0:0:
93,263,33181,2,0,L|85:194,1,63.7500024318696
75,121,33581,1,0,0:0:0:0:
161,189,33781,2,0,L|161:109,1,63.7500024318696
106,41,34181,2,0,B|151:57|151:57|252:44,1,127.500004863739
314,39,34781,1,0,0:0:0:0:
250,124,34981,1,0,0:0:0:0:
354,114,35181,6,0,P|385:138|435:219,1,127.500004863739,2|0,0:0|0:0,0:0:0:0:
252,305,35981,2,0,P|245:265|250:168,1,127.500004863739
468,276,36781,2,0,P|433:291|365:296,1,93.5000028533937,2|0,0:0|0:0,0:0:0:0:
170,194,37581,1,0,0:0:0:0:
170,150,37781,1,0,0:0:0:0:
173,113,37981,1,0,0:0:0:0:
173,113,38381,6,0,P|222:116|270:131,1,85,4|0,0:0|0:0,0:0:0:0:
140,249,38781,2,0,P|94:260|42:264,1,85
57,180,39181,2,0,L|66:35,1,127.5,8|0,0:0|0:0,0:0:0:0:
66,17,39581,1,0,0:0:0:0:
206,150,39781,1,0,0:0:0:0:
165,26,39981,5,0,0:0:0:0:
57,180,40181,1,0,0:0:0:0:
247,81,40381,2,0,P|295:83|334:89,1,85,4|0,0:0|0:0,0:0:0:0:
454,144,40781,1,8,0:0:0:0:
300,238,40981,1,0,0:0:0:0:
468,280,41181,2,0,P|425:298|382:307,1,85,4|0,0:0|0:0,0:0:0:0:
237,340,41581,6,0,P|232:288|223:246,1,85,4|0,0:0|0:0,0:0:0:0:
192,132,41981,1,0,0:0:0:0:
131,262,42181,1,0,0:0:0:0:
264,163,42381,2,0,P|308:146|354:134,1,85,8|0,0:0|0:0,0:0:0:0:
133,186,42781,2,0,P|82:181|43:184,1,85
69,89,43181,5,0,0:0:0:0:
133,186,43381,1,0,0:0:0:0:
142,52,43581,2,0,P|109:20|62:10,1,85,4|0,0:0|0:0,0:0:0:0:
201,105,43981,2,0,L|299:114,1,85,8|0,0:0|0:0,0:0:0:0:
387,61,44381,1,0,0:0:0:0:
359,194,44581,1,8,0:0:0:0:
362,210,44681,1,8,0:0:0:0:
364,223,44781,6,0,B|272:202|305:271|194:246,1,170,4|0,0:0|0:0,0:0:0:0:
233,169,45381,1,0,0:0:0:0:
138,321,45581,2,0,P|132:246|119:175,1,127.5,8|0,0:0|0:0,0:0:0:0:
111,156,45981,1,0,0:0:0:0:
37,273,46181,1,0,0:0:0:0:
30,151,46381,6,0,P|42:84|53:63,1,85
210,167,46781,2,0,P|224:221|226:255,1,85,4|0,0:0|0:0,0:0:0:0:
105,294,47181,1,8,0:0:0:0:
244,336,47381,1,0,0:0:0:0:
164,240,47581,1,0,0:0:0:0:
304,255,47781,1,0,0:0:0:0:
212,173,47981,6,0,L|204:82,1,85,4|0,0:0|0:0,0:0:0:0:
293,46,48381,1,0,0:0:0:0:
395,178,48581,1,4,0:0:0:0:
487,95,48781,2,0,P|426:82|320:127,1,170,8|0,0:0|0:0,0:0:0:0:
275,188,49381,1,0,0:0:0:0:
290,267,49581,6,0,L|391:276,1,85
181,356,49981,2,0,L|170:245,1,85,4|0,0:0|0:0,0:0:0:0:
93,140,50381,2,0,B|57:106|57:106|203:127,1,170,8|0,0:0|0:0,0:0:0:0:
301,138,50981,1,8,0:0:0:0:
312,142,51081,1,8,0:0:0:0:
323,147,51181,6,0,P|327:193|326:245,1,85,4|0,0:0|0:0,0:0:0:0:
188,344,51581,2,0,P|184:282|187:242,1,85
216,119,51981,2,0,P|162:130|80:126,1,127.5,8|0,0:0|0:0,0:0:0:0:
53,114,52381,1,0,0:0:0:0:
107,231,52581,1,0,0:0:0:0:
150,84,52781,6,0,L|142:-8,1,85
293,133,53181,2,0,L|286:231,1,85,4|0,0:0|0:0,0:0:0:0:
239,47,53581,1,8,0:0:0:0:
372,61,53781,1,0,0:0:0:0:
293,133,53981,1,0,0:0:0:0:
313,2,54181,1,0,0:0:0:0:
376,154,54381,6,0,P|387:199|375:252,1,85,4|0,0:0|0:0,0:0:0:0:
329,304,54781,1,0,0:0:0:0:
197,250,54981,1,4,0:0:0:0:
282,148,55181,2,0,P|272:89|248:57,1,85,8|0,0:0|0:0,0:0:0:0:
68,152,55581,2,0,P|75:200|98:238,1,85
240,31,55981,5,0,0:0:0:0:
96,78,56181,1,0,0:0:0:0:
248,193,56381,2,0,L|244:96,1,85,4|0,0:0|0:0,0:0:0:0:
134,166,56781,2,0,L|131:336,1,170,8|0,0:0|0:0,0:0:0:0:
53,296,57381,1,0,0:0:0:0:
211,296,57581,6,0,P|266:300|306:310,2,85,4|0|0,0:0|0:0|0:0,0:0:0:0:
152,226,58181,1,0,0:0:0:0:
225,168,58381,2,0,P|295:188|400:183,1,170,8|0,0:0|0:0,0:0:0:0:
464,142,58981,1,0,0:0:0:0:
460,125,59181,6,0,L|449:20,1,85
313,191,59581,2,0,L|309:291,1,85,4|0,0:0|0:0,0:0:0:0:
320,61,59981,1,8,0:0:0:0:
405,180,60181,1,0,0:0:0:0:
242,95,60381,2,0,P|184:81|140:78,1,85
78,97,60781,6,0,B|70:151|70:151|96:219|96:219|86:292,1,170,4|0,0:0|0:0,0:0:0:0:
81,343,61381,1,4,0:0:0:0:
172,274,61581,2,0,P|229:263|261:264,1,85,8|0,0:0|0:0,0:0:0:0:
459,194,61981,2,0,P|406:200|354:198,1,85
230,178,62381,5,0,0:0:0:0:
323,305,62581,1,0,0:0:0:0:
360,152,62781,2,0,P|361:109|349:50,1,85,4|0,0:0|0:0,0:0:0:0:
219,29,63181,1,8,0:0:0:0:
219,29,63581,1,0,0:0:0:0:
70,80,63781,1,8,0:0:0:0:
233,144,63981,6,0,P|265:148|297:144,2,46.7500014266968,2|0|0,0:0|0:0|0:0,0:0:0:0:
352,91,64781,2,0,P|382:98|440:137,1,93.5000028533936,2|0,0:0|0:0,0:0:0:0:
399,322,65581,2,0,P|390:282|394:222,1,93.5000028533936
270,180,66381,2,0,P|284:218|292:277,1,93.5000028533936
197,342,67181,6,0,P|201:309|210:285,2,46.7500014266968,2|0|0,0:0|0:0|0:0,0:0:0:0:
182,216,67981,2,0,P|133:226|84:224,1,93.5000028533936
171,131,68781,2,0,P|206:137|263:161,1,93.5000028533936,2|0,0:0|0:0,0:0:0:0:
65,109,69581,2,0,P|94:85|147:61,1,93.5000028533936
225,40,70181,1,0,0:0:0:0:
238,49,70381,6,0,P|274:58|289:58,2,46.7500014266968,2|0|0,0:0|0:0|0:0,0:0:0:0:
359,35,71181,2,0,P|402:33|464:46,1,93.5000028533936
474,120,71981,2,0,L|468:231,1,93.5000028533936
378,252,72781,2,0,L|388:137,1,93.5000028533936
308,132,73381,1,0,0:0:0:0:
308,132,73581,6,0,P|269:121|248:120,2,46.7500014266968,2|0|0,0:0|0:0|0:0,0:0:0:0:
286,203,74381,2,0,P|253:216|191:216,1,93.5000028533936
72,291,75181,2,0,P|107:291|163:304,1,93.5000028533936,2|0,0:0|0:0,0:0:0:0:
253,343,75981,1,0,0:0:0:0:
330,313,76381,1,0,0:0:0:0:
261,262,76781,6,0,L|263:210,2,46.7500014266968,4|0|0,0:0|0:0|0:0,0:0:0:0:
349,233,77581,2,0,L|339:127,1,93.5000028533936
208,150,78381,2,0,P|190:176|138:221,1,93.5000028533936,2|0,0:0|0:0,0:0:0:0:
34,275,79181,2,0,P|73:280|124:301,1,93.5000028533936
242,341,79981,6,0,P|270:335|286:328,2,46.7500014266968,2|0|0,0:0|0:0|0:0,0:0:0:0:
355,305,80781,2,0,P|342:264|310:220,1,93.5000028533936
206,125,81581,2,0,P|244:138|305:138,1,93.5000028533936,2|0,0:0|0:0,0:0:0:0:
414,34,82381,2,0,P|390:56|318:71,1,93.5000028533936,2|0,0:0|0:0,0:0:0:0:
256,42,82981,1,0,0:0:0:0:
240,36,83181,6,0,P|208:33|187:36,2,46.7500014266968,2|0|0,0:0|0:0|0:0,0:0:0:0:
157,98,83981,2,0,P|117:104|53:94,1,93.5000028533936
59,191,84781,2,0,L|65:81,1,93.5000028533936,2|0,0:0|0:0,0:0:0:0:
207,223,85581,2,0,L|194:115,1,93.5000028533936
281,150,86181,1,0,0:0:0:0:
281,150,86381,6,0,L|289:204,2,46.7500014266968,2|0|0,0:0|0:0|0:0,0:0:0:0:
368,173,87181,2,0,L|353:276,1,93.5000028533936
256,192,87981,12,0,89381,0:0:0:0:
293,260,89581,6,0,P|251:245|154:240,1,127.500004863739,2|0,0:0|0:0,0:0:0:0:
90,253,90181,1,8,0:0:0:0:
90,253,90381,2,0,L|94:171,1,63.7500024318696
163,71,90781,2,0,L|170:142,1,63.7500024318696,8|0,0:0|0:0,0:0:0:0:
258,169,91181,6,0,P|301:146|385:135,1,127.500004863739
457,162,91781,1,8,0:0:0:0:
457,162,91981,2,0,L|455:252,1,63.7500024318696
382,282,92381,1,8,0:0:0:0:
282,265,92581,1,0,0:0:0:0:
282,265,92781,6,0,P|230:270|189:272,1,63.7500024318696
105,326,93181,2,0,L|108:248,1,63.7500024318696,0|8,0:0|0:0,0:0:0:0:
196,176,93581,2,0,B|154:151|154:151|48:162,1,127.500004863739,0|8,0:0|0:0,0:0:0:0:
25,224,94181,1,0,0:0:0:0:
77,163,94381,6,0,L|80:86,1,63.7500024318696
29,34,94781,1,0,0:0:0:0:
106,17,94981,2,0,B|140:12|166:28|166:28|191:7|234:12,1,127.500004863739,8|0,0:0|0:0,0:0:0:0:
308,35,95581,1,8,0:0:0:0:
215,86,95781,1,0,0:0:0:0:
279,165,95981,6,0,P|329:168|414:151,1,127.500004863739
467,79,96581,1,8,0:0:0:0:
492,166,96781,2,0,L|496:241,1,63.7500024318696
391,290,97181,2,0,L|394:214,1,63.7500024318696,8|0,0:0|0:0,0:0:0:0:
279,238,97581,6,0,P|247:209|148:188,1,127.500004863739
76,216,98181,1,8,0:0:0:0:
99,300,98381,2,0,L|181:306,1,63.7500024318696
308,208,98781,2,0,L|221:213,1,63.7500024318696,8|0,0:0|0:0,0:0:0:0:
160,162,99181,5,0,0:0:0:0:
239,285,99381,1,0,0:0:0:0:
248,132,99581,2,0,L|251:54,1,63.7500024318696,0|8,0:0|0:0,0:0:0:0:
62,39,99981,2,0,L|71:174,1,127.500004863739,0|8,0:0|0:0,0:0:0:0:
80,262,100581,1,0,0:0:0:0:
80,262,100781,6,0,P|125:277|214:261,1,127.500004863739
295,217,101381,1,8,0:0:0:0:
295,217,101581,2,0,L|302:304,1,63.7500024318696
416,171,101981,2,0,L|412:242,1,63.7500024318696,8|0,0:0|0:0,0:0:0:0:
325,137,102381,6,0,P|281:117|239:112,1,80.7499978437424
356,30,102781,2,0,P|421:30|450:24,1,80.7499978437424
419,122,103181,2,0,P|419:191|412:254,1,121.124996765614
409,271,103581,1,0,0:0:0:0:
320,339,103781,1,0,0:0:0:0:
255,257,103981,6,0,P|208:243|165:239,1,80.7499978437424
8,156,104381,2,0,P|55:167|93:167,1,80.7499978437424
205,145,104781,1,0,0:0:0:0:
80,277,104981,1,0,0:0:0:0:
117,40,105181,2,0,L|106:128,1,80.7499978437424
179,327,105581,6,0,L|166:241,1,80.7499978437424
28,107,105981,2,0,P|81:120|116:119,1,80.7499978437424
277,159,106381,2,0,P|222:157|184:168,1,80.7499978437424
79,221,106781,1,0,0:0:0:0:
253,271,106981,1,0,0:0:0:0:
179,109,107181,6,0,P|173:153|172:197,1,80.7499978437424
334,320,107581,2,0,P|337:264|329:225,1,80.7499978437424
288,93,107981,1,0,0:0:0:0:
394,196,108181,1,0,0:0:0:0:
215,142,108381,2,0,P|202:98|206:48,1,80.7499978437424
382,40,108781,5,0,0:0:0:0:
298,171,108981,1,0,0:0:0:0:
278,83,109181,1,0,0:0:0:0:
415,135,109381,1,0,0:0:0:0:
318,255,109581,5,0,0:0:0:0:
347,103,109781,1,0,0:0:0:0:
452,207,109981,1,0,0:0:0:0:
272,172,110181,1,0,0:0:0:0:
394,296,110381,6,0,P|358:326|316:338,1,80.7499978437424
187,232,110781,2,0,L|191:145,1,80.7499978437424
277,13,111181,6,0,P|314:45|327:82,1,80.7499978437424
190,151,111581,2,0,B|135:156|135:156|101:146,1,80.7499978437424
13,43,111981,5,0,0:0:0:0:
42,29,112081,1,0,0:0:0:0:
74,28,112181,1,0,0:0:0:0:
101,37,112281,1,0,0:0:0:0:
121,50,112381,1,0,0:0:0:0:
141,70,112481,1,0,0:0:0:0:
165,82,112581,1,0,0:0:0:0:
197,85,112681,1,0,0:0:0:0:
233,78,112781,5,0,0:0:0:0:
265,61,112881,1,0,0:0:0:0:
285,43,112981,1,0,0:0:0:0:
313,31,113081,1,0,0:0:0:0:
350,29,113181,1,0,0:0:0:0:
383,34,113281,1,0,0:0:0:0:
409,49,113381,1,0,0:0:0:0:
434,70,113481,1,0,0:0:0:0:
448,98,113581,6,0,L|444:162,2,55.2499974708558
448,98,114381,2,0,P|422:122|326:121,1,110.499994941712
288,85,115181,5,4,0:0:0:0:
251,160,115381,2,0,P|201:185|160:185,1,85
130,94,115781,1,0,0:0:0:0:
108,305,115981,2,0,P|115:240|211:198,1,170,2|0,0:0|0:0,0:0:0:0:
311,214,116581,1,0,0:0:0:0:
278,307,116781,6,0,B|216:315|216:315|176:312,1,85,4|0,0:0|0:0,0:0:0:0:
311,214,117181,1,0,0:0:0:0:
355,352,117381,1,4,0:0:0:0:
227,212,117581,2,0,L|237:97,1,85,2|0,0:0|0:0,0:0:0:0:
134,247,117981,1,0,0:0:0:0:
320,118,118181,1,0,0:0:0:0:
118,15,118381,5,4,0:0:0:0:
167,88,118581,2,0,P|222:91|256:67,1,85
196,15,118981,1,0,0:0:0:0:
85,120,119181,2,0,P|113:160|245:178,1,170,2|0,0:0|0:0,0:0:0:0:
298,133,119781,1,0,0:0:0:0:
233,280,119981,6,0,B|199:325|199:325|210:193,1,170,4|0,0:0|0:0,0:0:0:0:
218,118,120581,1,4,0:0:0:0:
317,258,120781,1,8,0:0:0:0:
283,64,120981,1,4,0:0:0:0:
149,258,121181,1,8,0:0:0:0:
178,52,121381,1,0,0:0:0:0:
439,126,121581,5,4,0:0:0:0:
364,198,121781,2,0,B|347:157|347:157|349:108,1,85
404,41,122181,1,0,0:0:0:0:
461,141,122381,2,0,B|469:196|469:196|452:320,1,170,2|0,0:0|0:0,0:0:0:0:
381,348,122981,1,0,0:0:0:0:
305,276,123181,6,0,L|198:265,1,85,4|0,0:0|0:0,0:0:0:0:
104,258,123581,1,0,0:0:0:0:
202,349,123781,1,4,0:0:0:0:
218,191,123981,2,0,L|223:96,1,85,2|0,0:0|0:0,0:0:0:0:
224,14,124381,1,0,0:0:0:0:
111,103,124581,1,0,0:0:0:0:
301,63,124781,5,4,0:0:0:0:
262,145,124981,2,0,P|286:179|338:187,1,85
402,161,125381,1,0,0:0:0:0:
341,310,125581,2,0,P|331:259|221:216,1,170,2|0,0:0|0:0,0:0:0:0:
143,225,126181,1,0,0:0:0:0:
89,332,126381,6,0,B|164:352|187:300|260:301,1,170,4|0,0:0|0:0,0:0:0:0:
341,312,126981,1,4,0:0:0:0:
218,181,127181,1,8,0:0:0:0:
422,255,127381,1,4,0:0:0:0:
147,240,127581,1,8,0:0:0:0:
409,154,127781,1,8,0:0:0:0:
213,97,127981,6,0,B|207:140|207:140|221:192,2,85
294,135,128581,1,4,0:0:0:0:
167,232,128781,2,0,P|127:192|156:73,1,170,2|0,0:0|0:0,0:0:0:0:
212,33,129381,1,0,0:0:0:0:
311,70,129581,5,4,0:0:0:0:
311,70,129781,2,0,P|357:76|405:73,1,85
362,167,130181,1,4,0:0:0:0:
471,124,130381,2,0,P|455:176|450:296,1,170,2|0,0:0|0:0,0:0:0:0:
458,363,130981,1,0,0:0:0:0:
367,280,131181,5,4,0:0:0:0:
320,339,131381,2,0,P|284:354|232:355,1,85
165,325,131781,1,0,0:0:0:0:
261,247,131981,2,0,P|217:203|99:199,1,170,2|0,0:0|0:0,0:0:0:0:
47,246,132581,1,0,0:0:0:0:
148,274,132781,6,0,B|160:212|160:212|147:98,1,170,4|0,0:0|0:0,0:0:0:0:
132,24,133381,1,4,0:0:0:0:
50,125,133581,1,8,0:0:0:0:
294,53,133781,1,4,0:0:0:0:
39,32,133981,1,8,0:0:0:0:
256,133,134181,1,8,0:0:0:0:
62,226,134381,5,4,0:0:0:0:
154,303,134581,2,0,L|163:213,1,85
170,136,134981,1,0,0:0:0:0:
240,342,135181,2,0,P|253:278|342:225,1,170,2|0,0:0|0:0,0:0:0:0:
425,238,135781,1,0,0:0:0:0:
336,321,135981,5,4,0:0:0:0:
306,237,136181,2,0,L|314:137,1,85
231,148,136581,1,4,0:0:0:0:
387,89,136781,2,0,B|325:64|325:64|282:70,1,85,2|0,0:0|0:0,0:0:0:0:
112,195,137181,2,0,B|174:220|174:220|217:214,1,85
203,36,137581,6,0,L|195:137,1,85,4|0,0:0|0:0,0:0:0:0:
304,287,137981,2,0,L|312:186,1,85,4|0,0:0|0:0,0:0:0:0:
394,93,138381,2,0,L|298:72,1,85,2|0,0:0|0:0,0:0:0:0:
121,209,138781,2,0,L|217:230,1,85,4|0,0:0|0:0,0:0:0:0:
430,242,139181,6,0,L|423:174,2,55.2499974708558
428,240,139981,5,0,0:0:0:0:
352,225,140181,1,0,0:0:0:0:
320,300,140381,1,0,0:0:0:0:
245,271,140581,1,0,0:0:0:0:
200,339,140781,5,4,0:0:0:0:
123,226,140981,1,0,0:0:0:0:
64,351,141181,1,0,0:0:0:0:
196,207,141381,1,0,0:0:0:0:
36,152,141581,2,0,P|37:207|46:253,1,85,2|0,0:0|0:0,0:0:0:0:
177,134,141981,2,0,P|167:82|151:42,1,85
40,41,142381,5,4,0:0:0:0:
111,191,142581,1,0,0:0:0:0:
155,28,142781,1,0,0:0:0:0:
26,153,142981,1,4,0:0:0:0:
196,203,143181,2,0,P|243:207|288:207,1,85,2|0,0:0|0:0,0:0:0:0:
239,31,143581,2,0,P|182:25|143:29,1,85
387,131,143981,5,4,0:0:0:0:
239,31,144181,1,0,0:0:0:0:
248,205,144381,1,0,0:0:0:0:
338,55,144581,1,0,0:0:0:0:
155,142,144781,2,0,P|166:198|170:233,1,85,2|0,0:0|0:0,0:0:0:0:
331,319,145181,2,0,P|336:269|344:223,1,85
444,155,145581,6,0,P|388:136|345:131,1,85,4|0,0:0|0:0,0:0:0:0:
245,122,145981,1,0,0:0:0:0:
336,222,146181,1,4,0:0:0:0:
159,143,146381,1,8,0:0:0:0:
337,234,146581,1,4,0:0:0:0:
88,202,146781,1,8,0:0:0:0:
137,51,146981,1,8,0:0:0:0:
192,239,147181,5,4,0:0:0:0:
63,124,147381,1,0,0:0:0:0:
76,280,147581,1,0,0:0:0:0:
166,133,147781,1,0,0:0:0:0:
177,329,147981,2,0,P|228:323|266:325,1,85,2|0,0:0|0:0,0:0:0:0:
380,198,148381,2,0,P|332:215|282:221,1,85
150,185,148781,5,4,0:0:0:0:
278,102,148981,1,0,0:0:0:0:
230,254,149181,1,0,0:0:0:0:
164,106,149381,1,4,0:0:0:0:
339,40,149581,2,0,P|360:82|360:135,1,85,2|0,0:0|0:0,0:0:0:0:
325,289,149981,2,0,P|334:237|361:198,1,85
451,152,150381,5,4,0:0:0:0:
405,264,150581,1,0,0:0:0:0:
283,151,150781,1,0,0:0:0:0:
384,91,150981,1,0,0:0:0:0:
322,225,151181,2,0,P|276:237|227:239,1,85,2|0,0:0|0:0,0:0:0:0:
144,71,151581,2,0,P|182:105|224:124,1,85
67,15,151981,6,0,P|63:71|73:194,1,170,4|0,0:0|0:0,0:0:0:0:
92,277,152581,1,4,0:0:0:0:
173,130,152781,1,8,0:0:0:0:
80,294,152981,1,4,0:0:0:0:
269,163,153181,1,8,0:0:0:0:
161,53,153381,1,8,0:0:0:0:
213,240,153581,6,0,B|230:284|230:284|225:339,2,85
149,298,154181,1,4,0:0:0:0:
310,258,154381,2,0,B|364:243|364:243|399:217,1,85,2|0,0:0|0:0,0:0:0:0:
258,129,154781,2,0,B|204:120|204:120|166:127,1,85
51,182,155181,5,4,0:0:0:0:
214,206,155381,1,0,0:0:0:0:
54,87,155581,1,0,0:0:0:0:
138,251,155781,1,4,0:0:0:0:
183,121,155981,2,0,P|198:59|192:22,1,85,2|2,0:0|0:0,0:0:0:0:
38,198,156381,2,0,P|44:245|64:284,1,85
204,330,156781,5,4,0:0:0:0:
138,192,156981,1,0,0:0:0:0:
257,261,157181,1,0,0:0:0:0:
109,325,157381,1,0,0:0:0:0:
223,184,157581,2,0,P|255:157|275:109,1,85,2|0,0:0|0:0,0:0:0:0:
485,194,157981,2,0,P|433:200|393:192,1,85
323,310,158381,5,4,0:0:0:0:
278,232,158581,2,0,P|282:173|292:139,1,85
384,239,158981,1,4,0:0:0:0:
176,152,159181,1,8,0:0:0:0:
403,234,159381,1,4,0:0:0:0:
141,244,159581,1,8,0:0:0:0:
85,114,159781,1,8,0:0:0:0:
224,221,159981,6,0,L|218:317,1,85,4|0,0:0|0:0,0:0:0:0:
352,271,160381,2,0,L|360:370,1,85
231,222,160781,6,0,L|225:318,1,85
359,272,161181,2,0,L|367:371,1,85
256,124,161581,6,0,L|264:20,1,85
419,163,161981,2,0,L|408:68,1,85
264,123,162381,6,0,L|272:19,1,85
427,162,162781,2,0,L|416:67,1,85
148,105,163181,5,0,0:0:0:0:
303,219,163381,1,0,0:0:0:0:
208,44,163581,1,0,0:0:0:0:
132,252,163781,1,0,0:0:0:0:
316,102,163981,1,0,0:0:0:0:
23,95,164181,1,0,0:0:0:0:
218,283,164381,1,0,0:0:0:0:
114,30,164581,1,0,0:0:0:0:
31,299,164781,6,0,L|78:305,7,42.5
134,237,165581,2,0,L|192:232,7,42.5
308,137,179181,6,0,L|304:195,2,46.7500014266968,2|0|0,0:0|0:0|0:0,0:0:0:0:
381,181,179981,2,0,L|389:286,1,93.5000028533936
274,328,180781,2,0,B|206:231|129:316|76:202,1,233.750007133484,2|0,0:0|0:0,0:0:0:0:
84,131,182181,1,0,0:0:0:0:
84,131,182381,6,0,P|127:130|151:124,2,46.7500014266968,2|0|0,0:0|0:0|0:0,0:0:0:0:
158,59,183181,2,0,P|200:53|266:62,1,93.5000028533936
287,126,183981,2,0,B|305:200|254:192|274:269,2,140.25000428009,2|2|2,0:0|0:0|0:0,0:0:0:0:
337,56,185381,1,0,0:0:0:0:
337,56,185581,6,0,P|376:64|400:61,2,46.7500014266968,2|0|0,0:0|0:0|0:0,0:0:0:0:
458,39,186381,2,0,L|451:148,1,93.5000028533936
449,233,187181,2,0,B|399:210|345:253|345:253|320:301|320:301|288:308|254:283,1,233.750007133484,2|0,0:0|0:0,0:0:0:0:
223,208,188581,1,0,0:0:0:0:
223,208,188781,6,0,P|229:173|229:157,2,46.7500014266968,2|0|0,0:0|0:0|0:0,0:0:0:0:
141,167,189581,2,0,P|110:152|31:152,1,93.5000028533936
19,279,190381,2,0,B|76:274|76:274|106:249|106:249|156:243,2,140.25000428009,2|2|2,0:0|0:0|0:0,0:0:0:0:
58,175,191981,5,0,0:0:0:0:
200,311,192381,1,0,0:0:0:0:
224,153,192781,2,0,P|195:141|124:136,1,93.5000028533936,2|0,0:0|0:0,0:0:0:0:
288,81,193581,2,0,P|239:77|194:85,1,93.5000028533936,2|0,0:0|0:0,0:0:0:0:
217,164,194181,1,0,0:0:0:0:
217,164,194381,2,0,P|258:179|315:179,1,93.5000028533936,2|0,0:0|0:0,0:0:0:0:
372,128,194981,1,0,0:0:0:0:
372,128,195181,6,0,L|378:64,2,46.7500014266968
452,123,195981,2,0,L|459:232,1,93.5000028533936,8|0,0:0|0:0,0:0:0:0:
416,286,196581,1,0,0:0:0:0:
416,286,196781,6,0,P|379:304|323:306,1,93.5000028533936
273,253,197381,1,8,0:0:0:0:
273,253,197581,2,0,P|231:240|170:247,1,93.5000028533936,0|8,0:0|0:0,0:0:0:0:
112,299,198381,5,4,0:0:0:0:
53,172,198781,1,0,0:0:0:0:
188,90,199181,2,0,L|183:193,1,93.5000028533936,2|0,0:0|0:0,0:0:0:0:
241,47,199981,2,0,L|216:155,1,93.5000028533936,2|0,0:0|0:0,0:0:0:0:
129,152,200581,1,0,0:0:0:0:
129,152,200781,2,0,L|151:61,1,93.5000028533936,2|0,0:0|0:0,0:0:0:0:
63,94,201381,1,0,0:0:0:0:
63,94,201581,6,0,L|49:149,2,46.7500014266968
66,224,202381,2,0,P|104:206|160:201,1,93.5000028533936,8|0,0:0|0:0,0:0:0:0:
232,244,202981,1,0,0:0:0:0:
232,244,203181,2,0,P|261:257|331:258,1,93.5000028533936
387,213,203781,1,8,0:0:0:0:
387,213,203981,2,0,L|389:144,1,46.7500014266968
443,114,204381,2,0,L|434:60,1,46.7500014266968,8|0,0:0|0:0,0:0:0:0:
353,37,204781,6,0,P|315:26|279:24,1,63.7500024318696
157,97,205181,2,0,P|188:109|229:116,1,63.7500024318696
351,197,205581,2,0,P|297:188|234:194,1,95.6250036478044
231,194,205981,1,0,0:0:0:0:
173,281,206181,1,0,0:0:0:0:
173,281,206381,6,0,P|132:292|92:292,1,63.7500024318696
45,175,206781,2,0,P|88:180|117:192,1,63.7500024318696
203,168,207181,1,0,0:0:0:0:
114,63,207381,1,0,0:0:0:0:
228,84,207581,2,0,P|276:93|306:96,1,63.7500024318696
418,104,207981,6,0,P|381:115|355:136,1,63.7500024318696
345,278,208381,2,0,L|339:200,1,63.7500024318696
228,84,208781,2,0,L|233:173,1,63.7500024318696
245,275,209181,1,0,0:0:0:0:
158,173,209381,1,0,0:0:0:0:
181,323,209581,6,0,P|210:348|244:356,1,63.7500024318696
366,233,209981,2,0,P|323:223|287:217,1,63.7500024318696
128,241,210381,1,0,0:0:0:0:
256,154,210581,1,0,0:0:0:0:
53,200,210781,2,0,P|48:244|54:279,1,63.7500024318696
185,336,211181,5,0,0:0:0:0:
128,241,211381,1,0,0:0:0:0:
259,279,211581,1,0,0:0:0:0:
100,321,211781,1,0,0:0:0:0:
207,185,211981,1,0,0:0:0:0:
259,279,212181,1,0,0:0:0:0:
124,179,212381,1,0,0:0:0:0:
258,104,212581,1,0,0:0:0:0:
173,248,212781,5,0,0:0:0:0:
186,54,212981,1,0,0:0:0:0:
332,166,213181,1,0,0:0:0:0:
106,125,213381,1,0,0:0:0:0:
304,44,213581,1,0,0:0:0:0:
261,247,213781,1,0,0:0:0:0:
186,54,213981,1,0,0:0:0:0:
400,121,214181,1,0,0:0:0:0:
344,266,214381,5,0,0:0:0:0:
332,283,214481,1,0,0:0:0:0:
323,302,214581,1,0,0:0:0:0:
309,319,214681,1,0,0:0:0:0:
287,331,214781,1,0,0:0:0:0:
262,343,214881,1,0,0:0:0:0:
231,343,214981,1,0,0:0:0:0:
203,333,215081,1,0,0:0:0:0:
183,314,215181,5,0,0:0:0:0:
157,287,215281,1,0,0:0:0:0:
127,269,215381,1,0,0:0:0:0:
97,261,215481,1,0,0:0:0:0:
72,258,215581,1,0,0:0:0:0:
47,261,215681,1,0,0:0:0:0:
22,271,215781,1,0,0:0:0:0:
4,285,215881,1,0,0:0:0:0:
1,316,215981,6,0,L|69:325,2,63.7500024318696
1,317,216781,2,0,P|51:300|76:223,1,127.500004863739
224,85,217581,5,4,0:0:0:0:
261,160,217781,2,0,P|311:185|352:185,1,85
382,94,218181,1,0,0:0:0:0:
404,305,218381,2,0,P|397:240|301:198,1,170,2|0,0:0|0:0,0:0:0:0:
201,214,218981,1,0,0:0:0:0:
234,307,219181,6,0,B|296:315|296:315|336:312,1,85,4|0,0:0|0:0,0:0:0:0:
201,214,219581,1,0,0:0:0:0:
157,352,219781,1,4,0:0:0:0:
285,212,219981,2,0,L|275:97,1,85,2|0,0:0|0:0,0:0:0:0:
378,247,220381,1,0,0:0:0:0:
192,118,220581,1,0,0:0:0:0:
394,15,220781,5,4,0:0:0:0:
345,88,220981,2,0,P|290:91|256:67,1,85
316,15,221381,1,0,0:0:0:0:
427,120,221581,2,0,P|399:160|267:178,1,170,2|0,0:0|0:0,0:0:0:0:
214,133,222181,1,0,0:0:0:0:
279,280,222381,6,0,B|313:325|313:325|302:193,1,170,4|0,0:0|0:0,0:0:0:0:
294,118,222981,1,4,0:0:0:0:
195,258,223181,1,8,0:0:0:0:
229,64,223381,1,4,0:0:0:0:
363,258,223581,1,8,0:0:0:0:
334,52,223781,1,0,0:0:0:0:
73,126,223981,5,4,0:0:0:0:
148,198,224181,2,0,B|165:157|165:157|163:108,1,85
108,41,224581,1,0,0:0:0:0:
51,141,224781,2,0,B|43:196|43:196|60:320,1,170,2|0,0:0|0:0,0:0:0:0:
131,348,225381,1,0,0:0:0:0:
207,276,225581,6,0,L|314:265,1,85,4|0,0:0|0:0,0:0:0:0:
408,258,225981,1,0,0:0:0:0:
310,349,226181,1,4,0:0:0:0:
294,191,226381,2,0,L|289:96,1,85,2|0,0:0|0:0,0:0:0:0:
288,14,226781,1,0,0:0:0:0:
401,103,226981,1,0,0:0:0:0:
211,63,227181,5,4,0:0:0:0:
250,145,227381,2,0,P|226:179|174:187,1,85
110,161,227781,1,0,0:0:0:0:
171,310,227981,2,0,P|181:259|291:216,1,170,2|0,0:0|0:0,0:0:0:0:
369,225,228581,1,0,0:0:0:0:
423,332,228781,6,0,B|348:352|325:300|252:301,1,170,4|0,0:0|0:0,0:0:0:0:
171,312,229381,1,4,0:0:0:0:
294,181,229581,1,8,0:0:0:0:
90,255,229781,1,4,0:0:0:0:
365,240,229981,1,8,0:0:0:0:
103,154,230181,1,8,0:0:0:0:
299,97,230381,6,0,B|305:140|305:140|291:192,2,85
218,135,230981,1,4,0:0:0:0:
345,232,231181,2,0,P|385:192|356:73,1,170,2|0,0:0|0:0,0:0:0:0:
300,33,231781,1,0,0:0:0:0:
201,70,231981,5,4,0:0:0:0:
201,70,232181,2,0,P|155:76|107:73,1,85
150,167,232581,1,4,0:0:0:0:
41,124,232781,2,0,P|57:176|62:296,1,170,2|0,0:0|0:0,0:0:0:0:
54,363,233381,1,0,0:0:0:0:
145,280,233581,5,4,0:0:0:0:
192,339,233781,2,0,P|228:354|280:355,1,85
347,325,234181,1,0,0:0:0:0:
251,247,234381,2,0,P|295:203|413:199,1,170,2|0,0:0|0:0,0:0:0:0:
465,246,234981,1,0,0:0:0:0:
364,274,235181,6,0,B|352:212|352:212|365:98,1,170,4|0,0:0|0:0,0:0:0:0:
380,24,235781,1,4,0:0:0:0:
462,125,235981,1,8,0:0:0:0:
218,53,236181,1,4,0:0:0:0:
473,32,236381,1,8,0:0:0:0:
256,133,236581,1,8,0:0:0:0:
450,226,236781,5,4,0:0:0:0:
358,303,236981,2,0,L|349:213,1,85
342,136,237381,1,0,0:0:0:0:
272,342,237581,2,0,P|259:278|170:225,1,170,2|0,0:0|0:0,0:0:0:0:
87,238,238181,1,0,0:0:0:0:
176,321,238381,5,4,0:0:0:0:
206,237,238581,2,0,L|198:137,1,85
281,148,238981,1,4,0:0:0:0:
125,89,239181,2,0,B|187:64|187:64|230:70,1,85,2|0,0:0|0:0,0:0:0:0:
400,195,239581,2,0,B|338:220|338:220|295:214,1,85
309,36,239981,6,0,L|317:137,1,85,4|0,0:0|0:0,0:0:0:0:
208,287,240381,2,0,L|200:186,1,85,4|0,0:0|0:0,0:0:0:0:
118,93,240781,2,0,L|214:72,1,85,2|0,0:0|0:0,0:0:0:0:
391,209,241181,2,0,L|295:230,1,85,4|0,0:0|0:0,0:0:0:0:
82,242,241581,6,0,L|89:174,2,55.2499974708558
84,240,242381,5,0,0:0:0:0:
160,225,242581,1,0,0:0:0:0:
192,300,242781,1,0,0:0:0:0:
267,271,242981,1,0,0:0:0:0:
312,339,243181,5,4,0:0:0:0:
389,226,243381,1,0,0:0:0:0:
448,351,243581,1,0,0:0:0:0:
316,207,243781,1,0,0:0:0:0:
476,152,243981,2,0,P|475:207|466:253,1,85,2|0,0:0|0:0,0:0:0:0:
335,134,244381,2,0,P|345:82|361:42,1,85
472,41,244781,5,4,0:0:0:0:
401,191,244981,1,0,0:0:0:0:
357,28,245181,1,0,0:0:0:0:
486,153,245381,1,4,0:0:0:0:
316,203,245581,2,0,P|269:207|224:207,1,85,2|0,0:0|0:0,0:0:0:0:
273,31,245981,2,0,P|330:25|369:29,1,85
125,131,246381,5,4,0:0:0:0:
273,31,246581,1,0,0:0:0:0:
264,205,246781,1,0,0:0:0:0:
174,55,246981,1,0,0:0:0:0:
357,142,247181,2,0,P|346:198|342:233,1,85,2|0,0:0|0:0,0:0:0:0:
181,319,247581,2,0,P|176:269|168:223,1,85
68,155,247981,6,0,P|124:136|167:131,1,85,4|0,0:0|0:0,0:0:0:0:
267,122,248381,1,0,0:0:0:0:
176,222,248581,1,4,0:0:0:0:
353,143,248781,1,8,0:0:0:0:
175,234,248981,1,4,0:0:0:0:
424,202,249181,1,8,0:0:0:0:
375,51,249381,1,8,0:0:0:0:
320,239,249581,5,4,0:0:0:0:
449,124,249781,1,0,0:0:0:0:
436,280,249981,1,0,0:0:0:0:
346,133,250181,1,0,0:0:0:0:
335,329,250381,2,0,P|284:323|246:325,1,85,2|0,0:0|0:0,0:0:0:0:
132,198,250781,2,0,P|180:215|230:221,1,85
362,185,251181,5,4,0:0:0:0:
234,102,251381,1,0,0:0:0:0:
282,254,251581,1,0,0:0:0:0:
348,106,251781,1,4,0:0:0:0:
173,40,251981,2,0,P|152:82|152:135,1,85,2|0,0:0|0:0,0:0:0:0:
187,289,252381,2,0,P|178:237|151:198,1,85
61,152,252781,5,4,0:0:0:0:
107,264,252981,1,0,0:0:0:0:
229,151,253181,1,0,0:0:0:0:
128,91,253381,1,0,0:0:0:0:
190,225,253581,2,0,P|236:237|285:239,1,85,2|0,0:0|0:0,0:0:0:0:
368,71,253981,2,0,P|330:105|288:124,1,85
445,15,254381,6,0,P|449:71|439:194,1,170,4|0,0:0|0:0,0:0:0:0:
420,277,254981,1,4,0:0:0:0:
339,130,255181,1,8,0:0:0:0:
432,294,255381,1,4,0:0:0:0:
243,163,255581,1,8,0:0:0:0:
351,53,255781,1,8,0:0:0:0:
299,240,255981,6,0,B|282:284|282:284|287:339,2,85
363,298,256581,1,4,0:0:0:0:
202,258,256781,2,0,B|148:243|148:243|113:217,1,85,2|0,0:0|0:0,0:0:0:0:
254,129,257181,2,0,B|308:120|308:120|346:127,1,85
461,182,257581,5,4,0:0:0:0:
298,206,257781,1,0,0:0:0:0:
458,87,257981,1,0,0:0:0:0:
374,251,258181,1,4,0:0:0:0:
329,121,258381,2,0,P|314:59|320:22,1,85,2|2,0:0|0:0,0:0:0:0:
474,198,258781,2,0,P|468:245|448:284,1,85
308,330,259181,5,4,0:0:0:0:
374,192,259381,1,0,0:0:0:0:
255,261,259581,1,0,0:0:0:0:
403,325,259781,1,0,0:0:0:0:
289,184,259981,2,0,P|257:157|237:109,1,85,2|0,0:0|0:0,0:0:0:0:
27,194,260381,2,0,P|79:200|119:192,1,85
189,310,260781,5,4,0:0:0:0:
234,232,260981,2,0,P|230:173|220:139,1,85
128,239,261381,1,4,0:0:0:0:
336,152,261581,1,8,0:0:0:0:
109,234,261781,1,4,0:0:0:0:
371,244,261981,1,8,0:0:0:0:
427,114,262181,1,8,0:0:0:0:
288,35,262381,6,0,P|292:83|304:136,1,85
153,92,262781,2,0,P|164:150|166:207,1,85
281,39,263181,6,0,P|285:87|297:140,1,85
146,96,263581,2,0,P|157:154|159:211,1,85
245,345,263981,6,0,P|237:287|236:251,1,85
79,311,264381,2,0,P|87:257|91:212,1,85
235,338,264781,6,0,P|227:280|226:244,1,85
69,304,265181,2,0,P|77:250|81:205,1,85
99,72,265581,5,0,0:0:0:0:
280,148,265781,1,0,0:0:0:0:
139,248,265981,1,0,0:0:0:0:
196,34,266181,1,0,0:0:0:0:
368,142,266381,1,0,0:0:0:0:
139,170,266581,1,0,0:0:0:0:
342,30,266781,1,0,0:0:0:0:
284,278,266981,1,0,0:0:0:0:
177,96,267181,6,0,L|113:90,7,42.5
83,153,267981,2,0,L|25:164,7,42.5
