osu file format v14

[General]
AudioFilename: audio.mp3
AudioLeadIn: 0
PreviewTime: 242785
Countdown: 0
SampleSet: Soft
StackLeniency: 0.7
Mode: 0
LetterboxInBreaks: 0
WidescreenStoryboard: 0

[Editor]
Bookmarks: 27,22095,44164,55199,77268,88302,99337,110371,121406,132440,143475,154509,165544,187613,209682,220716,242785,253820,264854,286923,308992,320027
DistanceSpacing: 1
BeatDivisor: 4
GridSize: 32
TimelineZoom: 2.12

[Metadata]
Title:Living Color (Original Mix)
TitleUnicode:Living Color (Original Mix)
Artist:MitiS
ArtistUnicode:MitiS
Creator:elicz1
Version:Luminescent
Source:
Tags:ep liquid drum and bass drumstep love barn recordings llc 2015 colour 2018 trance english electronic instrumental edm dnb dance music
BeatmapID:2647187
BeatmapSetID:1273985

[Difficulty]
HPDrainRate:5
CircleSize:4.2
OverallDifficulty:8.5
ApproachRate:9.3
SliderMultiplier:2.2
SliderTickRate:1

[Events]
//Background and Video events
0,0,"osubglivingcolor.jpg",0,0
//Break Periods
//Storyboard Layer 0 (Background)
//Storyboard Layer 1 (Fail)
//Storyboard Layer 2 (Pass)
//Storyboard Layer 3 (Foreground)
//Storyboard Layer 4 (Overlay)
//Storyboard Sound Samples

[TimingPoints]
27,344.827586206897,4,2,2,40,1,0
17613,-100,4,2,2,5,0,0
19337,-100,4,2,2,10,0,0
20716,-100,4,2,2,15,0,0
22009,-100,4,2,2,5,0,0
22095,-133.333333333333,4,2,2,50,0,0
22354,-133.333333333333,4,2,2,5,0,0
22440,-133.333333333333,4,2,2,50,0,0
23733,-133.333333333333,4,2,2,5,0,0
23820,-133.333333333333,4,2,2,50,0,0
25371,-125,4,2,2,53,0,0
25889,-117.647058823529,4,2,2,56,0,0
26406,-111.111111111111,4,2,2,59,0,0
26923,-111.111111111111,4,2,2,62,0,0
27613,-133.333333333333,4,2,2,50,0,0
27871,-133.333333333333,4,2,2,5,0,0
27958,-133.333333333333,4,2,2,50,0,0
29251,-133.333333333333,4,2,2,5,0,0
29337,-133.333333333333,4,2,2,50,0,0
30630,-133.333333333333,4,2,2,5,0,0
30716,-133.333333333333,4,2,2,50,0,0
30975,-133.333333333333,4,2,2,5,0,0
31061,-133.333333333333,4,2,2,50,0,0
33389,-133.333333333333,4,2,2,5,0,0
33475,-133.333333333333,4,2,2,50,0,0
34768,-133.333333333333,4,2,2,5,0,0
34854,-133.333333333333,4,2,2,50,0,0
36406,-125,4,2,2,53,0,0
36923,-117.647058823529,4,2,2,56,0,0
37440,-111.111111111111,4,2,2,59,0,0
37958,-111.111111111111,4,2,2,62,0,0
38647,-133.333333333333,4,2,2,50,0,0
38906,-133.333333333333,4,2,2,5,0,0
38992,-133.333333333333,4,2,2,50,0,0
40285,-133.333333333333,4,2,2,5,0,0
40371,-133.333333333333,4,2,2,50,0,0
41664,-133.333333333333,4,2,2,5,0,0
41751,-133.333333333333,4,2,2,50,0,0
42009,-133.333333333333,4,2,2,5,0,0
42095,-133.333333333333,4,2,2,50,0,0
44164,-250,4,2,2,45,0,0
44854,-250,4,2,2,5,0,0
45199,-250,4,2,2,40,0,0
45889,-250,4,2,2,25,0,0
46578,-250,4,2,2,15,0,0
46923,-200,4,2,2,43,0,0
47613,-181.818181818182,4,2,2,46,0,0
47958,-166.666666666667,4,2,2,49,0,0
48475,-153.846153846154,4,2,2,52,0,0
48992,-153.846153846154,4,2,2,55,0,0
49682,-166.666666666667,4,2,2,50,0,0
50716,-166.666666666667,4,2,2,45,0,0
51061,-153.846153846154,4,2,2,53,0,0
51406,-153.846153846154,4,2,2,40,0,0
51751,-153.846153846154,4,2,2,53,0,0
52095,-153.846153846154,4,2,2,35,0,0
52440,-142.857142857143,4,2,2,56,0,0
53820,-125,4,2,2,60,0,0
54509,-125,4,2,4,70,0,0
54595,-125,4,2,4,5,0,0
54682,-125,4,2,4,70,0,0
54768,-125,4,2,4,5,0,0
54854,-125,4,2,4,70,0,0
54940,-125,4,2,4,5,0,0
55027,-125,4,2,4,70,0,0
55113,-125,4,2,4,5,0,0
55199,-250,4,2,5,60,0,0
56406,-250,4,2,5,5,0,0
56578,-250,4,2,5,35,0,0
57785,-250,4,2,5,5,0,0
57958,-250,4,2,5,45,0,0
58475,-250,4,2,5,5,0,0
58647,-250,4,2,5,35,0,0
59337,-250,4,2,5,45,0,0
59854,-250,4,2,5,5,0,0
60027,-250,4,2,5,35,0,0
60716,-250,4,2,5,45,0,0
61233,-250,4,2,5,5,0,0
61406,-250,4,2,5,35,0,0
63302,-250,4,2,5,5,0,0
63475,-250,4,2,5,45,0,0
63647,-250,4,2,5,5,0,0
63820,-250,4,2,5,35,0,0
64854,-250,4,2,5,45,0,0
65027,-250,4,2,5,5,0,0
65199,-250,4,2,5,35,0,0
65544,-250,4,2,5,45,0,0
65716,-250,4,2,5,5,0,0
65889,-250,4,2,5,35,0,0
66233,-250,4,2,5,45,0,0
67440,-250,4,2,5,5,0,0
67613,-250,4,2,5,35,0,0
68820,-250,4,2,5,5,0,0
68992,-250,4,2,5,45,0,0
69164,-250,4,2,5,5,0,0
69337,-250,4,2,5,35,0,0
70371,-250,4,2,5,45,0,0
70889,-250,4,2,5,5,0,0
71061,-250,4,2,5,35,0,0
71751,-250,4,2,5,45,0,0
72268,-250,4,2,5,5,0,0
72440,-250,4,2,5,35,0,0
74337,-250,4,2,5,5,0,0
74509,-250,4,2,5,45,0,0
74682,-250,4,2,5,5,0,0
74854,-250,4,2,5,35,0,0
75716,-250,4,2,5,5,0,0
75889,-250,4,2,5,45,0,0
76061,-250,4,2,5,5,0,0
76233,-250,4,2,5,35,0,0
76578,-250,4,2,5,45,0,0
76751,-250,4,2,5,5,0,0
76923,-250,4,2,5,35,0,0
77268,-250,4,2,2,45,0,0
77871,-250,4,2,2,5,0,0
77958,-250,4,2,2,45,0,0
79251,-250,4,2,2,5,0,0
79337,-250,4,2,2,45,0,0
80630,-250,4,2,2,5,0,0
80716,-250,4,2,2,45,0,0
82009,-250,4,2,2,5,0,0
82095,-250,4,2,2,45,0,0
83389,-250,4,2,2,5,0,0
83475,-250,4,2,2,45,0,0
93820,-250,4,2,2,50,0,0
95199,-250,4,2,2,55,0,0
96578,-250,4,2,2,60,0,0
97268,-250,4,2,2,65,0,0
98992,-250,4,2,4,80,0,0
99337,-66.6666666666667,4,2,1,70,0,1
100371,-133.333333333333,4,2,1,70,0,1
100458,-133.333333333333,4,2,1,5,0,1
100544,-133.333333333333,4,2,1,70,0,1
100630,-133.333333333333,4,2,1,5,0,1
100716,-90.9090909090909,4,2,1,70,0,1
102095,-66.6666666666667,4,2,1,70,0,1
103130,-133.333333333333,4,2,1,70,0,1
103216,-133.333333333333,4,2,1,5,0,1
103302,-133.333333333333,4,2,1,70,0,1
103389,-133.333333333333,4,2,1,5,0,1
103475,-133.333333333333,4,2,1,70,0,1
104854,-66.6666666666667,4,2,1,70,0,1
105889,-133.333333333333,4,2,1,70,0,1
105975,-133.333333333333,4,2,1,5,0,1
106061,-133.333333333333,4,2,1,70,0,1
106147,-133.333333333333,4,2,1,5,0,1
106233,-90.9090909090909,4,2,1,70,0,1
107613,-66.6666666666667,4,2,1,70,0,1
108647,-90.9090909090909,4,2,1,70,0,1
108992,-133.333333333333,4,2,1,70,0,1
110027,-133.333333333333,4,2,4,90,0,1
110371,-66.6666666666667,4,2,1,70,0,1
111406,-133.333333333333,4,2,1,70,0,1
111492,-133.333333333333,4,2,1,5,0,1
111578,-133.333333333333,4,2,1,70,0,1
111664,-133.333333333333,4,2,1,5,0,1
111751,-90.9090909090909,4,2,1,70,0,1
113130,-66.6666666666667,4,2,1,70,0,1
114164,-133.333333333333,4,2,1,70,0,1
114251,-133.333333333333,4,2,1,5,0,1
114337,-133.333333333333,4,2,1,70,0,1
114423,-133.333333333333,4,2,1,5,0,1
114509,-133.333333333333,4,2,1,70,0,1
115889,-66.6666666666667,4,2,1,70,0,1
116923,-133.333333333333,4,2,1,70,0,1
117009,-133.333333333333,4,2,1,5,0,1
117095,-133.333333333333,4,2,1,70,0,1
117182,-133.333333333333,4,2,1,5,0,1
117268,-90.9090909090909,4,2,1,70,0,1
118647,-66.6666666666667,4,2,1,70,0,1
118906,-66.6666666666667,4,2,1,5,0,1
118992,-66.6666666666667,4,2,1,70,0,1
119682,-90.9090909090909,4,2,1,70,0,1
120027,-100,4,2,2,55,0,0
121061,-100,4,2,4,90,0,0
121406,-133.333333333333,4,2,1,65,0,1
122527,-133.333333333333,4,2,1,5,0,1
122613,-133.333333333333,4,2,1,65,0,1
122699,-133.333333333333,4,2,1,5,0,1
122785,-100,4,2,1,65,0,1
123044,-100,4,2,1,5,0,1
123130,-100,4,2,1,65,0,1
123733,-100,4,2,1,5,0,1
123820,-100,4,2,1,65,0,1
125199,-133.333333333333,4,2,1,65,0,1
125285,-133.333333333333,4,2,1,5,0,1
125371,-133.333333333333,4,2,1,65,0,1
125458,-133.333333333333,4,2,1,5,0,1
125544,-100,4,2,1,65,0,1
125802,-100,4,2,1,5,0,1
125889,-100,4,2,1,65,0,1
127958,-133.333333333333,4,2,1,65,0,1
128044,-133.333333333333,4,2,1,5,0,1
128130,-133.333333333333,4,2,1,65,0,1
128216,-133.333333333333,4,2,1,5,0,1
128302,-100,4,2,1,65,0,1
128561,-100,4,2,1,5,0,1
128647,-100,4,2,1,65,0,1
129682,-71.4285714285714,4,2,1,65,0,1
129940,-100,4,2,1,5,0,1
130027,-100,4,2,1,65,0,1
131320,-100,4,2,1,5,0,1
131406,-100,4,2,1,65,0,1
132095,-100,4,2,4,90,0,1
132268,-100,4,2,1,65,0,1
132440,-100,4,2,1,65,0,1
133475,-133.333333333333,4,2,1,65,0,1
133561,-133.333333333333,4,2,1,5,0,1
133647,-133.333333333333,4,2,1,65,0,1
133733,-133.333333333333,4,2,1,5,0,1
133820,-100,4,2,1,65,0,1
134078,-100,4,2,1,5,0,1
134164,-100,4,2,1,65,0,1
134768,-100,4,2,1,5,0,1
134854,-100,4,2,1,65,0,1
135199,-133.333333333333,4,2,1,65,0,1
135716,-117.647058823529,4,2,1,67,0,1
136233,-105.263157894737,4,2,1,69,0,1
136751,-95.2380952380952,4,2,1,71,0,1
137268,-95.2380952380952,4,2,1,73,0,1
137958,-95.2380952380952,4,2,1,65,0,1
138992,-133.333333333333,4,2,1,65,0,1
139078,-133.333333333333,4,2,1,5,0,1
139164,-133.333333333333,4,2,1,65,0,1
139251,-133.333333333333,4,2,1,5,0,1
139337,-100,4,2,1,65,0,1
139595,-100,4,2,1,5,0,1
139682,-100,4,2,1,65,0,1
140716,-71.4285714285714,4,2,1,65,0,1
140975,-100,4,2,1,5,0,1
141061,-100,4,2,1,65,0,1
142354,-100,4,2,1,5,0,1
142440,-100,4,2,1,65,0,1
142871,-100,4,2,1,5,0,1
142958,-100,4,2,1,65,0,1
143389,-100,4,2,1,5,0,1
143475,-100,4,2,1,65,0,1
144509,-133.333333333333,4,2,1,65,0,1
144595,-133.333333333333,4,2,1,5,0,1
144682,-133.333333333333,4,2,1,65,0,1
144768,-133.333333333333,4,2,1,5,0,1
144854,-100,4,2,1,65,0,1
145113,-100,4,2,1,5,0,1
145199,-100,4,2,1,65,0,1
145802,-100,4,2,1,5,0,1
145889,-100,4,2,1,65,0,1
147268,-133.333333333333,4,2,1,65,0,1
147354,-133.333333333333,4,2,1,5,0,1
147440,-133.333333333333,4,2,1,65,0,1
147527,-133.333333333333,4,2,1,5,0,1
147613,-100,4,2,1,65,0,1
147871,-100,4,2,1,5,0,1
147958,-100,4,2,1,65,0,1
150027,-133.333333333333,4,2,1,65,0,1
150113,-133.333333333333,4,2,1,5,0,1
150199,-133.333333333333,4,2,1,65,0,1
150285,-133.333333333333,4,2,1,5,0,1
150371,-100,4,2,1,65,0,1
150630,-100,4,2,1,5,0,1
150716,-100,4,2,1,65,0,1
151751,-71.4285714285714,4,2,1,65,0,1
152009,-100,4,2,1,5,0,1
152095,-100,4,2,1,65,0,1
153389,-100,4,2,1,5,0,1
153475,-100,4,2,1,65,0,1
154164,-100,4,2,4,90,0,1
154337,-100,4,2,1,65,0,1
155544,-133.333333333333,4,2,1,65,0,1
155630,-133.333333333333,4,2,1,5,0,1
155716,-133.333333333333,4,2,1,65,0,1
155802,-133.333333333333,4,2,1,5,0,1
155889,-100,4,2,1,65,0,1
156147,-100,4,2,1,5,0,1
156233,-100,4,2,1,65,0,1
156837,-100,4,2,1,5,0,1
156923,-100,4,2,1,65,0,1
157268,-133.333333333333,4,2,1,65,0,1
157785,-117.647058823529,4,2,1,67,0,1
158302,-105.263157894737,4,2,1,69,0,1
158820,-95.2380952380952,4,2,1,71,0,1
159337,-95.2380952380952,4,2,1,73,0,1
160027,-95.2380952380952,4,2,1,65,0,1
161061,-133.333333333333,4,2,1,65,0,1
161147,-133.333333333333,4,2,1,5,0,1
161233,-133.333333333333,4,2,1,65,0,1
161320,-133.333333333333,4,2,1,5,0,1
161406,-100,4,2,1,65,0,1
161664,-100,4,2,1,5,0,1
161751,-100,4,2,1,65,0,1
162785,-71.4285714285714,4,2,2,65,0,0
163044,-100,4,2,2,5,0,0
163130,-83.3333333333333,4,2,2,65,0,0
163389,-83.3333333333333,4,2,2,5,0,0
163475,-83.3333333333333,4,2,2,65,0,0
164854,-83.3333333333333,4,2,2,70,0,0
165544,-83.3333333333333,4,2,2,35,0,0
187613,-250,4,2,5,45,0,0
188302,-250,4,2,5,5,0,0
188475,-250,4,2,5,35,0,0
189164,-333.333333333333,4,2,5,25,0,0
189854,-333.333333333333,4,2,5,30,0,0
190371,-250,4,2,5,45,0,0
190716,-250,4,2,5,5,0,0
190889,-250,4,2,5,45,0,0
191147,-250,4,2,5,5,0,0
191233,-250,4,2,5,35,0,0
191751,-250,4,2,5,45,0,0
192095,-250,4,2,5,5,0,0
192268,-250,4,2,5,45,0,0
192613,-250,4,2,5,35,0,0
193130,-250,4,2,5,45,0,0
193820,-250,4,2,5,5,0,0
193992,-250,4,2,5,35,0,0
194682,-333.333333333333,4,2,5,25,0,0
195371,-333.333333333333,4,2,5,45,0,0
195889,-250,4,2,5,45,0,0
196751,-250,4,2,5,5,0,0
196923,-250,4,2,5,45,0,0
197095,-250,4,2,5,5,0,0
197268,-250,4,2,5,45,0,0
198475,-250,4,2,5,5,0,0
198647,-250,4,2,5,45,0,0
199509,-250,4,2,5,5,0,0
199682,-250,4,2,5,35,0,0
200371,-333.333333333333,4,2,5,25,0,0
200889,-333.333333333333,4,2,5,30,0,0
201406,-250,4,2,5,45,0,0
201751,-250,4,2,5,5,0,0
201923,-250,4,2,5,45,0,0
202182,-250,4,2,5,5,0,0
202268,-250,4,2,5,35,0,0
202785,-250,4,2,5,45,0,0
203130,-250,4,2,5,5,0,0
203302,-250,4,2,5,45,0,0
203647,-250,4,2,5,35,0,0
204164,-250,4,2,5,45,0,0
204854,-250,4,2,5,5,0,0
205027,-250,4,2,5,35,0,0
205716,-333.333333333333,4,2,5,25,0,0
206406,-333.333333333333,4,2,5,30,0,0
206923,-250,4,2,5,45,0,0
207785,-250,4,2,5,5,0,0
207958,-250,4,2,5,45,0,0
208130,-250,4,2,5,5,0,0
208302,-250,4,2,5,45,0,0
208992,-250,4,2,2,45,0,0
209509,-250,4,2,2,5,0,0
209682,-250,4,2,2,45,0,0
210716,-250,4,2,2,40,0,0
211406,-250,4,2,2,25,0,0
212095,-250,4,2,2,15,0,0
212440,-200,4,2,2,43,0,0
212958,-181.818181818182,4,2,2,46,0,0
213475,-166.666666666667,4,2,2,49,0,0
213992,-153.846153846154,4,2,2,52,0,0
214509,-153.846153846154,4,2,2,55,0,0
215199,-166.666666666667,4,2,2,50,0,0
216233,-166.666666666667,4,2,2,45,0,0
216578,-153.846153846154,4,2,2,53,0,0
216923,-153.846153846154,4,2,2,40,0,0
217268,-153.846153846154,4,2,2,53,0,0
217613,-153.846153846154,4,2,2,35,0,0
217958,-142.857142857143,4,2,2,56,0,0
219337,-125,4,2,2,60,0,0
220027,-125,4,2,4,70,0,0
220113,-125,4,2,4,5,0,0
220199,-125,4,2,4,70,0,0
220285,-125,4,2,4,5,0,0
220371,-125,4,2,4,70,0,0
220458,-125,4,2,4,5,0,0
220544,-125,4,2,4,70,0,0
220630,-125,4,2,4,5,0,0
220716,-250,4,2,5,60,0,0
221923,-250,4,2,5,5,0,0
222095,-250,4,2,5,35,0,0
223302,-250,4,2,5,5,0,0
223475,-250,4,2,5,45,0,0
223992,-250,4,2,5,5,0,0
224164,-250,4,2,5,35,0,0
225371,-250,4,2,5,5,0,0
225544,-250,4,2,5,35,0,0
226233,-250,4,2,5,45,0,0
226751,-250,4,2,5,5,0,0
226923,-250,4,2,5,35,0,0
228820,-250,4,2,5,5,0,0
228992,-250,4,2,5,45,0,0
229164,-250,4,2,5,5,0,0
229337,-250,4,2,5,35,0,0
230371,-250,4,2,5,45,0,0
230544,-250,4,2,5,5,0,0
230716,-250,4,2,5,35,0,0
231061,-250,4,2,5,45,0,0
231233,-250,4,2,5,5,0,0
231406,-250,4,2,5,35,0,0
231751,-250,4,2,5,45,0,0
232958,-250,4,2,5,5,0,0
233130,-250,4,2,5,35,0,0
234337,-250,4,2,5,5,0,0
234509,-250,4,2,5,45,0,0
234682,-250,4,2,5,5,0,0
234854,-250,4,2,5,35,0,0
235889,-250,4,2,5,45,0,0
236406,-250,4,2,5,5,0,0
236578,-250,4,2,5,35,0,0
237268,-250,4,2,5,45,0,0
237785,-250,4,2,5,5,0,0
237958,-250,4,2,5,35,0,0
239854,-250,4,2,5,5,0,0
240027,-250,4,2,5,45,0,0
240199,-250,4,2,5,5,0,0
240371,-250,4,2,5,35,0,0
241233,-250,4,2,5,5,0,0
241406,-250,4,2,5,45,0,0
241578,-250,4,2,5,5,0,0
241751,-250,4,2,5,35,0,0
242095,-250,4,2,5,45,0,0
242268,-250,4,2,5,5,0,0
242440,-250,4,2,5,45,0,0
246061,-222.222222222222,4,2,2,47,0,0
246578,-200,4,2,2,49,0,0
247095,-181.818181818182,4,2,2,51,0,0
247613,-181.818181818182,4,2,2,53,0,0
248302,-200,4,2,2,48,0,0
251578,-181.818181818182,4,2,2,50,0,0
252095,-166.666666666667,4,2,2,52,0,0
252613,-153.846153846154,4,2,2,54,0,0
253130,-153.846153846154,4,2,2,56,0,0
253820,-166.666666666667,4,2,2,52,0,0
255027,-166.666666666667,4,2,2,54,0,0
256578,-142.857142857143,4,2,2,57,0,0
257785,-142.857142857143,4,2,2,59,0,0
259337,-142.857142857143,4,2,2,61,0,0
260027,-142.857142857143,4,2,2,63,0,0
260716,-142.857142857143,4,2,2,65,0,0
262785,-142.857142857143,4,2,2,70,0,0
264509,-142.857142857143,4,2,4,90,0,0
264854,-58.8235294117647,4,2,1,70,0,1
265544,-76.9230769230769,4,2,1,80,0,1
265889,-133.333333333333,4,2,1,70,0,1
265975,-133.333333333333,4,2,1,5,0,1
266061,-133.333333333333,4,2,1,70,0,1
266147,-133.333333333333,4,2,1,5,0,1
266233,-76.9230769230769,4,2,1,70,0,1
266923,-76.9230769230769,4,2,1,80,0,1
267268,-76.9230769230769,4,2,1,70,0,1
267613,-58.8235294117647,4,2,1,70,0,1
268302,-76.9230769230769,4,2,1,80,0,1
268647,-133.333333333333,4,2,1,70,0,1
268733,-133.333333333333,4,2,1,5,0,1
268820,-133.333333333333,4,2,1,70,0,1
268906,-133.333333333333,4,2,1,5,0,1
268992,-76.9230769230769,4,2,1,70,0,1
269682,-76.9230769230769,4,2,1,80,0,1
270027,-76.9230769230769,4,2,1,70,0,1
270371,-58.8235294117647,4,2,1,70,0,1
271061,-76.9230769230769,4,2,1,80,0,1
271406,-133.333333333333,4,2,1,70,0,1
271492,-133.333333333333,4,2,1,5,0,1
271578,-133.333333333333,4,2,1,70,0,1
271664,-133.333333333333,4,2,1,5,0,1
271751,-76.9230769230769,4,2,1,70,0,1
272440,-76.9230769230769,4,2,1,80,0,1
272613,-76.9230769230769,4,2,1,70,0,1
273130,-58.8235294117647,4,2,1,70,0,1
273820,-58.8235294117647,4,2,1,80,0,1
273992,-58.8235294117647,4,2,1,70,0,1
275199,-100,4,2,4,90,0,1
275285,-100,4,2,4,5,0,1
275371,-100,4,2,4,90,0,1
275458,-100,4,2,4,5,0,1
275544,-100,4,2,4,90,0,1
275630,-100,4,2,4,5,0,1
275716,-100,4,2,4,90,0,1
275802,-100,4,2,1,5,0,1
275889,-58.8235294117647,4,2,1,70,0,1
276578,-76.9230769230769,4,2,1,80,0,1
276923,-133.333333333333,4,2,1,70,0,1
277009,-133.333333333333,4,2,1,5,0,1
277095,-133.333333333333,4,2,1,70,0,1
277182,-133.333333333333,4,2,1,5,0,1
277268,-76.9230769230769,4,2,1,70,0,1
277958,-76.9230769230769,4,2,1,80,0,1
278302,-76.9230769230769,4,2,1,70,0,1
278647,-58.8235294117647,4,2,1,70,0,1
279337,-76.9230769230769,4,2,1,80,0,1
279682,-133.333333333333,4,2,1,70,0,1
279768,-133.333333333333,4,2,1,5,0,1
279854,-133.333333333333,4,2,1,70,0,1
279940,-133.333333333333,4,2,1,5,0,1
280027,-133.333333333333,4,2,1,70,0,1
280716,-76.9230769230769,4,2,1,80,0,1
281061,-76.9230769230769,4,2,1,70,0,1
281406,-58.8235294117647,4,2,1,70,0,1
282095,-76.9230769230769,4,2,1,80,0,1
282440,-133.333333333333,4,2,1,70,0,1
282527,-133.333333333333,4,2,1,5,0,1
282613,-133.333333333333,4,2,1,70,0,1
282699,-133.333333333333,4,2,1,5,0,1
282785,-133.333333333333,4,2,1,70,0,1
283475,-133.333333333333,4,2,1,80,0,1
283647,-133.333333333333,4,2,1,70,0,1
284164,-100,4,2,2,60,0,0
284854,-100,4,2,2,55,0,0
285199,-100,4,2,2,50,0,0
285544,-100,4,2,2,55,0,0
286233,-100,4,2,2,60,0,0
286578,-100,4,2,4,90,0,0
286923,-58.8235294117647,4,2,1,70,0,1
287613,-76.9230769230769,4,2,1,80,0,1
287958,-133.333333333333,4,2,1,70,0,1
288044,-133.333333333333,4,2,1,5,0,1
288130,-133.333333333333,4,2,1,70,0,1
288216,-133.333333333333,4,2,1,5,0,1
288302,-76.9230769230769,4,2,1,70,0,1
288992,-76.9230769230769,4,2,1,80,0,1
289337,-76.9230769230769,4,2,1,70,0,1
289682,-111.111111111111,4,2,1,70,0,1
290199,-100,4,2,1,72,0,1
290716,-90.9090909090909,4,2,1,74,0,1
291233,-83.3333333333333,4,2,1,76,0,1
291751,-83.3333333333333,4,2,1,80,0,1
292440,-58.8235294117647,4,2,1,70,0,1
293130,-76.9230769230769,4,2,1,80,0,1
293475,-133.333333333333,4,2,1,70,0,1
293561,-133.333333333333,4,2,1,5,0,1
293647,-133.333333333333,4,2,1,70,0,1
293733,-133.333333333333,4,2,1,5,0,1
293820,-76.9230769230769,4,2,1,70,0,1
294509,-76.9230769230769,4,2,1,80,0,1
294854,-76.9230769230769,4,2,1,70,0,1
295199,-58.8235294117647,4,2,1,70,0,1
295889,-76.9230769230769,4,2,1,80,0,1
296233,-76.9230769230769,4,2,1,70,0,1
297268,-100,4,2,4,90,0,1
297354,-100,4,2,4,5,0,1
297440,-100,4,2,4,90,0,1
297527,-100,4,2,4,5,0,1
297613,-100,4,2,4,90,0,1
297699,-100,4,2,4,5,0,1
297785,-100,4,2,4,90,0,1
297871,-100,4,2,4,5,0,1
297958,-58.8235294117647,4,2,1,70,0,1
298647,-76.9230769230769,4,2,1,80,0,1
298992,-133.333333333333,4,2,1,70,0,1
299078,-133.333333333333,4,2,1,5,0,1
299164,-133.333333333333,4,2,1,70,0,1
299251,-133.333333333333,4,2,1,5,0,1
299337,-76.9230769230769,4,2,1,70,0,1
300027,-76.9230769230769,4,2,1,80,0,1
300371,-76.9230769230769,4,2,1,70,0,1
300716,-111.111111111111,4,2,1,70,0,1
301233,-99.9999999999999,4,2,1,72,0,1
301751,-90.9090909090909,4,2,1,74,0,1
302268,-83.3333333333333,4,2,1,76,0,1
302785,-83.3333333333333,4,2,1,80,0,1
303475,-58.8235294117647,4,2,1,70,0,1
304164,-76.9230769230769,4,2,1,80,0,1
304509,-133.333333333333,4,2,1,70,0,1
304595,-133.333333333333,4,2,1,5,0,1
304682,-133.333333333333,4,2,1,70,0,1
304768,-133.333333333333,4,2,1,5,0,1
304854,-133.333333333333,4,2,1,70,0,1
305544,-100,4,2,4,90,0,1
305630,-100,4,2,4,5,0,1
305716,-100,4,2,4,90,0,1
305802,-100,4,2,4,5,0,1
305889,-100,4,2,4,90,0,1
305975,-100,4,2,4,5,0,1
306061,-100,4,2,4,90,0,1
306147,-100,4,2,4,5,0,1
306233,-133.333333333333,4,2,4,90,0,1
306406,-133.333333333333,4,2,1,70,0,1
306751,-133.333333333333,4,2,4,90,0,1
306923,-133.333333333333,4,2,1,70,0,1
307268,-133.333333333333,4,2,4,90,0,1
307440,-133.333333333333,4,2,1,70,0,1
307613,-125,4,2,2,55,0,0
308302,-125,4,2,2,60,0,0
308647,-125,4,2,4,90,0,0
308992,-125,4,2,3,55,0,0
309682,-125,4,2,3,65,0,0
310027,-125,4,2,3,55,0,0
311061,-125,4,2,3,65,0,0
311406,-125,4,2,3,55,0,0
312009,-125,4,2,3,5,0,0
312095,-125,4,2,3,55,0,0
312440,-125,4,2,3,65,0,0
312785,-125,4,2,3,55,0,0
313820,-125,4,2,3,65,0,0
313992,-125,4,2,3,55,0,0
314768,-125,4,2,3,5,0,0
314854,-125,4,2,3,55,0,0
315199,-125,4,2,3,65,0,0
315544,-125,4,2,3,55,0,0
316578,-125,4,2,3,65,0,0
316923,-125,4,2,3,55,0,0
317527,-125,4,2,3,5,0,0
317613,-125,4,2,3,55,0,0
317958,-125,4,2,3,65,0,0
318302,-125,4,2,3,55,0,0
320027,-250,4,2,5,40,0,0
320716,-250,4,2,5,36,0,0
321406,-250,4,2,5,32,0,0
322095,-250,4,2,5,28,0,0
322613,-250,4,2,5,5,0,0
322785,-333.333333333333,4,2,5,35,0,0
323475,-333.333333333333,4,2,5,31,0,0
324164,-333.333333333333,4,2,5,27,0,0
324854,-333.333333333333,4,2,5,23,0,0
325371,-250,4,2,5,5,0,0
325544,-500,4,2,5,30,0,0
326233,-500,4,2,5,26,0,0
326923,-500,4,2,5,22,0,0
327613,-500,4,2,5,18,0,0
328130,-250,4,2,5,5,0,0
328302,-1000,4,2,5,25,0,0
328992,-1000,4,2,5,19,0,0
329682,-1000,4,2,5,13,0,0
330371,-1000,4,2,5,7,0,0
331061,-1000,4,2,5,5,0,0
331147,-1000,4,2,2,5,0,0

[Colours]
Combo1 : 32,208,89
Combo2 : 51,114,214
Combo3 : 192,192,192
Combo4 : 147,84,186
Combo5 : 34,224,193
Combo6 : 226,230,30

[HitObjects]
256,192,17613,12,0,22009,2:2:0:0:
256,192,22095,6,0,B|284:178|316:195|307:206|347:226|388:198,1,123.750004720688,6|0,1:2|2:2,2:2:0:0:
382,194,22440,2,0,L|364:111,2,82.5000031471254,8|0|0,2:2|2:2|2:2,2:2:0:0:
412,323,22958,5,10,2:2:0:0:
478,222,23130,1,2,2:2:0:0:
473,233,23302,1,2,2:2:0:0:
321,334,23475,70,0,L|174:347,1,123.750004720688,0|0,1:2|2:2,2:2:0:0:
191,358,23820,2,0,L|80:337,1,82.5000031471254,8|0,2:2|2:2,2:2:0:0:
33,324,24164,1,0,2:2:0:0:
36,213,24337,5,2,2:2:0:0:
177,198,24509,1,2,2:2:0:0:
174,210,24682,1,2,2:2:0:0:
312,80,24854,21,2,1:2:0:0:
344,170,25027,2,0,L|441:153,1,82.5000031471254,0|8,2:2|2:2,2:2:0:0:
227,0,25371,53,2,2:2:0:0:
198,111,25544,2,0,L|74:90,1,88,0|8,2:2|2:2,2:2:0:0:
274,241,25889,21,2,2:2:0:0:
315,368,26061,2,0,L|431:347,1,93.500001783371,0|0,2:2|1:2,2:2:0:0:
180,185,26406,53,2,2:2:0:0:
13,243,26578,2,0,L|-3:123,1,98.9999969787599,8|0,2:2|1:2,2:2:0:0:
219,97,26923,21,2,2:2:0:0:
78,10,27095,1,2,2:2:0:0:
168,25,27268,1,2,2:2:0:0:
0,51,27440,1,2,1:2:0:0:
221,179,27613,54,0,P|202:256|162:284,1,123.750004720688,2|0,1:2|2:2,2:2:0:0:
164,295,27958,2,0,L|70:279,2,82.5000031471254,8|0|0,2:2|2:2|2:2,2:2:0:0:
282,320,28475,69,10,2:2:0:0:
142,199,28647,1,2,2:2:0:0:
128,203,28820,1,2,2:2:0:0:
0,328,28992,6,0,L|20:176,1,123.750004720688,0|0,1:2|2:2,2:2:0:0:
28,198,29337,2,0,L|13:103,1,82.5000031471254,8|0,2:2|2:2,2:2:0:0:
1,38,29682,1,0,2:2:0:0:
127,102,29854,69,2,2:2:0:0:
205,87,30027,1,2,2:2:0:0:
283,72,30199,1,2,2:2:0:0:
240,238,30371,6,0,B|232:298|232:298|236:302|236:302|228:359,1,123.750004720688,2|0,1:2|2:2,2:2:0:0:
242,358,30716,2,0,B|249:300|249:300|245:296|245:296|253:236,1,123.750004720688,10|0,2:2|2:2,2:2:0:0:
264,160,31061,69,0,2:2:0:0:
390,187,31233,1,8,2:2:0:0:
337,104,31406,1,0,2:2:0:0:
337,90,31578,1,0,2:2:0:0:
191,96,31751,5,2,1:2:0:0:
212,10,31923,1,0,2:2:0:0:
177,104,32095,21,10,2:2:0:0:
101,32,32268,1,0,1:2:0:0:
110,184,32440,53,2,2:2:0:0:
137,298,32613,1,0,2:2:0:0:
97,178,32785,21,2,2:2:0:0:
14,283,32958,1,2,1:2:0:0:
219,220,33130,54,0,P|283:218|343:250,1,123.750004720688,2|0,1:2|2:2,2:2:0:0:
333,257,33475,2,0,L|345:167,2,82.5000031471254,8|0|0,2:2|2:2|2:2,2:2:0:0:
236,383,33992,1,8,2:2:0:0:
416,335,34164,1,2,2:2:0:0:
402,332,34337,1,2,2:2:0:0:
213,290,34509,70,0,L|193:149,1,123.750004720688,0|0,1:2|2:2,2:2:0:0:
182,161,34854,2,0,L|195:52,1,82.5000031471254,8|0,2:2|2:2,2:2:0:0:
203,0,35199,1,0,2:2:0:0:
277,137,35371,5,2,2:2:0:0:
93,199,35544,1,2,2:2:0:0:
99,213,35716,1,2,2:2:0:0:
327,286,35889,21,2,1:2:0:0:
290,372,36061,2,0,L|201:386,1,82.5000031471254,0|8,2:2|2:2,2:2:0:0:
257,224,36406,53,2,2:2:0:0:
327,300,36578,2,0,L|427:315,1,88,0|8,2:2|2:2,2:2:0:0:
338,125,36923,21,2,2:2:0:0:
260,238,37095,2,0,L|166:254,1,93.500001783371,0|0,2:2|1:2,2:2:0:0:
23,41,37440,53,2,2:2:0:0:
81,211,37613,2,0,L|64:315,1,98.9999969787599,8|0,2:2|1:2,2:2:0:0:
356,256,37958,21,2,2:2:0:0:
257,267,38130,1,2,2:2:0:0:
275,107,38302,1,2,2:2:0:0:
365,150,38475,1,2,1:2:0:0:
203,184,38647,54,0,B|146:191|105:177|105:177|88:188|65:192,1,123.750004720688,2|0,1:2|2:2,2:2:0:0:
81,199,38992,2,0,L|-3:187,2,82.5000031471254,8|0|0,2:2|2:2|2:2,2:2:0:0:
150,349,39509,69,10,2:2:0:0:
207,215,39682,1,2,2:2:0:0:
205,199,39854,1,2,2:2:0:0:
87,60,40027,6,0,L|221:40,1,123.750004720688,0|0,1:2|2:2,2:2:0:0:
218,53,40371,2,0,L|318:61,1,82.5000031471254,8|0,2:2|2:2,2:2:0:0:
379,66,40716,1,0,2:2:0:0:
476,184,40889,69,2,2:2:0:0:
397,195,41062,1,2,2:2:0:0:
318,206,41234,1,2,2:2:0:0:
347,333,41406,6,0,B|287:325|287:325|283:329|283:329|225:321,1,123.750004720688,2|0,2:2|2:2,2:2:0:0:
227,335,41751,2,0,B|285:342|285:342|289:338|289:338|349:346,1,123.750004720688,2|0,2:2|2:2,2:2:0:0:
427,358,42095,69,8,2:2:0:0:
406,229,42268,1,0,2:2:0:0:
481,280,42440,1,0,2:2:0:0:
494,276,42613,1,0,2:2:0:0:
476,113,42785,5,2,2:2:0:0:
512,26,42958,1,0,2:2:0:0:
461,119,43130,21,2,2:2:0:0:
418,10,43302,1,0,2:2:0:0:
321,145,43475,53,2,2:2:0:0:
315,33,43647,1,0,2:2:0:0:
312,155,43820,21,2,2:2:0:0:
168,130,43992,1,2,2:2:0:0:
142,306,44164,54,0,B|187:324|233:305|221:267|268:245|317:262,1,176,6|0,2:2|2:2,2:2:0:0:
455,331,45199,69,2,2:2:0:0:
483,156,45371,1,2,2:2:0:0:
330,111,45544,2,0,L|341:167,1,44
398,274,45889,5,2,2:2:0:0:
305,268,46061,1,2,2:2:0:0:
254,371,46233,2,0,L|308:361,1,44
399,259,46578,69,2,2:2:0:0:
401,242,46751,1,2,2:2:0:0:
220,211,46923,5,2,2:2:0:0:
198,115,47095,2,0,L|140:125,1,55,0|0,2:2|2:2,2:2:0:0:
290,150,47440,21,2,2:2:0:0:
241,261,47613,2,0,L|181:251,1,60.5000018463135,0|0,2:2|2:2,2:2:0:0:
329,219,47958,53,2,2:2:0:0:
308,36,48130,2,0,L|236:51,1,65.9999979858399,0|0,2:2|2:2,2:2:0:0:
480,134,48475,21,2,1:2:0:0:
412,329,48647,2,0,L|497:347,1,71.4999967269899,0|0,2:2|2:2,2:2:0:0:
241,192,48992,53,2,2:2:0:0:
290,325,49164,1,2,1:2:0:0:
381,217,49337,1,10,2:2:0:0:
144,293,49509,1,2,2:2:0:0:
159,118,49682,70,0,L|89:109,1,65.9999979858399,2|0,2:2|1:2,2:2:0:0:
3,97,50027,1,8,2:2:0:0:
35,180,50199,1,0,2:2:0:0:
179,37,50371,6,0,L|254:26,1,65.9999979858399,0|0,2:2|1:2,2:2:0:0:
364,12,50716,1,10,2:2:0:0:
315,124,50889,1,2,2:2:0:0:
477,141,51061,70,0,L|460:223,1,71.4999967269899,0|0,2:2|1:2,2:2:0:0:
512,277,51406,1,10,2:2:0:0:
447,340,51578,1,2,2:2:0:0:
334,263,51751,6,0,L|350:338,1,71.4999967269899,0|0,2:2|2:2,2:2:0:0:
269,361,52095,1,10,2:2:0:0:
271,347,52268,1,2,2:2:0:0:
86,206,52440,69,2,1:2:0:0:
222,251,52613,2,0,L|239:150,1,76.9999976501466,0|8,1:2|2:2,2:2:0:0:
130,28,52958,1,0,2:2:0:0:
132,45,53044,1,0,2:2:0:0:
133,62,53130,1,0,2:2:0:0:
135,78,53216,1,0,2:2:0:0:
136,95,53302,1,0,1:2:0:0:
187,334,53475,5,10,2:2:0:0:
293,84,53647,1,2,2:2:0:0:
427,302,53820,70,0,L|325:316,1,88,10|0,2:2|2:2,2:2:0:0:
339,328,54078,1,0,2:2:0:0:
337,342,54164,1,0,2:2:0:0:
103,314,54337,1,0,2:2:0:0:
102,299,54423,1,0,2:2:0:0:
100,284,54509,54,0,L|20:287,1,44,10|0,2:2|2:2,2:2:0:0:
74,109,54682,2,0,L|64:59,1,44,10|0,2:2|2:2,2:2:0:0:
247,84,54854,2,0,L|299:71,1,44,10|0,2:2|2:2,2:2:0:0:
271,258,55027,2,0,L|273:306,1,44,10|0,2:2|2:2,2:2:0:0:
31,197,55199,54,0,B|120:189|120:189|123:195|123:195|235:185|235:185|239:178|239:178|335:169,1,308,6|0,1:2|2:2,2:2:0:0:
412,53,56578,54,0,B|424:208|424:208|432:213|432:213|443:366,1,308,0|0,2:2|2:2,2:2:0:0:
220,241,57958,22,0,B|254:227|291:230|284:268|326:267|363:245,1,132,2|0,2:2|2:2,2:2:0:0:
326,152,58647,54,0,B|328:111|328:111|334:105|334:105|335:57,1,88,0|0,2:2|2:2,2:2:0:0:
220,114,59337,22,0,P|155:88|93:97,1,132,2|0,2:2|2:2,2:2:0:0:
29,140,60027,53,0,2:2:0:0:
142,184,60371,2,0,L|136:212,1,22,0|0,2:2|2:2,2:2:0:0:
213,352,60716,22,0,B|182:337|150:342|158:377|108:383|80:366,1,132,2|0,2:2|2:2,2:2:0:0:
20,328,61406,53,0,2:2:0:0:
201,266,61751,2,0,B|311:275|311:275|314:280|314:280|374:285|374:285|404:207|404:207|269:195,1,396,0|0,2:2|2:2,2:2:0:0:
134,314,63475,22,0,P|122:287|120:264,1,44,2|0,2:2|2:2,2:2:0:0:
141,125,63820,54,0,B|184:122|184:122|187:127|187:127|243:123,2,88,0|0|0,2:2|2:2|2:2,2:2:0:0:
308,102,64854,22,0,P|309:131|302:155,1,44,2|0,2:2|2:2,2:2:0:0:
266,251,65199,53,0,2:2:0:0:
345,239,65371,1,0,2:2:0:0:
181,227,65544,22,0,P|178:248|180:270,1,44,2|0,2:2|2:2,2:2:0:0:
244,365,65889,53,0,2:2:0:0:
439,228,66233,22,0,B|323:217|323:217|321:210|321:210|127:190,1,308,6|0,1:2|2:2,2:2:0:0:
71,310,67613,54,0,B|63:238|63:238|54:237|54:237|46:165|46:165|54:162|54:162|37:16,1,308,0|0,2:2|2:2,2:2:0:0:
150,104,68992,22,0,P|172:95|194:91,1,44,2|0,2:2|2:2,2:2:0:0:
269,102,69337,53,0,2:2:0:0:
202,218,69682,2,0,B|196:262|196:262|201:267|201:267|194:321,1,88,0|0,2:2|2:2,2:2:0:0:
318,232,70371,22,0,B|356:243|393:222|376:197|421:184|448:195,1,132,2|0,2:2|2:2,2:2:0:0:
512,220,71061,53,0,2:2:0:0:
389,384,71406,1,0,2:2:0:0:
329,146,71751,22,0,P|264:149|201:117,1,132,2|0,2:2|2:2,2:2:0:0:
168,49,72440,53,0,2:2:0:0:
145,203,72785,2,0,B|152:283|152:283|144:283|144:283|151:369|151:369|77:382|77:382|63:225,1,396,0|0,2:2|2:2,2:2:0:0:
266,307,74509,22,0,P|292:299|324:302,1,44,2|0,2:2|2:2,2:2:0:0:
385,321,74854,53,0,2:2:0:0:
461,187,75199,2,0,B|396:181|396:181|392:188|392:188|324:182,1,132,0|0,2:2|2:2,2:2:0:0:
129,172,75889,22,0,P|123:142|112:120,1,44,2|0,2:2|2:2,2:2:0:0:
56,52,76233,53,0,2:2:0:0:
211,325,76578,22,0,P|216:295|225:278,1,44,2|0,2:2|2:2,2:2:0:0:
292,203,76923,53,0,2:2:0:0:
113,268,77095,1,0,2:2:0:0:
136,53,77268,6,0,L|292:30,1,154,6|0,1:2|2:2,2:2:0:0:
294,41,77958,1,0,1:0:0:0:
510,127,78647,70,0,L|339:108,1,154,2|0,1:2|2:2,2:2:0:0:
352,122,79337,1,0,1:0:0:0:
287,311,79682,5,2,0:0:0:0:
258,145,79854,1,2,0:0:0:0:
43,229,80027,70,0,P|117:218|162:158,1,154,2|0,1:2|2:2,2:2:0:0:
154,147,80716,5,0,1:2:0:0:
47,100,81061,1,0,2:2:0:0:
81,315,81406,2,0,P|122:357|229:342,1,154,2|0,1:2|2:2,2:2:0:0:
216,341,82095,69,0,1:2:0:0:
256,192,82440,5,2,1:2:0:0:
361,324,82613,1,2,1:2:0:0:
376,80,82785,70,0,L|211:94,1,154,2|0,1:2|2:2,2:2:0:0:
217,80,83475,2,0,L|121:71,1,88,0|0,1:2|2:2,2:2:0:0:
123,85,84164,5,0,1:2:0:0:
134,163,84337,1,0,2:2:0:0:
145,242,84509,2,0,L|197:238,1,44,0|0,2:2|2:2,2:2:0:0:
260,179,84854,2,0,L|312:187,1,44,0|0,1:2|2:2,2:2:0:0:
230,381,85199,69,2,2:2:0:0:
271,262,85371,1,2,2:2:0:0:
162,141,85544,5,2,1:2:0:0:
55,120,85889,69,0,2:2:0:0:
119,42,86233,1,0,1:2:0:0:
220,51,86578,1,0,2:2:0:0:
284,271,86923,5,2,1:2:0:0:
297,265,87268,69,0,2:2:0:0:
309,191,87440,1,0,2:2:0:0:
321,117,87613,1,2,1:2:0:0:
379,316,87958,5,2,2:2:0:0:
244,340,88130,1,2,2:2:0:0:
105,164,88302,69,6,1:2:0:0:
61,333,88647,1,0,1:2:0:0:
105,164,88992,1,0,1:2:0:0:
61,333,89337,1,0,1:2:0:0:
127,288,89509,1,0,2:2:0:0:
191,240,89682,5,2,1:2:0:0:
213,339,90027,1,0,1:2:0:0:
191,240,90371,1,0,1:2:0:0:
213,339,90716,1,0,1:2:0:0:
317,363,90889,1,0,2:2:0:0:
422,384,91061,69,6,1:2:0:0:
373,167,91406,1,0,1:2:0:0:
422,384,91751,1,0,1:2:0:0:
373,167,92095,1,0,1:2:0:0:
294,180,92268,1,0,2:2:0:0:
216,194,92440,5,2,1:2:0:0:
183,294,92785,1,0,1:2:0:0:
216,194,93130,1,0,1:2:0:0:
183,294,93475,1,0,1:2:0:0:
360,218,93647,69,0,1:2:0:0:
374,220,93733,1,0,1:2:0:0:
387,222,93820,5,6,1:2:0:0:
367,378,93992,1,0,1:2:0:0:
456,310,94164,1,0,1:2:0:0:
299,290,94337,1,0,1:2:0:0:
155,355,94509,69,6,1:2:0:0:
189,196,94682,1,0,1:2:0:0:
83,215,94854,5,2,1:2:0:0:
99,294,95027,1,0,1:2:0:0:
298,167,95199,69,6,1:2:0:0:
458,187,95371,1,0,1:2:0:0:
397,41,95544,1,0,1:2:0:0:
366,261,95716,1,0,1:2:0:0:
170,119,95889,5,6,1:2:0:0:
81,318,96061,69,2,1:2:0:0:
56,183,96233,1,2,1:2:0:0:
35,47,96406,1,2,1:2:0:0:
212,19,96578,5,2,1:2:0:0:
226,21,96664,1,0,3:2:0:0:
243,23,96751,1,0,3:2:0:0:
259,25,96837,1,0,3:2:0:0:
288,51,96923,69,2,1:2:0:0:
310,46,97009,1,0,3:2:0:0:
334,42,97095,1,0,3:2:0:0:
358,37,97182,1,0,3:2:0:0:
392,16,97268,5,2,1:2:0:0:
395,46,97354,1,0,3:2:0:0:
392,79,97440,1,0,3:2:0:0:
378,107,97527,1,0,3:2:0:0:
360,140,97613,1,0,3:2:0:0:
348,180,97699,1,0,3:2:0:0:
354,221,97785,1,0,3:2:0:0:
382,260,97871,1,0,3:2:0:0:
432,273,97958,21,6,1:2:0:0:
478,171,98130,1,0,2:2:0:0:
436,286,98302,53,2,2:2:0:0:
287,265,98475,1,0,2:2:0:0:
271,263,98561,1,0,2:2:0:0:
255,261,98647,21,2,2:2:0:0:
309,384,98820,1,0,2:2:0:0:
107,106,98992,5,10,2:2:0:0:
45,362,99164,1,10,2:2:0:0:
206,177,99337,54,0,B|256:163|306:177|306:177|315:149|342:118,1,165.000006294251,6|0,1:2|2:2,2:2:0:0:
480,7,99682,1,8,2:2:0:0:
441,167,99854,1,0,3:2:0:0:
445,191,99940,1,0,3:2:0:0:
448,215,100027,1,0,3:2:0:0:
450,238,100113,1,0,3:2:0:0:
453,261,100199,1,0,1:2:0:0:
296,336,100371,54,0,P|265:337|239:327,1,41.2500015735627,10|0,2:2|2:2,1:2:0:0:
116,317,100544,2,0,P|137:323|159:322,1,41.2500015735627,2|0,2:2|2:2,1:2:0:0:
303,164,100716,70,0,P|319:105|348:44,1,121.000003692627,0|0,1:2|2:2,2:2:0:0:
114,7,101061,1,8,2:2:0:0:
202,209,101233,1,0,3:2:0:0:
213,187,101319,1,0,3:2:0:0:
218,162,101405,1,0,3:2:0:0:
214,136,101491,1,0,3:2:0:0:
205,115,101578,1,0,1:2:0:0:
0,196,101751,2,0,L|27:337,1,121.000003692627,8|0,2:2|2:2,2:2:0:0:
326,262,102095,38,0,B|291:250|244:274|260:313|192:325|153:288,1,165.000006294251,6|0,1:2|2:2,2:2:0:0:
81,93,102440,1,8,2:2:0:0:
15,194,102613,1,0,3:2:0:0:
37,190,102699,1,0,3:2:0:0:
60,186,102785,1,0,3:2:0:0:
82,182,102871,1,0,3:2:0:0:
103,179,102958,1,0,1:2:0:0:
192,76,103130,54,0,P|216:65|249:62,1,41.2500015735627,10|0,2:2|2:2,1:2:0:0:
358,106,103302,2,0,P|336:82|312:73,1,41.2500015735627,2|0,2:2|2:2,1:2:0:0:
263,159,103475,69,0,1:2:0:0:
293,4,103647,1,0,2:2:0:0:
510,112,103820,1,8,2:2:0:0:
361,241,103992,1,0,2:2:0:0:
339,237,104078,1,0,2:2:0:0:
315,233,104164,37,2,2:2:0:0:
101,194,104337,1,2,1:2:0:0:
191,383,104509,1,10,2:2:0:0:
245,94,104682,1,2,1:2:0:0:
0,258,104854,38,0,B|39:242|83:267|65:291|110:311|151:298,1,165.000006294251,6|0,1:2|2:2,2:2:0:0:
367,217,105199,1,8,2:2:0:0:
225,213,105371,1,0,3:2:0:0:
229,188,105458,1,0,3:2:0:0:
233,164,105544,1,0,3:2:0:0:
237,140,105630,1,0,3:2:0:0:
241,116,105716,1,0,1:2:0:0:
2,56,105889,6,0,P|24:46|71:47,1,41.2500015735627,10|0,2:2|2:2,1:2:0:0:
171,17,106061,2,0,P|144:9|106:12,1,41.2500015735627,2|0,2:2|2:2,1:2:0:0:
125,150,106233,22,0,P|136:218|140:280,1,121.000003692627,0|0,1:2|2:2,2:2:0:0:
0,376,106578,1,8,2:2:0:0:
224,330,106751,1,0,3:2:0:0:
213,351,106837,1,0,3:2:0:0:
193,368,106923,1,0,3:2:0:0:
170,379,107009,1,0,3:2:0:0:
145,384,107095,1,0,1:2:0:0:
240,176,107268,2,0,L|373:160,1,121.000003692627,8|0,2:2|2:2,2:2:0:0:
455,335,107613,38,0,P|361:309|316:249,1,165.000006294251,6|0,1:2|2:2,2:2:0:0:
332,80,107958,1,8,2:2:0:0:
446,198,108130,1,0,3:2:0:0:
421,195,108216,1,0,3:2:0:0:
396,193,108302,1,0,3:2:0:0:
373,191,108389,1,0,3:2:0:0:
350,189,108475,1,0,1:2:0:0:
162,272,108647,6,0,B|169:335|169:335|137:387,1,121.000003692627,10|0,2:2|2:2,1:2:0:0:
85,165,108992,21,0,1:2:0:0:
236,174,109164,1,0,2:2:0:0:
378,21,109337,1,8,2:2:0:0:
443,234,109509,37,0,2:2:0:0:
419,236,109595,1,0,2:2:0:0:
397,238,109682,1,2,2:2:0:0:
203,315,109854,53,0,1:2:0:0:
205,333,109940,1,0,1:2:0:0:
281,343,110027,5,10,2:2:0:0:
304,86,110199,1,10,2:2:0:0:
59,273,110371,54,0,B|104:291|148:264|124:244|180:211|224:232,1,165.000006294251,6|0,1:2|2:2,2:2:0:0:
393,309,110716,1,8,2:2:0:0:
480,201,110889,1,0,3:2:0:0:
457,199,110975,1,0,3:2:0:0:
434,197,111061,1,0,3:2:0:0:
410,195,111147,1,0,3:2:0:0:
385,192,111233,1,0,1:2:0:0:
202,39,111406,54,0,P|204:69|224:99,1,41.2500015735627,10|0,2:2|2:2,1:2:0:0:
111,118,111578,2,0,P|119:94|118:75,1,41.2500015735627,2|0,2:2|2:2,1:2:0:0:
229,247,111751,70,0,P|248:315|254:370,1,121.000003692627,0|0,1:2|2:2,2:2:0:0:
363,228,112095,1,8,2:2:0:0:
168,185,112268,1,0,3:2:0:0:
186,168,112354,1,0,3:2:0:0:
209,158,112441,1,0,3:2:0:0:
235,156,112527,1,0,3:2:0:0:
262,162,112613,1,0,1:2:0:0:
191,347,112785,2,0,L|311:350,1,121.000003692627,8|0,2:2|2:2,2:2:0:0:
478,138,113130,38,0,P|441:66|364:48,1,165.000006294251,6|0,1:2|2:2,2:2:0:0:
218,204,113475,1,8,2:2:0:0:
360,285,113647,1,0,3:2:0:0:
358,261,113733,1,0,3:2:0:0:
356,237,113820,1,0,3:2:0:0:
354,214,113906,1,0,3:2:0:0:
352,191,113992,1,0,1:2:0:0:
204,111,114164,54,0,P|173:111|144:102,1,41.2500015735627,10|0,2:2|2:2,1:2:0:0:
41,137,114337,2,0,P|64:131|90:116,1,41.2500015735627,2|0,2:2|2:2,1:2:0:0:
102,28,114509,69,0,1:2:0:0:
135,195,114682,1,0,2:2:0:0:
283,55,114854,1,8,2:2:0:0:
207,284,115027,1,0,2:2:0:0:
230,288,115113,1,0,2:2:0:0:
252,291,115199,37,2,2:2:0:0:
445,330,115371,1,2,1:2:0:0:
368,154,115544,1,10,2:2:0:0:
318,384,115716,1,2,2:2:0:0:
62,251,115889,38,0,B|103:263|152:227|132:198|193:177|231:200,1,165.000006294251,6|0,1:2|2:2,2:2:0:0:
364,264,116233,1,8,2:2:0:0:
207,284,116406,1,0,3:2:0:0:
203,309,116492,1,0,3:2:0:0:
201,333,116578,1,0,3:2:0:0:
198,356,116664,1,0,3:2:0:0:
195,379,116751,1,0,1:2:0:0:
288,157,116923,6,0,P|284:177|286:197,1,41.2500015735627,10|0,2:2|2:2,1:2:0:0:
332,322,117095,2,0,P|316:308|307:290,1,41.2500015735627,2|0,2:2|2:2,1:2:0:0:
491,257,117268,22,0,P|421:248|355:231,1,121.000003692627,0|0,1:2|2:2,2:2:0:0:
223,91,117613,1,8,2:2:0:0:
205,254,117785,1,0,3:2:0:0:
181,251,117871,1,0,3:2:0:0:
159,249,117958,1,0,3:2:0:0:
37,377,118130,37,2,1:2:0:0:
54,232,118302,1,10,2:2:0:0:
70,87,118475,1,2,2:2:0:0:
251,155,118647,38,0,B|374:142|374:142|377:148|377:148|510:136,1,247.500009441376,6|0,1:2|2:2,2:2:0:0:
455,156,118992,2,0,B|370:164|370:164|368:159|368:159|282:168,1,165.000006294251,10|0,2:2|2:2,2:2:0:0:
290,191,119251,1,0,2:2:0:0:
287,213,119337,1,0,2:2:0:0:
398,333,119509,1,0,1:2:0:0:
164,367,119682,2,0,L|182:227,1,121.000003692627,8|0,2:2|2:2,2:2:0:0:
68,82,120027,69,2,2:2:0:0:
7,175,120199,1,0,2:2:0:0:
86,84,120371,21,2,2:2:0:0:
110,209,120544,1,0,2:2:0:0:
200,80,120716,53,2,2:2:0:0:
201,220,120889,21,0,1:2:0:0:
219,215,120975,1,0,1:2:0:0:
280,261,121061,5,10,2:2:0:0:
323,26,121233,1,10,2:2:0:0:
512,151,121406,5,6,1:2:0:0:
501,229,121578,1,2,2:2:0:0:
490,307,121751,1,10,2:2:0:0:
318,376,121923,37,0,3:2:0:0:
296,372,122009,1,0,3:2:0:0:
274,369,122095,1,0,3:2:0:0:
253,367,122182,1,0,3:2:0:0:
232,364,122268,1,2,1:2:0:0:
49,367,122440,54,0,P|55:337|54:301,1,41.2500015735627,8|0,2:2|2:2,1:2:0:0:
34,203,122613,2,0,P|45:228|48:242,1,41.2500015735627,0|0,2:2|2:2,1:2:0:0:
171,285,122785,70,0,P|246:272|340:266,1,165,2|0,1:2|2:2,2:2:0:0:
341,254,123130,2,0,L|221:233,1,110,8|0,2:2|2:2,2:2:0:0:
105,172,123475,2,0,P|126:82|137:-3,1,165,2|0,2:2|2:2,2:2:0:0:
120,14,123820,1,8,2:2:0:0:
0,54,123992,1,0,2:2:0:0:
229,122,124164,37,6,1:2:0:0:
248,215,124337,1,2,2:2:0:0:
264,303,124509,1,10,2:2:0:0:
436,164,124682,38,0,P|455:100|478:54,1,110,0|0,2:2|2:2,2:2:0:0:
299,6,125027,1,2,1:2:0:0:
206,154,125199,6,0,P|215:182|208:215,1,41.2500015735627,8|0,2:2|2:2,1:2:0:0:
117,209,125371,2,0,P|107:180|113:148,1,41.2500015735627,0|0,2:2|2:2,1:2:0:0:
181,293,125544,22,0,P|257:298|351:317,1,165,2|0,1:2|2:2,2:2:0:0:
339,328,125889,1,8,2:2:0:0:
460,139,126061,1,0,2:2:0:0:
463,159,126147,1,0,2:2:0:0:
466,180,126233,2,0,P|403:190|350:205,1,110,2|0,2:2|1:2,2:2:0:0:
248,369,126578,1,8,2:2:0:0:
144,187,126751,1,0,1:2:0:0:
355,218,126923,37,6,1:2:0:0:
374,109,127095,1,2,2:2:0:0:
395,0,127268,1,10,2:2:0:0:
245,76,127440,37,0,3:2:0:0:
224,73,127527,1,0,3:2:0:0:
203,71,127613,1,0,3:2:0:0:
181,68,127699,1,0,3:2:0:0:
159,65,127785,1,2,1:2:0:0:
23,139,127958,54,0,P|33:161|37:190,1,41.2500015735627,8|0,2:2|2:2,1:2:0:0:
29,299,128130,2,0,P|37:280|40:259,1,41.2500015735627,0|0,2:2|2:2,1:2:0:0:
139,214,128302,70,0,P|209:203|309:195,1,165,2|0,1:2|2:2,2:2:0:0:
303,209,128647,1,8,2:2:0:0:
382,342,128820,2,0,P|312:327|259:322,1,110,2|0,2:2|2:2,2:2:0:0:
135,369,129164,1,0,1:2:0:0:
166,178,129337,2,0,L|153:50,1,110,8|0,2:2|2:2,2:2:0:0:
464,31,129682,38,0,B|401:9|342:44|368:87|293:110|237:73,1,230.99999295044,6|0,1:2|2:2,2:2:0:0:
257,69,130027,1,10,2:2:0:0:
242,223,130199,1,0,3:2:0:0:
263,221,130285,1,0,3:2:0:0:
284,218,130371,1,0,3:2:0:0:
365,330,130544,1,2,1:2:0:0:
505,165,130716,54,0,B|446:171|446:171|388:145,1,110,8|0,2:2|2:2,1:2:0:0:
133,167,131061,70,0,B|141:241|141:241|147:242|147:242|158:340,1,165,2|0,1:2|2:2,2:2:0:0:
144,334,131406,1,8,2:2:0:0:
12,180,131578,37,2,2:2:0:0:
20,195,131664,1,2,2:2:0:0:
2,191,131751,1,2,2:2:0:0:
96,35,131923,5,0,1:2:0:0:
110,48,132009,1,0,1:2:0:0:
178,14,132095,5,8,2:2:0:0:
144,158,132268,1,0,1:2:0:0:
328,98,132440,5,6,1:2:0:0:
389,150,132613,1,2,2:2:0:0:
469,138,132785,1,10,2:2:0:0:
309,17,132958,37,0,3:2:0:0:
288,23,133044,1,0,3:2:0:0:
268,37,133130,1,0,3:2:0:0:
255,57,133216,1,0,3:2:0:0:
248,80,133302,1,2,1:2:0:0:
315,236,133475,54,0,P|288:235|270:225,1,41.2500015735627,8|0,2:2|2:2,1:2:0:0:
165,282,133647,2,0,P|192:280|209:271,1,41.2500015735627,0|0,2:2|2:2,1:2:0:0:
281,352,133820,70,0,P|355:338|450:333,1,165,2|0,1:2|2:2,2:2:0:0:
450,345,134164,2,0,L|469:231,1,110,8|0,2:2|2:2,2:2:0:0:
318,154,134509,2,0,P|228:146|138:128,1,165,2|0,2:2|2:2,2:2:0:0:
162,121,134854,1,8,2:2:0:0:
208,261,135027,1,0,2:2:0:0:
32,224,135199,53,6,1:2:0:0:
3,353,135371,2,0,L|102:338,1,82.5000031471254,0|8,2:2|2:2,2:2:0:0:
380,162,135716,21,2,2:2:0:0:
410,324,135889,2,0,L|304:305,1,93.500001783371,0|0,2:2|1:2,2:2:0:0:
67,47,136233,53,10,2:2:0:0:
31,238,136406,2,0,L|141:219,1,104.499997209549,0|0,2:2|1:2,1:2:0:0:
438,59,136751,21,2,2:2:0:0:
188,16,136923,2,0,L|203:150,1,115.49999647522,8|0,2:2|2:2,2:2:0:0:
367,354,137268,53,2,2:2:0:0:
396,173,137440,1,2,1:2:0:0:
226,238,137613,1,10,2:2:0:0:
494,280,137785,1,2,2:2:0:0:
341,62,137958,69,6,1:2:0:0:
268,123,138130,1,2,2:2:0:0:
173,109,138302,1,10,2:2:0:0:
107,243,138475,37,0,3:2:0:0:
131,240,138561,1,0,3:2:0:0:
153,229,138647,1,0,3:2:0:0:
170,211,138733,1,0,3:2:0:0:
180,189,138820,1,2,1:2:0:0:
74,6,138992,6,0,P|92:13|113:16,1,41.2500015735627,8|0,2:2|2:2,1:2:0:0:
237,0,139164,2,0,P|218:8|198:13,1,41.2500015735627,0|0,2:2|2:2,1:2:0:0:
23,107,139337,22,0,P|34:167|20:297,1,165,2|0,1:2|2:2,2:2:0:0:
16,279,139682,1,8,2:2:0:0:
174,374,139854,2,0,P|112:358|57:361,1,110,2|0,2:2|2:2,2:2:0:0:
147,233,140199,1,0,1:2:0:0:
308,358,140371,2,0,L|292:230,1,110,8|0,2:2|2:2,2:2:0:0:
420,73,140716,38,0,B|345:100|338:26|228:35|198:78,1,230.99999295044,6|0,1:2|2:2,2:2:0:0:
208,86,141061,1,10,2:2:0:0:
356,195,141233,1,0,3:2:0:0:
358,174,141320,1,0,3:2:0:0:
361,153,141406,1,0,3:2:0:0:
496,143,141578,1,2,1:2:0:0:
462,304,141751,6,0,B|411:280|411:280|344:288,1,110,8|0,2:2|2:2,1:2:0:0:
188,187,142095,22,0,B|196:261|196:261|202:262|202:262|213:360,1,165,2|0,1:2|2:2,2:2:0:0:
199,354,142440,1,8,2:2:0:0:
0,230,142613,2,0,B|6:197|6:197|14:195|14:195|35:64,1,165,2|0,2:2|2:2,2:2:0:0:
23,64,142958,1,0,1:2:0:0:
244,88,143130,2,0,B|367:76|367:76|370:80|370:80|426:75,1,165,10|0,2:2|2:2,2:2:0:0:
414,88,143475,37,6,1:2:0:0:
425,167,143647,1,2,2:2:0:0:
434,245,143820,1,10,2:2:0:0:
298,357,143992,37,0,3:2:0:0:
276,353,144078,1,0,3:2:0:0:
254,350,144164,1,0,3:2:0:0:
233,348,144251,1,0,3:2:0:0:
212,345,144337,1,2,1:2:0:0:
50,193,144509,54,0,P|57:222|77:245,1,41.2500015735627,8|0,2:2|2:2,1:2:0:0:
145,178,144682,2,0,P|137:148|117:125,1,41.2500015735627,0|0,2:2|2:2,1:2:0:0:
201,266,144854,70,0,P|277:253|370:247,1,165,2|0,1:2|2:2,2:2:0:0:
370,261,145199,2,0,L|388:142,1,110,8|0,2:2|2:2,2:2:0:0:
282,42,145544,2,0,P|192:35|108:18,1,165,2|0,2:2|2:2,2:2:0:0:
127,8,145889,1,8,2:2:0:0:
146,155,146061,1,0,2:2:0:0:
308,127,146233,37,6,1:2:0:0:
293,215,146406,1,2,2:2:0:0:
277,303,146578,1,10,2:2:0:0:
65,227,146751,38,0,P|46:155|28:108,1,110,0|0,2:2|2:2,2:2:0:0:
187,84,147095,1,2,1:2:0:0:
144,278,147268,6,0,P|172:287|205:280,1,41.2500015735627,8|0,2:2|2:2,1:2:0:0:
309,278,147440,2,0,P|280:268|248:274,1,41.2500015735627,0|0,2:2|2:2,1:2:0:0:
268,384,147613,22,0,P|366:365|448:359,1,165,2|0,1:2|2:2,2:2:0:0:
439,371,147958,1,8,2:2:0:0:
377,168,148130,1,0,2:2:0:0:
374,188,148216,1,0,2:2:0:0:
371,209,148302,2,0,P|427:219|488:221,1,110,2|0,2:2|1:2,2:2:0:0:
512,97,148647,1,8,2:2:0:0:
306,118,148820,1,0,1:2:0:0:
243,299,148992,37,6,1:2:0:0:
224,190,149164,1,2,2:2:0:0:
203,81,149337,1,10,2:2:0:0:
15,213,149509,37,0,3:2:0:0:
37,216,149595,1,0,3:2:0:0:
59,219,149681,1,0,3:2:0:0:
80,221,149768,1,0,3:2:0:0:
101,224,149854,1,2,1:2:0:0:
143,363,150027,54,0,P|163:367|183:366,1,41.2500015735627,8|0,2:2|2:2,1:2:0:0:
312,331,150199,2,0,P|295:342|276:350,1,41.2500015735627,0|0,2:2|2:2,1:2:0:0:
207,259,150371,70,0,P|187:174|177:91,1,165,2|0,1:2|2:2,2:2:0:0:
190,90,150716,1,8,2:2:0:0:
361,113,150889,2,0,P|376:56|386:-21,1,110,2|0,2:2|2:2,2:2:0:0:
247,14,151233,1,0,1:2:0:0:
318,202,151406,2,0,L|434:190,1,110,8|0,2:2|2:2,2:2:0:0:
252,372,151751,38,0,P|134:332|111:219,1,230.99999295044,6|0,1:2|2:2,2:2:0:0:
120,234,152095,1,10,2:2:0:0:
255,140,152268,1,0,3:2:0:0:
234,137,152354,1,0,3:2:0:0:
213,135,152440,1,0,3:2:0:0:
162,15,152613,1,2,1:2:0:0:
372,48,152785,54,0,B|347:100|347:100|351:161,1,110,8|0,2:2|2:2,1:2:0:0:
483,334,153130,70,0,B|433:328|433:328|429:320|429:320|313:306,1,165,2|0,1:2|2:2,2:2:0:0:
317,320,153475,1,8,2:2:0:0:
113,365,153647,37,2,2:2:0:0:
105,380,153733,1,2,2:2:0:0:
123,376,153820,1,2,2:2:0:0:
219,171,153992,5,0,1:2:0:0:
213,151,154078,1,0,1:2:0:0:
136,147,154164,5,8,2:2:0:0:
237,40,154337,1,0,1:2:0:0:
438,175,154509,5,6,1:2:0:0:
377,227,154682,1,2,2:2:0:0:
297,215,154854,1,10,2:2:0:0:
261,39,155027,37,0,3:2:0:0:
284,46,155113,1,0,3:2:0:0:
304,60,155199,1,0,3:2:0:0:
318,79,155285,1,0,3:2:0:0:
324,100,155371,1,2,1:2:0:0:
64,90,155544,54,0,P|91:89|109:79,1,41.2500015735627,8|0,2:2|2:2,1:2:0:0:
214,136,155716,2,0,P|187:134|170:125,1,41.2500015735627,0|0,2:2|2:2,1:2:0:0:
19,214,155889,70,0,P|38:300|40:397,1,165,2|0,1:2|2:2,2:2:0:0:
30,384,156233,2,0,L|147:372,1,110,8|0,2:2|2:2,2:2:0:0:
327,283,156578,2,0,P|237:267|142:260,1,165,2|0,2:2|2:2,2:2:0:0:
158,273,156923,1,8,2:2:0:0:
195,115,157095,1,0,2:2:0:0:
366,162,157268,53,6,1:2:0:0:
313,47,157440,2,0,L|397:34,1,82.5000031471254,0|8,2:2|2:2,2:2:0:0:
235,326,157785,21,2,2:2:0:0:
270,169,157958,2,0,L|148:155,1,93.500001783371,0|0,2:2|1:2,2:2:0:0:
485,247,158302,53,10,2:2:0:0:
391,70,158475,2,0,L|501:53,1,104.499997209549,0|0,2:2|1:2,1:2:0:0:
251,246,158820,21,2,2:2:0:0:
0,286,158992,2,0,L|18:171,1,115.49999647522,8|0,2:2|2:2,2:2:0:0:
236,345,159337,53,2,2:2:0:0:
263,163,159509,1,2,1:2:0:0:
106,233,159682,1,10,2:2:0:0:
389,272,159854,1,2,2:2:0:0:
393,29,160027,69,6,1:2:0:0:
332,102,160199,1,2,2:2:0:0:
346,197,160371,1,10,2:2:0:0:
511,266,160544,37,0,3:2:0:0:
487,260,160630,1,0,3:2:0:0:
462,262,160716,1,0,3:2:0:0:
440,274,160802,1,0,3:2:0:0:
423,291,160889,1,2,1:2:0:0:
190,288,161061,6,0,P|204:300|223:310,1,41.2500015735627,8|0,2:2|2:2,1:2:0:0:
345,338,161233,2,0,P|324:339|303:336,1,41.2500015735627,0|0,2:2|2:2,1:2:0:0:
255,185,161406,22,0,P|191:171|76:172,1,165,2|0,1:2|2:2,2:2:0:0:
84,181,161751,1,8,2:2:0:0:
23,63,161923,2,0,P|82:55|133:43,1,110,2|0,2:2|2:2,2:2:0:0:
332,5,162268,37,2,1:2:0:0:
358,148,162440,1,10,2:2:0:0:
385,291,162613,1,2,2:2:0:0:
131,336,162785,6,0,B|144:227|144:227|157:229|157:229|171:99,1,230.99999295044,6|0,1:2|2:2,2:2:0:0:
185,141,163130,2,0,B|175:232|175:232|162:231|162:231|150:333,1,197.99999395752,2|0,2:2|2:2,2:2:0:0:
167,309,163475,1,0,2:2:0:0:
0,331,163647,1,2,2:2:0:0:
62,176,163820,2,0,P|49:99|32:37,1,131.99999597168,0|0,2:2|2:2,2:2:0:0:
274,31,164164,5,2,2:2:0:0:
380,58,164337,1,0,2:2:0:0:
265,44,164509,21,0,2:2:0:0:
284,157,164682,1,2,2:2:0:0:
469,154,164854,53,0,2:2:0:0:
393,252,165027,1,0,2:2:0:0:
479,167,165199,21,2,2:2:0:0:
496,323,165371,1,0,2:2:0:0:
324,365,165544,53,6,2:2:0:0:
247,358,165716,1,0,2:2:0:0:
292,294,165889,1,0,2:2:0:0:
365,86,168302,5,2,2:2:0:0:
367,102,168820,1,2,2:2:0:0:
199,112,169682,69,2,2:2:0:0:
159,255,170199,1,2,2:2:0:0:
179,183,170371,1,0,2:2:0:0:
299,308,171061,5,2,2:2:0:0:
277,169,171233,1,2,2:2:0:0:
460,114,173302,69,2,2:2:0:0:
398,66,173475,1,0,2:2:0:0:
472,35,173647,1,0,2:2:0:0:
366,158,173820,5,2,2:2:0:0:
238,97,174337,1,2,2:2:0:0:
232,114,174854,1,0,2:2:0:0:
290,270,175199,69,2,2:2:0:0:
144,298,175716,1,2,2:2:0:0:
217,284,175889,1,0,2:2:0:0:
52,168,176578,5,6,2:2:0:0:
199,198,176751,1,2,2:2:0:0:
279,353,179337,69,2,2:2:0:0:
282,334,179854,1,2,2:2:0:0:
410,202,180716,5,2,2:2:0:0:
450,345,181233,1,2,2:2:0:0:
430,273,181406,1,0,2:2:0:0:
270,230,182095,69,2,2:2:0:0:
307,77,182268,1,2,2:2:0:0:
19,172,184337,5,2,2:2:0:0:
29,250,184509,1,0,2:2:0:0:
40,328,184682,1,0,2:2:0:0:
156,238,184854,69,2,2:2:0:0:
304,314,185371,1,2,2:2:0:0:
286,317,185889,1,0,2:2:0:0:
358,141,186233,5,2,2:2:0:0:
212,169,186751,1,2,2:2:0:0:
285,155,186923,1,0,2:2:0:0:
355,382,187613,69,6,2:2:0:0:
379,227,187785,2,0,B|350:211|312:231|322:257|280:266|252:253,1,132,2|0,2:2|2:2,2:2:0:0:
227,137,188475,70,0,L|281:130,2,44,0|0|0,2:2|2:2|2:2,2:2:0:0:
218,154,189164,2,0,L|172:148,2,32.99999899292,0|0|0,2:2|2:2|2:2,2:2:0:0:
170,267,189854,6,0,L|181:227,2,32.99999899292
104,188,190371,6,0,P|88:135|62:110,1,88,2|0,2:2|2:2,2:2:0:0:
190,51,190889,2,0,P|223:49|267:59,1,66,2|0,2:2|2:2,2:2:0:0:
265,66,191233,54,0,L|272:17,2,44
347,188,191751,22,0,P|360:143|395:109,1,88,2|0,2:2|2:2,2:2:0:0:
429,291,192268,1,2,2:2:0:0:
350,281,192440,1,0,2:2:0:0:
315,348,192613,70,0,L|263:363,2,44
217,260,193130,5,2,2:2:0:0:
96,303,193302,2,0,P|91:215|120:170,1,132,2|0,2:2|2:2,2:2:0:0:
189,131,193992,54,0,L|180:78,2,44,0|0|0,2:2|2:2|2:2,2:2:0:0:
201,144,194682,2,0,L|194:183,2,32.99999899292,0|0|0,2:2|2:2|2:2,2:2:0:0:
292,94,195371,5,2,2:2:0:0:
349,149,195544,1,2,2:2:0:0:
425,126,195716,1,2,2:2:0:0:
439,264,195889,6,0,P|395:248|353:243,1,88,2|0,2:2|2:2,2:2:0:0:
296,325,196406,2,0,P|272:285|266:231,1,88,2|0,2:2|2:2,2:2:0:0:
178,287,196923,2,0,P|147:284|124:275,1,44,0|0,2:2|2:2,2:2:0:0:
20,342,197268,54,0,P|39:293|41:247,1,88,2|0,2:2|2:2,2:2:0:0:
133,189,197785,1,2,2:2:0:0:
6,140,197958,2,0,B|45:150|78:133|69:110|105:96|135:100,1,132,0|0,2:2|2:2,2:2:0:0:
267,135,198647,21,6,2:2:0:0:
222,241,198820,2,0,P|276:291|239:384,1,176,2|0,2:2|2:2,2:2:0:0:
134,312,199682,70,0,L|198:318,1,44,0|0,2:2|2:2,2:2:0:0:
182,335,200371,2,0,L|141:341,1,32.99999899292,0|0,2:2|2:2,2:2:0:0:
45,247,200889,70,0,L|39:279,2,32.99999899292
84,101,201406,22,0,P|131:117|173:112,1,88,2|0,2:2|2:2,2:2:0:0:
248,163,201923,2,0,P|281:149|318:148,1,66,2|0,2:2|2:2,2:2:0:0:
319,158,202268,70,0,L|312:206,2,44
399,25,202785,6,0,P|351:47|299:38,1,88,2|0,2:2|2:2,2:2:0:0:
170,0,203302,1,2,2:2:0:0:
151,78,203475,1,0,2:2:0:0:
226,119,203647,54,0,L|237:169,2,44
119,202,204164,21,2,2:2:0:0:
79,325,204337,2,0,B|115:341|152:326|141:300|184:283|217:302,1,132,2|0,2:2|2:2,2:2:0:0:
276,341,205027,70,0,L|285:398,2,44,0|0|0,2:2|2:2|2:2,2:2:0:0:
288,325,205716,2,0,L|295:280,2,32.99999899292,0|0|0,2:2|2:2|2:2,2:2:0:0:
384,336,206406,69,2,2:2:0:0:
434,276,206578,1,2,2:2:0:0:
407,205,206751,1,2,2:2:0:0:
283,152,206923,22,0,P|256:113|251:65,1,88,2|0,2:2|2:2,2:2:0:0:
163,124,207440,2,0,P|117:106|73:111,1,88,2|0,2:2|2:2,2:2:0:0:
95,242,207958,2,0,P|104:215|106:192,1,44,0|0,2:2|2:2,2:2:0:0:
176,300,208302,70,0,P|215:283|269:280,1,88,2|0,2:2|2:2,2:2:0:0:
361,206,208820,1,2,2:2:0:0:
410,311,208992,2,0,P|459:288|476:205,1,132,0|0,2:2|2:2,1:2:0:0:
375,50,209682,70,0,L|305:45,1,44,6|0,2:2|2:2,2:2:0:0:
251,40,210027,1,0,2:2:0:0:
286,112,210199,1,0,2:2:0:0:
151,124,210371,6,0,L|141:186,1,44,0|0,2:2|2:2,2:2:0:0:
231,343,210716,69,2,2:2:0:0:
56,318,210889,1,2,2:2:0:0:
212,208,211061,2,0,L|218:259,1,44
312,382,211406,5,2,2:2:0:0:
326,289,211578,1,2,2:2:0:0:
444,366,211751,2,0,L|396:371,1,44
454,247,212095,69,2,2:2:0:0:
457,262,212268,1,2,2:2:0:0:
291,213,212440,5,2,1:2:0:0:
325,301,212613,2,0,L|396:288,1,55,0|0,1:2|2:2,2:2:0:0:
494,44,212958,21,2,2:2:0:0:
460,158,213130,2,0,L|393:145,1,60.5000018463135,0|0,2:2|1:2,2:2:0:0:
166,64,213475,53,2,2:2:0:0:
219,242,213647,2,0,L|307:224,1,65.9999979858399,0|0,2:2|1:2,2:2:0:0:
65,160,213992,21,2,1:2:0:0:
320,76,214164,2,0,L|307:161,1,71.4999967269899,0|0,2:2|2:2,2:2:0:0:
44,314,214509,53,2,2:2:0:0:
261,348,214682,1,2,1:2:0:0:
137,384,214854,1,10,2:2:0:0:
175,165,215027,1,2,2:2:0:0:
348,290,215199,70,0,L|416:281,1,65.9999979858399,2|0,1:2|2:2,2:2:0:0:
501,269,215544,1,8,2:2:0:0:
466,351,215716,1,0,2:2:0:0:
360,192,215889,6,0,L|281:180,1,65.9999979858399,0|0,2:2|1:2,2:2:0:0:
179,204,216233,1,10,2:2:0:0:
227,325,216406,1,2,2:2:0:0:
72,277,216578,70,0,L|87:201,1,71.4999967269899,0|0,2:2|1:2,2:2:0:0:
92,101,216923,1,10,2:2:0:0:
1,136,217095,1,2,2:2:0:0:
184,0,217268,6,0,L|194:90,1,71.4999967269899,0|0,2:2|1:2,2:2:0:0:
151,158,217613,1,10,2:2:0:0:
166,161,217785,1,2,2:2:0:0:
303,71,217958,69,2,2:2:0:0:
429,125,218130,2,0,L|440:48,1,76.9999976501466,0|8,1:2|2:2,2:2:0:0:
304,242,218475,1,0,2:2:0:0:
319,240,218561,1,0,2:2:0:0:
335,238,218647,1,0,2:2:0:0:
351,236,218733,1,0,2:2:0:0:
367,234,218820,1,0,2:2:0:0:
200,375,218992,5,10,2:2:0:0:
246,128,219164,1,2,2:2:0:0:
67,243,219337,70,0,L|53:139,1,88,8|0,2:2|2:2,2:2:0:0:
42,159,219595,1,0,2:2:0:0:
28,162,219682,1,8,2:2:0:0:
174,17,219854,1,0,2:2:0:0:
176,31,219940,1,0,2:2:0:0:
178,44,220027,54,0,L|127:41,1,44,10|0,2:2|2:2,2:2:0:0:
371,48,220199,2,0,L|377:2,1,44,10|0,2:2|2:2,2:2:0:0:
368,249,220371,2,0,L|411:253,1,44,10|0,2:2|2:2,2:2:0:0:
169,241,220544,2,0,L|161:284,1,44,10|0,2:2|2:2,2:2:0:0:
426,165,220716,54,0,B|374:159|374:159|368:151|368:151|310:144|310:144|304:150|304:150|117:131,1,308,6|0,1:2|2:2,2:2:0:0:
33,20,222095,54,0,B|45:175|45:175|53:180|53:180|63:322,1,308,0|0,2:2|2:2,2:2:0:0:
150,218,223475,22,0,P|213:223|280:186,1,132,2|0,2:2|2:2,2:2:0:0:
196,105,224164,54,0,B|198:90|198:90|208:85|208:85|215:24,1,88,0|0,2:2|2:2,2:2:0:0:
316,79,224854,22,0,B|351:94|391:77|378:51|424:41|455:63,1,132,2|0,2:2|2:2,2:2:0:0:
504,100,225544,53,0,2:2:0:0:
441,198,225889,2,0,L|444:226,1,22,0|0,2:2|2:2,2:2:0:0:
299,162,226233,22,0,P|246:132|169:136,1,132,2|0,2:2|2:2,2:2:0:0:
106,173,226923,53,0,2:2:0:0:
169,339,227268,2,0,B|65:351|65:351|81:273|81:273|140:265|140:265|147:255|147:255|214:247|214:247|221:255|221:255|283:249,1,396,0|0,2:2|2:2,2:2:0:0:
237,372,228992,22,0,P|247:346|249:323,1,44,2|0,2:2|2:2,2:2:0:0:
246,172,229337,54,0,B|203:167|203:167|201:162|201:162|145:156,2,88,0|0|0,2:2|2:2|2:2,2:2:0:0:
83,189,230371,22,0,P|79:167|80:145,1,44,2|0,2:2|2:2,2:2:0:0:
105,44,230716,53,0,2:2:0:0:
31,13,230889,1,0,2:2:0:0:
182,3,231061,22,0,P|187:24|188:46,1,44,2|0,2:2|2:2,2:2:0:0:
171,156,231406,53,0,2:2:0:0:
411,284,231751,22,0,B|266:300|266:300|265:308|265:308|193:316|193:316|190:308|190:308|118:316,1,308,6|0,1:2|2:2,2:2:0:0:
17,374,233130,54,0,B|40:128|40:128|47:123|47:123|53:64,1,308,0|0,2:2|2:2,2:2:0:0:
129,194,234509,22,0,P|151:203|173:207,1,44,2|0,2:2|2:2,2:2:0:0:
282,192,234854,53,0,2:2:0:0:
206,38,235199,2,0,B|212:82|212:82|207:87|207:87|214:141,1,88,0|0,2:2|2:2,2:2:0:0:
242,280,235889,22,0,P|309:279|366:239,1,132,2|0,2:2|2:2,2:2:0:0:
382,167,236578,53,0,2:2:0:0:
464,357,236923,1,0,2:2:0:0:
454,107,237268,22,0,P|393:78|324:93,1,132,2|0,2:2|2:2,2:2:0:0:
267,138,237958,53,0,2:2:0:0:
72,36,238302,2,0,B|207:48|207:48|177:126|177:126|117:121|117:121|114:116|114:116|4:107,1,396,0|0,2:2|2:2,2:2:0:0:
274,0,240027,22,0,P|286:24|288:56,1,44,2|0,2:2|2:2,2:2:0:0:
274,151,240371,53,0,2:2:0:0:
477,95,240716,2,0,B|412:101|412:101|408:94|408:94|340:100,1,132,0|0,2:2|2:2,2:2:0:0:
217,215,241406,22,0,P|243:229|267:235,1,44,2|0,2:2|2:2,2:2:0:0:
356,236,241751,53,0,2:2:0:0:
160,282,242095,22,0,P|133:297|114:301,1,44,2|0,2:2|2:2,2:2:0:0:
19,294,242440,53,2,2:2:0:0:
159,384,242613,1,2,2:2:0:0:
107,212,242785,6,0,L|98:163,2,44,6|0|0,1:2|2:2|2:2,2:2:0:0:
15,163,243302,2,0,L|28:110,2,44,2|0|0,2:2|1:2|2:2,2:2:0:0:
122,40,243820,69,2,2:2:0:0:
171,102,243992,2,0,L|235:93,1,44,0|0,2:2|1:2,2:2:0:0:
338,82,244337,1,2,2:2:0:0:
318,159,244509,2,0,L|274:152,1,44,0|0,2:2|2:2,2:2:0:0:
215,267,244854,5,2,1:2:0:0:
291,252,245027,1,0,2:2:0:0:
230,345,245199,1,2,2:2:0:0:
201,188,245371,1,2,2:2:0:0:
137,280,245544,21,2,1:2:0:0:
57,234,245716,2,0,L|65:180,1,44,0|0,2:2|2:2,2:2:0:0:
215,182,246061,53,2,2:2:0:0:
295,123,246233,2,0,L|284:73,1,49.4999984893799,0|0,1:2|2:2,2:2:0:0:
115,103,246578,21,2,2:2:0:0:
13,53,246751,2,0,L|29:-11,1,55,0|0,2:2|1:2,2:2:0:0:
196,62,247095,53,2,2:2:0:0:
218,191,247268,2,0,L|299:201,1,60.5000018463135,0|0,2:2|2:2,2:2:0:0:
384,132,247613,21,2,1:2:0:0:
470,89,247785,1,2,2:2:0:0:
464,184,247958,1,2,1:2:0:0:
388,37,248130,1,2,1:2:0:0:
224,150,248302,54,0,L|236:96,2,55,2|0|0,1:2|2:2|2:2,2:2:0:0:
315,223,248820,2,0,L|306:168,2,55,2|0|0,2:2|1:2|2:2,2:2:0:0:
245,305,249337,5,2,2:2:0:0:
199,382,249509,2,0,L|130:372,1,55,0|0,2:2|1:2,2:2:0:0:
41,232,249854,1,2,2:2:0:0:
77,306,250027,2,0,L|136:295,1,55,0|0,2:2|2:2,2:2:0:0:
159,146,250371,69,2,1:2:0:0:
253,162,250544,1,0,2:2:0:0:
193,235,250716,1,2,2:2:0:0:
221,71,250889,1,2,2:2:0:0:
355,180,251061,21,2,1:2:0:0:
376,282,251233,2,0,L|302:271,1,55,0|0,2:2|2:2,2:2:0:0:
452,97,251578,53,2,2:2:0:0:
439,211,251751,2,0,L|519:196,1,60.5000018463135,0|0,1:2|2:2,2:2:0:0:
333,28,252095,21,2,2:2:0:0:
349,169,252268,2,0,L|273:155,1,65.9999979858399,0|0,2:2|1:2,2:2:0:0:
30,72,252613,53,2,2:2:0:0:
202,19,252785,2,0,L|191:108,1,71.4999967269899,0|0,2:2|2:2,2:2:0:0:
50,227,253130,21,2,1:2:0:0:
60,306,253302,1,2,2:2:0:0:
40,150,253475,1,2,2:2:0:0:
69,383,253647,1,2,2:2:0:0:
223,257,253820,53,6,1:2:0:0:
337,384,253992,2,0,L|347:306,1,65.9999979858399,2|0,2:2|1:2,2:2:0:0:
378,220,254337,2,0,L|312:229,1,65.9999979858399,0|0,2:2|1:2,2:2:0:0:
439,300,254682,2,0,L|504:310,1,65.9999979858399,0|0,2:2|1:2,2:2:0:0:
495,139,255027,6,0,L|507:203,1,65.9999979858399,2|0,2:2|1:2,2:2:0:0:
384,110,255371,2,0,L|394:45,1,65.9999979858399,0|0,2:1|1:2,2:2:0:0:
250,164,255716,2,0,L|185:151,1,65.9999979858399,0|0,2:2|1:2,2:2:0:0:
273,0,256061,2,0,L|283:66,1,65.9999979858399,0|0,2:2|1:2,2:2:0:0:
152,55,256406,2,0,L|119:60,2,32.99999899292,0|0|0,0:0|0:0|1:0,0:0:0:0:
393,124,256751,70,0,B|370:159|370:159|364:193,1,76.9999976501466,2|0,2:2|1:2,2:2:0:0:
512,323,257095,2,0,B|471:315|471:315|418:332,1,76.9999976501466,0|0,2:2|1:2,2:2:0:0:
269,302,257440,2,0,B|287:341|287:341|285:396,1,76.9999976501466,0|0,2:2|1:2,2:2:0:0:
60,362,257785,6,0,B|102:367|102:367|154:346,1,76.9999976501466,2|0,2:2|1:2,2:2:0:0:
77,147,258130,2,0,B|89:179|89:179|84:221,1,76.9999976501466,0|0,2:2|1:2,2:2:0:0:
304,222,258475,2,0,B|261:219|261:219|213:191,1,76.9999976501466,0|0,2:2|1:2,2:2:0:0:
293,0,258820,2,0,B|276:38|276:38|280:73,1,76.9999976501466,0|0,2:2|1:2,2:2:0:0:
335,372,259164,69,0,1:2:0:0:
331,358,259250,1,0,1:2:0:0:
328,345,259337,69,6,1:2:0:0:
302,206,259509,1,0,1:2:0:0:
248,290,259682,1,0,1:2:0:0:
387,264,259854,1,0,1:2:0:0:
205,210,260027,5,6,1:2:0:0:
40,276,260199,1,0,1:2:0:0:
90,161,260371,1,0,1:2:0:0:
161,328,260544,1,0,1:2:0:0:
229,78,260716,69,6,1:2:0:0:
434,148,260889,1,0,1:2:0:0:
367,11,261061,1,0,1:2:0:0:
296,215,261233,1,0,1:2:0:0:
451,307,261406,5,6,1:2:0:0:
188,359,261578,69,2,1:2:0:0:
165,224,261750,1,2,1:2:0:0:
142,88,261923,1,2,1:2:0:0:
368,120,262095,5,2,1:2:0:0:
366,134,262182,1,0,3:2:0:0:
364,151,262268,1,0,3:2:0:0:
362,167,262354,1,0,3:2:0:0:
353,188,262440,69,2,1:2:0:0:
358,210,262527,1,0,3:2:0:0:
362,234,262613,1,0,3:2:0:0:
367,258,262699,1,0,3:2:0:0:
350,285,262785,5,2,1:2:0:0:
338,314,262871,1,0,3:2:0:0:
314,335,262958,1,0,3:2:0:0:
284,345,263044,1,0,3:2:0:0:
245,343,263130,1,0,3:2:0:0:
204,321,263216,1,0,3:2:0:0:
165,287,263302,1,0,3:2:0:0:
112,278,263389,1,0,3:2:0:0:
67,310,263475,21,6,1:2:0:0:
0,222,263647,1,0,2:2:0:0:
63,323,263820,53,2,2:2:0:0:
101,179,263992,1,0,2:2:0:0:
243,218,264164,21,2,2:2:0:0:
191,79,264337,1,0,2:2:0:0:
432,0,264509,5,10,2:2:0:0:
298,356,264854,54,0,B|387:348|387:348|385:354|385:354|483:346,2,187.000003566742,6|0|0,1:2|2:2|2:2,2:2:0:0:
100,197,265371,1,0,2:2:0:0:
376,60,265544,2,0,L|355:229,1,142.99999345398,10|0,2:2|2:2,2:2:0:0:
77,28,265889,54,0,P|97:19|120:17,1,41.2500015735627,2|0,2:2|2:2,1:2:0:0:
185,104,266061,2,0,P|165:110|144:110,1,41.2500015735627,2|0,1:2|2:2,1:2:0:0:
73,286,266233,70,0,P|56:208|35:135,1,142.99999345398,2|0,1:2|2:2,2:2:0:0:
195,24,266578,1,0,2:2:0:0:
27,159,266751,1,0,1:2:0:0:
299,248,266923,2,0,L|319:91,1,142.99999345398,10|0,2:2|2:2,2:2:0:0:
512,160,267268,1,0,1:2:0:0:
329,117,267440,1,0,2:2:0:0:
283,365,267613,38,0,B|333:388|380:358|370:335|415:305|468:327,2,187.000003566742,6|0|0,1:2|2:2|2:2,2:2:0:0:
158,201,268130,1,0,1:2:0:0:
436,141,268302,2,0,L|454:-2,1,142.99999345398,10|0,2:2|2:2,2:2:0:0:
162,0,268647,54,0,P|180:8|201:11,1,41.2500015735627,2|0,2:2|2:2,1:2:0:0:
268,81,268820,2,0,P|247:87|226:100,1,41.2500015735627,2|0,1:2|2:2,1:2:0:0:
184,340,268992,69,2,1:2:0:0:
136,117,269164,1,2,2:2:0:0:
353,187,269337,1,2,2:2:0:0:
78,238,269509,1,0,1:2:0:0:
56,234,269595,1,0,2:2:0:0:
32,230,269682,2,0,L|14:75,1,142.99999345398,10|0,1:2|2:2,2:2:0:0:
201,6,270027,1,0,1:2:0:0:
0,96,270199,1,0,2:2:0:0:
217,275,270371,38,0,P|153:367|57:359,2,187.000003566742,6|0|0,1:2|2:2|2:2,2:2:0:0:
135,93,270889,1,0,1:2:0:0:
455,162,271061,2,0,L|312:175,1,142.99999345398,10|0,2:2|2:2,2:2:0:0:
369,370,271406,54,0,P|359:352|354:332,1,41.2500015735627,2|0,2:2|2:2,1:2:0:0:
456,276,271578,2,0,P|452:296|442:314,1,41.2500015735627,2|0,1:2|2:2,1:2:0:0:
179,265,271751,69,2,1:2:0:0:
98,349,271923,1,0,2:2:0:0:
196,375,272095,1,2,2:2:0:0:
88,257,272268,1,0,1:2:0:0:
311,63,272440,37,10,2:2:0:0:
294,263,272613,1,0,2:2:0:0:
158,151,272785,1,2,1:2:0:0:
385,168,272958,1,0,2:2:0:0:
162,48,273130,38,0,P|61:110|54:185,2,187.000003566742,6|0|0,1:2|2:2|2:2,2:2:0:0:
394,161,273647,1,0,1:2:0:0:
173,373,273820,37,10,2:2:0:0:
131,155,273992,1,0,2:2:0:0:
292,300,274164,1,2,1:2:0:0:
44,335,274337,1,0,2:2:0:0:
1,91,274509,37,2,1:2:0:0:
214,258,274682,1,2,2:2:0:0:
261,0,274854,1,2,2:2:0:0:
38,176,275027,53,0,1:2:0:0:
33,194,275113,1,0,1:2:0:0:
65,260,275200,6,0,L|133:250,1,55,10|0,2:2|2:2,2:2:0:0:
278,381,275371,2,0,L|218:371,1,55,10|0,2:2|2:2,2:2:0:0:
273,157,275544,2,0,L|339:147,1,55,10|0,2:2|2:2,2:2:0:0:
500,286,275716,2,0,L|440:278,1,55,10|0,2:2|2:2,2:2:0:0:
200,252,275889,54,0,B|189:193|189:193|185:189|185:189|177:136|177:136|183:132|183:132|174:70,2,187.000003566742,6|0|0,1:2|2:2|2:2,2:2:0:0:
356,322,276406,1,0,1:2:0:0:
58,379,276578,2,0,L|77:229,1,142.99999345398,10|0,2:2|2:2,2:2:0:0:
175,76,276923,54,0,P|159:60|129:48,1,41.2500015735627,2|0,2:2|2:2,1:2:0:0:
8,53,277095,2,0,P|27:44|69:42,1,41.2500015735627,2|0,1:2|2:2,1:2:0:0:
213,222,277268,70,0,P|270:203|359:183,1,142.99999345398,2|0,1:2|2:2,2:2:0:0:
287,29,277613,1,0,2:2:0:0:
351,199,277785,1,0,1:2:0:0:
82,184,277958,2,0,L|113:339,1,142.99999345398,10|0,2:2|2:2,2:2:0:0:
301,294,278302,1,0,1:2:0:0:
95,325,278475,1,0,2:2:0:0:
362,368,278647,38,0,P|462:351|515:281,2,187.000003566742,6|0|0,1:2|2:2|2:2,2:2:0:0:
178,255,279164,1,0,1:2:0:0:
423,169,279337,2,0,L|446:10,1,142.99999345398,10|0,2:2|2:2,2:2:0:0:
213,123,279682,54,0,P|233:122|252:113,1,41.2500015735627,2|0,2:2|2:2,1:2:0:0:
230,18,279854,2,0,P|198:23|175:45,1,41.2500015735627,2|0,1:2|2:2,1:2:0:0:
53,184,280027,69,2,1:2:0:0:
224,320,280199,1,2,2:2:0:0:
22,382,280371,1,2,2:2:0:0:
216,143,280544,1,0,1:2:0:0:
220,165,280630,1,0,2:2:0:0:
224,189,280717,2,0,L|379:207,1,142.99999345398,10|0,2:2|2:2,2:2:0:0:
433,39,281061,1,0,1:2:0:0:
361,218,281233,1,0,2:2:0:0:
128,81,281406,38,0,P|202:30|287:62,2,187.000003566742,6|0|0,1:2|2:2|2:2,2:2:0:0:
76,268,281923,1,0,1:2:0:0:
345,118,282095,2,0,L|319:281,1,142.99999345398,10|0,2:2|2:2,2:2:0:0:
507,365,282440,54,0,P|482:366|466:360,1,41.2500015735627,2|0,2:2|2:2,1:2:0:0:
449,267,282613,2,0,P|472:262|502:277,1,41.2500015735627,2|0,1:2|2:2,1:2:0:0:
287,366,282785,69,2,1:2:0:0:
155,271,282958,1,0,2:2:0:0:
176,382,283130,1,2,2:2:0:0:
271,250,283303,1,0,1:2:0:0:
44,202,283475,37,10,2:2:0:0:
141,0,283647,37,2,2:2:0:0:
183,159,283820,1,2,1:2:0:0:
225,319,283992,1,2,2:2:0:0:
322,154,284164,21,6,2:2:0:0:
410,84,284337,1,0,2:2:0:0:
400,165,284509,1,2,2:2:0:0:
332,76,284682,1,0,2:2:0:0:
197,131,284854,69,2,2:2:0:0:
206,167,285027,1,0,2:2:0:0:
129,212,285199,1,2,2:2:0:0:
131,198,285371,1,0,2:2:0:0:
37,108,285544,5,2,2:2:0:0:
137,64,285716,1,0,2:2:0:0:
47,121,285889,21,2,2:2:0:0:
28,15,286061,1,0,2:2:0:0:
211,0,286233,53,2,2:2:0:0:
186,141,286406,21,0,1:2:0:0:
200,154,286492,1,0,1:2:0:0:
268,120,286578,5,10,2:2:0:0:
345,341,286751,1,10,2:2:0:0:
502,51,286923,54,0,B|483:49|483:49|475:55|475:55|317:39,1,187.000003566742,6|0,1:2|2:2,2:2:0:0:
267,235,287268,1,0,2:2:0:0:
312,52,287440,1,0,1:2:0:0:
28,115,287613,2,0,L|55:285,1,142.99999345398,10|0,2:2|2:2,2:2:0:0:
250,360,287958,54,0,P|221:356|207:349,1,41.2500015735627,2|0,2:2|2:2,1:2:0:0:
87,374,288130,2,0,P|111:369|135:349,1,41.2500015735627,2|0,1:2|2:2,1:2:0:0:
148,168,288302,70,0,P|219:164|296:150,1,142.99999345398,2|0,1:2|2:2,2:2:0:0:
345,327,288647,1,0,2:2:0:0:
289,139,288820,1,0,1:2:0:0:
512,221,288992,2,0,L|488:382,1,142.99999345398,10|0,2:2|2:2,2:2:0:0:
293,383,289337,1,0,1:2:0:0:
476,365,289509,1,0,2:2:0:0:
236,265,289682,53,6,1:2:0:0:
292,123,289854,2,0,L|194:113,1,98.9999969787599,0|0,2:2|2:2,2:2:0:0:
73,379,290199,21,2,1:2:0:0:
2,197,290371,2,0,L|112:184,1,110,8|0,2:2|2:2,2:2:0:0:
349,262,290716,53,2,2:2:0:0:
412,54,290889,2,0,L|292:39,1,121.000003692627,0|0,1:2|1:2,1:2:0:0:
164,304,291233,21,2,2:2:0:0:
465,384,291406,2,0,L|439:239,1,131.99999597168,0|0,2:2|1:2,2:2:0:0:
301,22,291751,53,10,2:2:0:0:
231,245,291923,1,2,2:2:0:0:
462,185,292095,1,2,1:2:0:0:
180,107,292268,1,2,2:2:0:0:
232,363,292440,70,0,P|338:341|374:261,1,187.000003566742,6|0,1:2|2:2,2:2:0:0:
334,126,292785,1,0,2:2:0:0:
361,270,292958,1,0,1:2:0:0:
61,238,293130,2,0,L|85:88,1,142.99999345398,10|0,2:2|2:2,2:2:0:0:
344,48,293475,54,0,P|316:48|292:60,1,41.2500015735627,2|0,2:2|2:2,1:2:0:0:
198,105,293647,2,0,P|225:117|258:115,1,41.2500015735627,2|0,1:2|2:2,1:2:0:0:
455,155,293820,70,0,P|423:209|391:291,1,142.99999345398,2|0,2:2|2:2,2:2:0:0:
202,231,294164,1,0,2:2:0:0:
405,289,294337,1,0,1:2:0:0:
227,24,294509,2,0,L|50:47,1,142.99999345398,10|0,2:2|2:2,2:2:0:0:
112,207,294854,1,0,1:2:0:0:
91,29,295027,1,0,2:2:0:0:
85,300,295199,38,0,B|131:320|196:294|175:260|226:232|270:251,1,187.000003566742,6|0,1:2|2:2,2:2:0:0:
415,372,295544,1,0,2:2:0:0:
259,258,295716,1,0,1:2:0:0:
512,107,295889,2,0,L|498:252,1,142.99999345398,10|0,2:2|2:2,2:2:0:0:
366,37,296233,54,0,B|295:42|295:42|223:22,1,142.99999345398,0|0,1:2|2:2,1:2:0:0:
49,202,296578,69,2,1:2:0:0:
267,160,296751,1,2,2:2:0:0:
193,368,296923,1,2,2:2:0:0:
149,53,297095,53,0,1:2:0:0:
154,71,297181,1,0,1:2:0:0:
133,147,297268,6,0,L|208:137,1,55,10|0,2:2|2:2,2:2:0:0:
323,384,297440,2,0,L|243:376,1,55,10|0,2:2|2:2,2:2:0:0:
363,158,297613,2,0,L|370:233,1,55,10|0,2:2|2:2,2:2:0:0:
122,351,297785,2,0,L|127:271,1,55,10|0,2:2|2:2,2:2:0:0:
306,76,297958,54,0,P|407:74|469:145,1,187.000003566742,6|0,1:2|2:2,2:2:0:0:
374,301,298302,1,0,2:2:0:0:
457,145,298475,1,0,1:2:0:0:
197,226,298647,2,0,L|225:384,1,142.99999345398,10|0,2:2|2:2,2:2:0:0:
8,264,298992,54,0,P|12:237|28:208,1,41.2500015735627,2|0,2:2|2:2,1:2:0:0:
28,97,299164,2,0,P|37:121|36:141,1,41.2500015735627,2|0,1:2|2:2,1:2:0:0:
280,145,299337,70,0,P|212:133|133:108,1,142.99999345398,2|0,1:2|2:2,2:2:0:0:
287,0,299682,1,0,2:2:0:0:
146,96,299854,1,0,1:2:0:0:
418,71,300027,2,0,L|402:219,1,142.99999345398,10|0,2:2|2:2,2:2:0:0:
512,336,300371,1,0,1:2:0:0:
389,219,300544,1,0,2:2:0:0:
150,366,300716,53,6,1:2:0:0:
58,237,300889,2,0,L|154:216,1,98.9999969787599,0|0,2:2|2:2,2:2:0:0:
429,341,301233,21,2,1:2:0:0:
502,168,301406,2,0,L|394:144,1,110,8|0,2:2|2:2,2:2:0:0:
94,310,301751,53,2,2:2:0:0:
0,84,301923,2,0,L|139:57,1,121.000003692627,0|0,1:2|1:2,1:2:0:0:
314,282,302268,21,2,2:2:0:0:
1,325,302440,2,0,L|21:195,1,131.99999597168,0|0,2:2|1:2,2:2:0:0:
370,72,302785,53,10,2:2:0:0:
325,286,302957,1,2,2:2:0:0:
162,139,303129,1,2,1:2:0:0:
458,192,303302,1,2,2:2:0:0:
336,383,303475,70,0,P|267:352|245:232,1,187.000003566742,6|0,1:2|2:2,2:2:0:0:
392,150,303820,1,0,2:2:0:0:
253,243,303992,1,0,1:2:0:0:
310,11,304164,2,0,L|156:-1,1,142.99999345398,10|0,2:2|2:2,2:2:0:0:
4,142,304509,54,0,P|10:166|24:186,1,41.2500015735627,2|0,2:2|2:2,1:2:0:0:
144,207,304682,2,0,P|124:212|103:213,1,41.2500015735627,2|0,1:2|2:2,1:2:0:0:
2,354,304854,69,2,1:2:0:0:
159,342,305027,1,2,2:2:0:0:
315,329,305199,1,2,2:2:0:0:
477,133,305371,53,0,1:2:0:0:
472,151,305457,1,0,1:2:0:0:
493,230,305544,6,0,L|431:219,1,55,10|0,2:2|2:2,2:2:0:0:
264,255,305716,2,0,L|275:180,1,55,10|0,2:2|2:2,2:2:0:0:
241,25,305889,2,0,L|306:35,1,55,10|0,2:2|2:2,2:2:0:0:
469,2,306061,2,0,L|456:71,1,55,10|0,2:2|2:2,2:2:0:0:
228,127,306233,5,14,2:2:0:0:
32,102,306406,1,2,2:2:0:0:
8,176,306578,1,0,1:2:0:0:
275,249,306751,69,14,2:2:0:0:
383,63,306924,1,2,2:2:0:0:
315,22,307096,1,0,1:2:0:0:
150,219,307268,5,14,2:2:0:0:
336,369,307441,1,2,2:2:0:0:
403,334,307613,21,2,2:2:0:0:
433,226,307785,1,0,2:2:0:0:
418,337,307958,21,2,2:2:0:0:
329,283,308130,1,0,2:2:0:0:
333,127,308302,53,2,2:2:0:0:
172,231,308475,21,0,1:2:0:0:
168,249,308561,1,0,1:2:0:0:
101,285,308647,5,10,2:2:0:0:
0,27,308820,1,10,2:2:0:0:
235,44,308992,37,6,1:2:0:0:
322,35,309164,1,2,2:2:0:0:
409,26,309337,1,2,2:2:0:0:
453,161,309509,69,0,1:2:0:0:
371,326,309682,2,0,L|351:223,1,88,8|0,2:2|2:2,2:2:0:0:
168,227,310027,2,0,P|213:241|253:246,1,88,0|0,2:2|1:2,2:2:0:0:
55,360,310371,6,0,B|57:336|57:336|52:331|52:331|58:270,1,88,2|0,1:2|2:2,2:2:0:0:
3,176,310716,1,0,2:2:0:0:
67,267,310889,1,0,1:2:0:0:
216,130,311061,2,0,L|117:118,1,88,8|0,2:2|2:2,2:2:0:0:
167,17,311406,1,0,1:2:0:0:
121,130,311578,1,0,2:2:0:0:
320,144,311751,70,0,P|287:208|218:233,1,132,6|0,1:2|2:2,2:2:0:0:
226,219,312095,2,0,B|269:223|269:223|270:230|270:230|320:235,1,88,2|0,2:2|1:2,2:2:0:0:
393,384,312440,2,0,L|384:292,1,88,10|0,2:2|2:2,2:2:0:0:
494,228,312785,2,0,B|487:270|487:270|480:271|480:271|473:321,1,88,2|0,2:2|1:2,2:2:0:0:
257,304,313130,6,0,B|191:311|191:311|184:318|184:318|129:324|129:324|96:252|96:252|148:246,1,264,2|0,1:2|1:2,2:2:0:0:
310,239,313820,69,10,2:2:0:0:
329,128,313992,1,0,2:2:0:0:
374,193,314164,1,2,1:2:0:0:
264,173,314336,1,0,2:2:0:0:
331,34,314509,6,0,B|357:31|415:39|381:94|440:88|489:66,1,132,6|0,1:2|2:2,2:2:0:0:
455,66,314854,1,0,2:2:0:0:
479,182,315027,1,0,1:2:0:0:
315,119,315199,2,0,L|225:129,1,88,10|0,2:2|2:2,2:2:0:0:
146,223,315544,2,0,B|169:226|169:226|174:232|174:232|229:239,1,88,2|0,2:2|1:2,2:2:0:0:
377,260,315889,69,0,1:2:0:0:
280,358,316061,1,0,2:2:0:0:
357,336,316233,1,0,2:2:0:0:
213,313,316406,1,0,1:2:0:0:
278,157,316578,6,0,L|259:55,1,88,8|0,2:2|2:2,2:2:0:0:
142,92,316923,2,0,P|93:84|54:72,1,88,0|0,1:2|2:2,2:2:0:0:
101,209,317268,70,0,P|89:286|37:311,1,132,6|0,1:2|2:2,2:2:0:0:
37,300,317613,2,0,B|82:307|82:307|83:302|83:302|140:312,1,88,2|0,2:2|1:2,2:2:0:0:
285,249,317958,2,0,L|176:265,1,88,10|0,2:2|2:2,2:2:0:0:
359,361,318302,2,0,P|367:312|388:265,1,88,2|0,1:2|2:2,2:2:0:0:
452,126,318647,5,2,2:2:0:0:
363,114,318820,1,2,2:2:0:0:
276,102,318992,2,0,B|270:60|270:60|276:52|276:52|268:8,1,88,2|0,2:2|2:2,2:2:0:0:
169,151,319337,2,0,B|208:166|208:166|212:176|212:176|254:191,1,88,2|0,2:2|2:2,2:2:0:0:
171,37,319682,2,0,B|137:63|137:63|127:61|127:61|93:90,1,88,2|0,2:2|2:2,2:2:0:0:
328,210,320027,6,0,B|339:233|360:258|388:256|413:259|462:230|506:319|458:371|458:371|403:335|415:278|463:261|493:198|490:163|478:123|435:94|435:94|413:111|394:132|398:188,1,660,6|0,2:2|2:2,2:2:0:0:
342,325,322785,70,0,B|311:377|181:374|254:291|138:289|88:321|88:321|91:289|69:258|69:258|139:273|151:333|126:370,1,494.999984893799,2|0,2:2|2:2,2:2:0:0:
175,223,325544,6,0,B|146:189|119:180|96:175|96:175|171:173|208:152|252:95|173:35|127:63|119:96|120:98,1,330,2|0,2:2|2:2,2:2:0:0:
251,29,328302,70,0,P|282:109|255:191,1,176,2|0,2:2|2:2,2:2:0:0:
256,192,331147,12,0,335544,2:2:0:0:
