osu file format v14

[General]
AudioFilename: audio.mp3
AudioLeadIn: 0
PreviewTime: 181438
Countdown: 1
SampleSet: Soft
StackLeniency: 0.2
Mode: 0
LetterboxInBreaks: 0
EpilepsyWarning: 1
WidescreenStoryboard: 1

[Editor]
Bookmarks: 22068,71724,82758,110344,146206,182068,204137,215172,242758,275862,297931
DistanceSpacing: 1.7
BeatDivisor: 4
GridSize: 32
TimelineZoom: 2.4

[Metadata]
Title:Living Color (Dezpot Remix)
TitleUnicode:Living Color (Dezpot Remix)
Artist:MitiS
ArtistUnicode:MitiS
Creator:ProfessionalBox
Version:Vividness
Source:
Tags:collab collaboration -tochi xilver neurofunk drum and bass dubstep wub dnb rrtyui bonzi byfar probox
BeatmapID:1130281
BeatmapSetID:533518

[Difficulty]
HPDrainRate:5.4
CircleSize:4.2
OverallDifficulty:8.2
ApproachRate:9.5
SliderMultiplier:2
SliderTickRate:1

[Events]
//Background and Video events
0,0,"Living Color BG.jpg",0,0
//Break Periods
//Storyboard Layer 0 (Background)
Sprite,Background,Centre,"Living Color BG.jpg",0,0
//Storyboard Layer 1 (Fail)
//Storyboard Layer 2 (Pass)
//Storyboard Layer 3 (Foreground)
//Storyboard Sound Samples

[TimingPoints]
0,344.827586206897,4,2,1,30,1,0
0,-200,4,2,1,30,0,0
11034,-200,4,2,1,40,0,0
15517,-400,4,2,1,40,0,0
33103,-200,4,2,1,40,0,0
39396,-200,4,2,1,20,0,0
39482,-200,4,2,1,40,0,0
55172,-133.333333333333,4,2,3,50,0,0
62758,-105.263157894737,4,2,3,50,0,0
63448,-133.333333333333,4,2,1,50,0,0
70517,-117.647058823529,4,2,1,60,0,0
71034,-83.3333333333333,4,2,1,60,0,0
71206,-83.3333333333333,4,2,1,60,0,0
71379,-71.4285714285714,4,2,1,60,0,0
71551,-71.4285714285714,4,2,1,60,0,0
71724,-50,4,2,1,70,0,1
72068,-58.8235294117647,4,2,1,70,0,1
72758,-83.3333333333333,4,2,1,70,0,1
73103,-58.8235294117647,4,2,1,70,0,1
73448,-55.5555555555556,4,2,1,70,0,1
74137,-62.5,4,2,1,70,0,1
74482,-50,4,2,1,70,0,1
75517,-62.5,4,2,1,70,0,1
75862,-50,4,2,1,70,0,1
76206,-55.5555555555556,4,2,1,70,0,1
76724,-71.4285714285714,4,2,1,70,0,1
76896,-58.8235294117647,4,2,1,70,0,1
77241,-58.8235294117647,4,2,1,60,0,0
77586,-55.5555555555556,4,2,1,60,0,0
77844,-62.5,4,2,1,60,0,0
78275,-71.4285714285714,4,2,1,60,0,0
78965,-50,4,2,1,60,0,0
79224,-66.6666666666667,4,2,1,60,0,0
80000,-50,4,2,1,60,0,0
80344,-58.8235294117647,4,2,1,60,0,0
81034,-76.9230769230769,4,2,1,60,0,0
81379,-76.9230769230769,4,2,1,60,0,0
81724,-111.111111111111,4,2,1,60,0,0
82068,-76.9230769230769,4,2,1,60,0,0
82413,-76.9230769230769,4,2,1,60,0,0
82758,-50,4,2,1,70,0,1
83793,-83.3333333333333,4,2,1,70,0,1
84137,-50,4,2,1,70,0,1
85517,-83.3333333333333,4,2,1,70,0,1
85862,-71.4285714285714,4,2,1,70,0,1
86034,-62.5,4,2,1,70,0,1
86206,-55.5555555555556,4,2,1,70,0,1
86379,-50,4,2,1,70,0,1
87068,-83.3333333333333,4,2,1,70,0,1
87586,-71.4285714285714,4,2,1,70,0,1
87758,-62.5,4,2,1,70,0,1
87931,-55.5555555555556,4,2,1,70,0,1
88103,-50,4,2,1,70,0,1
88275,-83.3333333333333,4,2,1,70,0,1
88620,-58.8235294117647,4,2,1,70,0,1
88879,-50,4,2,1,70,0,1
89137,-133.333333333333,4,2,1,70,0,1
89310,-50,4,2,1,70,0,1
89482,-45.045045045045,4,2,1,70,0,1
89655,-50,4,2,1,70,0,1
90517,-66.6666666666667,4,2,1,70,0,1
91034,-83.3333333333333,4,2,1,70,0,1
91379,-58.8235294117647,4,2,1,70,0,1
91637,-45.045045045045,4,2,1,70,0,1
91896,-57.1428571428571,4,2,1,70,0,1
92241,-66.6666666666667,4,2,1,70,0,1
92413,-50,4,2,1,70,0,1
92758,-133.333333333333,4,2,1,70,0,1
92931,-40,4,2,1,70,0,1
93275,-58.8235294117647,4,2,1,70,0,1
93793,-83.3333333333333,4,2,1,70,0,1
94137,-66.6666666666667,4,2,1,70,0,1
94396,-50,4,2,1,70,0,1
94655,-111.111111111111,4,2,1,70,0,1
94827,-50,4,2,1,70,0,1
95000,-100,4,2,1,70,0,1
95172,-66.6666666666667,4,2,1,70,0,1
95689,-50,4,2,1,70,0,1
96034,-66.6666666666667,4,2,1,70,0,1
96551,-100,4,2,1,70,0,1
96896,-66.6666666666667,4,2,1,70,0,1
97155,-57.1428571428571,4,2,1,70,0,1
97586,-66.6666666666667,4,2,1,70,0,1
98103,-100,4,2,1,70,0,1
98275,-75.187969924812,4,2,1,70,0,1
98620,-60.2409638554217,4,2,1,70,0,1
98793,-50,4,2,1,70,0,1
99310,-83.3333333333333,4,2,1,70,0,1
99655,-100,4,2,1,70,0,1
99913,-50,4,2,1,70,0,1
100172,-133.333333333333,4,2,1,70,0,1
100344,-62.5,4,2,1,70,0,1
101206,-50,4,2,1,70,0,1
101551,-66.6666666666667,4,2,1,70,0,1
102068,-83.3333333333333,4,2,1,70,0,1
102413,-71.4285714285714,4,2,1,70,0,1
102758,-58.8235294117647,4,2,1,70,0,1
103448,-83.3333333333333,4,2,1,70,0,1
103793,-58.8235294117647,4,2,1,70,0,1
104051,-50,4,2,1,70,0,1
104827,-66.6666666666667,4,2,1,70,0,1
105172,-100,4,2,1,70,0,1
106206,-57.1428571428571,4,2,1,70,0,1
107241,-58.8235294117647,4,2,1,70,0,1
107586,-133.333333333333,4,2,1,50,0,0
107931,-66.6666666666667,4,2,1,50,0,0
108448,-57.1428571428571,4,2,1,50,0,0
110344,-100,4,2,1,50,0,0
112586,-90.9090909090909,4,2,3,50,0,0
113103,-71.4285714285714,4,2,3,50,0,0
113448,-90.9090909090909,4,2,3,50,0,0
114827,-100,4,2,3,50,0,0
118620,-83.3333333333333,4,2,3,50,0,0
118965,-100,4,2,3,50,0,0
120862,-166.666666666667,4,2,3,50,0,0
121379,-71.4285714285714,4,2,3,50,0,0
121896,-90.9090909090909,4,2,3,50,0,0
126896,-76.9230769230769,4,2,3,50,0,0
127241,-90.9090909090909,4,2,3,50,0,0
127500,-76.9230769230769,4,2,3,50,0,0
128620,-90.9090909090909,4,2,3,50,0,0
128879,-76.9230769230769,4,2,3,50,0,0
129137,-100,4,2,3,50,0,0
129655,-166.666666666667,4,2,1,40,0,0
132758,-133.333333333333,4,2,1,40,0,0
135172,-166.666666666667,4,2,1,40,0,0
135862,-76.923076923077,4,2,4,50,0,0
136379,-76.923076923077,4,2,1,50,0,0
136551,-166.666666666667,4,2,1,40,0,0
143448,-76.9230769230769,4,2,1,50,0,0
144137,-166.666666666667,4,2,1,50,0,0
148275,-111.111111111111,4,2,1,50,0,0
148965,-83.3333333333333,4,2,1,50,0,0
149655,-400,4,2,1,50,0,0
153793,-133.333333333333,4,2,1,50,0,0
154482,-400,4,2,1,50,0,0
155172,-133.333333333333,4,2,1,50,0,0
155689,-100,4,2,1,50,0,0
155862,-100,4,2,1,50,0,0
156206,-133.333333333333,4,2,1,50,0,0
156551,-200,4,2,1,50,0,0
157241,-133.333333333333,4,2,1,50,0,0
159310,-71.4285714285714,4,2,1,50,0,0
160000,-400,4,2,1,50,0,0
160301,-200,4,2,1,50,0,0
160862,-133.333333333333,4,2,1,50,0,0
161379,-100,4,2,1,50,0,0
161637,-71.4285714285714,4,2,1,50,0,0
162068,-200,4,2,1,50,0,0
162758,-66.6666666666667,4,2,1,50,0,0
163275,-133.333333333333,4,2,1,50,0,0
164827,-400,4,2,1,50,0,0
165517,-80,4,2,1,50,0,0
166724,-100,4,2,1,50,0,0
166896,-100,4,2,1,50,0,0
170344,-66.6666666666667,4,2,1,50,0,0
171034,-83.3333333333333,4,2,1,60,0,0
171379,-100,4,2,1,60,0,0
171724,-133.333333333333,4,2,1,60,0,0
172068,-200,4,2,1,60,0,0
173620,-40,4,2,1,60,0,0
173793,-100,4,2,1,60,0,0
175172,-33.3333333333333,4,2,2,80,0,0
175517,-33.3333333333333,4,2,1,80,0,0
175862,-133.333333333333,4,2,1,70,0,0
176551,-133.333333333333,4,2,2,30,0,0
178793,-133.333333333333,4,2,1,40,0,0
178965,-200,4,2,1,40,0,0
179137,-400,4,2,1,40,0,0
179655,-200,4,2,1,40,0,0
180344,-60.6060606060606,4,2,1,50,0,0
181034,-50,4,2,1,50,0,0
181379,-100,4,2,1,50,0,0
181724,-33,4,2,1,70,0,1
181896,-50,4,2,1,50,0,1
182068,-66.6666666666667,4,2,1,40,0,1
182198,-33,4,2,1,5,0,1
182241,-33,4,2,1,70,0,1
182327,-50,4,2,1,70,0,1
182413,-50,4,2,1,70,0,1
182758,-33,4,2,1,70,0,1
182931,-50,4,2,1,70,0,1
183103,-83.3333333333333,4,2,1,70,0,1
183448,-40,4,2,1,60,0,1
183965,-40,4,2,1,60,0,1
184137,-33,4,2,1,70,0,1
184267,-33,4,2,1,70,0,1
184310,-33,4,2,1,70,0,1
184827,-400,4,2,1,70,0,1
184956,-50,4,2,1,5,0,1
185000,-33,4,2,1,70,0,1
185129,-50,4,2,1,70,0,1
185172,-40,4,2,1,60,0,1
185517,-50,4,2,1,70,0,1
186206,-50,4,2,1,70,0,1
186551,-100,4,2,1,70,0,1
186724,-83.3333333333333,4,2,1,70,0,1
186896,-71.4285714285714,4,2,1,70,0,1
187068,-62.5,4,2,1,70,0,1
187241,-55.5555555555556,4,2,1,70,0,1
187413,-50,4,2,1,70,0,1
187586,-66.6666666666667,4,2,1,60,0,0
187931,-50,4,2,1,60,0,0
188189,-33,4,2,1,60,0,0
188405,-50,4,2,1,60,0,0
188793,-33,4,2,1,60,0,0
189310,-40,4,2,1,60,0,0
189827,-33,4,2,1,60,0,0
190172,-50,4,2,1,60,0,0
190344,-33,4,2,1,50,0,0
190689,-50,4,2,1,50,0,0
191034,-100,4,2,1,50,0,0
191379,-50,4,2,1,50,0,0
191724,-40,4,2,1,60,0,0
191939,-50,4,2,1,60,0,0
191982,-50,4,2,1,60,0,0
192068,-25,4,2,1,60,0,0
192198,-33,4,2,1,60,0,0
192241,-25,4,2,1,60,0,0
192370,-33,4,2,1,60,0,0
192413,-33,4,2,1,60,0,0
193103,-50,4,2,1,70,0,1
193275,-33,4,2,1,70,0,1
193793,-33,4,2,1,70,0,1
193965,-50,4,2,1,70,0,1
194137,-200,4,2,1,70,0,1
194482,-33,4,2,1,70,0,1
194827,-50,4,2,1,70,0,1
195000,-40,4,2,1,60,0,1
195172,-33,4,2,1,70,0,1
195344,-40,4,2,1,60,0,1
195517,-33,4,2,1,70,0,1
195689,-40,4,2,1,60,0,1
195775,-66.6666666666667,4,2,1,5,0,1
195862,-400,4,2,1,40,0,1
195991,-33,4,2,1,5,0,1
196034,-33,4,2,1,70,0,1
196206,-33,4,2,1,70,0,1
196336,-33,4,2,1,70,0,1
196379,-33,4,2,1,70,0,1
196508,-33,4,2,1,70,0,1
196551,-33,4,2,1,70,0,1
196724,-66.6666666666667,4,2,1,70,0,1
196896,-33,4,2,1,70,0,1
197068,-66.6666666666667,4,2,1,70,0,1
197241,-50,4,2,1,70,0,1
197758,-33,4,2,1,70,0,1
197931,-100,4,2,1,70,0,1
198534,-66.6666666666667,4,2,1,70,0,1
198620,-100,4,2,1,50,0,0
198965,-50,4,2,1,50,0,0
199655,-100,4,2,1,50,0,0
200000,-100,4,2,1,50,0,0
200258,-50,4,2,1,50,0,0
200387,-50,4,2,1,50,0,0
200431,-50,4,2,1,50,0,0
200646,-50,4,2,1,50,0,0
200689,-83.3333333333333,4,2,1,50,0,0
200775,-83.3333333333333,4,2,1,50,0,0
201810,-166.666666666667,4,2,1,50,0,0
202370,-66.6666666666667,4,2,1,50,0,0
203103,-50,4,2,1,50,0,0
203362,-66.6666666666667,4,2,1,50,0,0
204137,-66.6666666666667,4,2,1,50,0,1
204310,-33,4,2,1,70,0,0
204482,-50,4,2,1,70,0,0
205172,-43.4782608695652,4,2,1,70,0,0
205517,-33,4,2,1,70,0,0
205862,-45.4545454545455,4,2,1,70,0,0
206379,-43.4782608695652,4,2,1,70,0,0
206551,-38.4615384615385,4,2,1,70,0,0
206896,-33,4,2,1,70,0,0
207241,-52.6315789473684,4,2,1,70,0,0
207758,-47.6190476190476,4,2,1,70,0,0
207931,-52.6315789473684,4,2,1,70,0,0
208275,-43.4782608695652,4,2,1,70,0,0
208620,-55.5555555555556,4,2,1,70,0,0
208965,-62.5,4,2,1,70,0,0
209310,-55.5555555555556,4,2,1,70,0,0
209655,-62.5,4,2,1,50,0,0
210517,-83.3333333333333,4,2,1,50,0,0
211034,-125,4,2,1,50,0,0
211465,-125,4,2,1,30,0,0
211551,-125,4,2,1,50,0,0
211724,-55.5555555555556,4,2,1,70,0,0
211982,-83.3333333333333,4,2,1,70,0,0
212068,-55.5555555555556,4,2,1,70,0,0
212327,-83.3333333333333,4,2,1,70,0,0
212413,-83.3333333333333,4,2,1,60,0,0
212758,-62.5,4,2,1,60,0,0
213103,-55.5555555555556,4,2,1,60,0,0
213448,-50,4,2,1,60,0,0
214482,-58.8235294117647,4,2,1,60,0,0
214827,-52.6315789473684,4,2,1,60,0,0
215172,-33,4,2,1,70,0,1
215517,-50,4,2,1,70,0,1
216206,-50,4,2,1,70,0,1
216551,-50,4,2,1,70,0,1
216896,-50,4,2,1,70,0,1
217241,-33,4,2,1,70,0,1
217758,-50,4,2,1,70,0,1
217931,-100,4,2,1,70,0,1
218103,-33,4,2,1,70,0,1
218620,-33,4,2,1,70,0,1
218965,-100,4,2,1,70,0,1
219310,-50,4,2,1,70,0,1
219568,-100,4,2,1,70,0,1
220000,-50,4,2,1,70,0,1
220344,-57.1428571428571,4,2,1,70,0,1
220517,-100,4,2,1,70,0,1
220689,-66.6666666666667,4,2,1,70,0,1
220862,-50,4,2,1,70,0,1
221034,-40,4,2,1,70,0,1
221206,-62.5,4,2,1,70,0,1
221551,-33,4,2,1,70,0,1
221724,-33,4,2,1,70,0,1
222068,-66.6666666666667,4,2,1,70,0,1
222413,-33.3333333333333,4,2,1,70,0,1
222586,-71.4285714285714,4,2,1,70,0,1
222931,-33.3333333333333,4,2,1,70,0,1
223103,-133.333333333333,4,2,1,70,0,1
223275,-50,4,2,1,70,0,1
223448,-33.3333333333333,4,2,1,70,0,1
223793,-33,4,2,1,70,0,1
224310,-32.258064516129,4,2,1,70,0,1
224827,-33,4,2,1,70,0,1
225172,-100,4,2,1,70,0,1
225344,-55.5555555555556,4,2,1,70,0,1
225689,-100,4,2,1,70,0,1
226034,-33,4,2,1,70,0,1
226551,-50,4,2,1,70,0,1
226810,-200,4,2,1,70,0,1
227068,-50,4,2,1,70,0,1
227241,-33,4,2,1,70,0,1
227758,-66.6666666666667,4,2,1,70,0,1
228275,-50,4,2,1,70,0,1
228620,-33,4,2,1,70,0,1
228965,-74.0740740740741,4,2,1,70,0,1
229310,-50,4,2,1,70,0,1
229568,-40,4,2,1,70,0,1
230000,-50,4,2,1,70,0,1
230344,-50,4,2,1,50,0,0
231724,-71.4285714285714,4,2,1,70,0,1
232068,-50,4,2,1,70,0,1
232327,-57.1428571428571,4,2,1,70,0,1
232586,-50,4,2,1,70,0,1
232758,-66.6666666666667,4,2,1,70,0,1
233103,-50,4,2,1,70,0,1
233448,-33,4,2,1,70,0,1
233620,-33,4,2,1,70,0,1
233965,-100,4,2,1,70,0,1
234310,-80,4,2,1,70,0,1
234482,-80,4,2,1,70,0,1
234827,-33.3333333333333,4,2,1,70,0,1
235086,-50,4,2,1,70,0,1
235344,-33.3333333333333,4,2,1,70,0,1
235775,-50,4,2,1,70,0,1
236379,-33.3333333333333,4,2,1,70,0,1
236724,-100,4,2,1,70,0,1
237241,-54.054054054054,4,2,1,70,0,1
237586,-100,4,2,1,70,0,1
238275,-40,4,2,1,70,0,1
238534,-33.3333333333333,4,2,1,70,0,1
238620,-40,4,2,1,70,0,1
238793,-66.6666666666667,4,2,1,70,0,1
239310,-50,4,2,1,70,0,1
240000,-66.6666666666667,4,2,1,50,0,0
240862,-57.1428571428571,4,2,1,50,0,0
241034,-66.6666666666667,4,2,1,50,0,0
242758,-100,4,2,3,50,0,0
244137,-66.6666666666667,4,2,3,50,0,0
244482,-100,4,2,3,50,0,0
245172,-66.6666666666667,4,2,3,50,0,0
245517,-100,4,2,3,50,0,0
247758,-57.1428571428571,4,2,3,50,0,0
248275,-66.6666666666667,4,2,3,50,0,0
248620,-100,4,2,3,50,0,0
249655,-66.6666666666667,4,2,3,50,0,0
250689,-100,4,2,3,50,0,0
251034,-66.6666666666667,4,2,3,50,0,0
252068,-76.9230769230769,4,2,3,50,0,0
252413,-66.6666666666667,4,2,3,50,0,0
254827,-76.9230769230769,4,2,3,50,0,0
255172,-66.6666666666667,4,2,3,50,0,0
256551,-76.9230769230769,4,2,3,50,0,0
257586,-100,4,2,3,50,0,0
257931,-76.9230769230769,4,2,3,50,0,0
259310,-100,4,2,3,50,0,0
259655,-50,4,2,3,50,0,0
260344,-44.4444444444445,4,2,3,50,0,0
260517,-40,4,2,3,50,0,0
260689,-66.6666666666667,4,2,3,50,0,0
261379,-100,4,2,2,50,0,0
261551,-133.333333333333,4,2,1,50,0,0
262068,-303.030303030303,4,2,1,40,0,0
276206,-100,4,2,1,40,0,0
276551,-200,4,2,1,40,0,0
281724,-303.030303030303,4,2,1,40,0,0
284137,-200,4,2,1,40,0,0
286206,-100,4,2,1,40,0,0
286810,-142.857142857143,4,2,1,40,0,0
286896,-142.857142857143,4,2,1,40,0,0
287241,-200,4,2,1,40,0,0
288275,-142.857142857143,4,2,1,40,0,0
289655,-200,4,2,1,40,0,0
292068,-100,4,2,1,40,0,0
292758,-303.030303030303,4,2,1,40,0,0
303448,-303.030303030303,4,2,1,30,0,0
313146,-303.030303030303,4,2,1,30,0,0
316551,-303.030303030303,4,2,1,5,0,0

[Colours]
Combo1 : 202,65,254
Combo2 : 255,253,223
Combo3 : 251,45,50
Combo4 : 255,128,34
Combo5 : 255,200,72
Combo6 : 72,227,255
Combo7 : 36,113,255
Combo8 : 255,70,167

[HitObjects]
369,93,0,6,0,B|304:98|280:135|279:170|279:170|287:308|410:264|398:204|384:132|249:142|208:180|208:180|222:265|131:332|38:265|33:218|89:147|145:208,1,800,2|2,0:0|0:0,0:0:0:0:
133,197,4137,5,2,0:0:0:0:
439,41,5517,102,0,B|371:72|390:147|390:147|407:211|348:246|348:246|389:251|404:289|404:289|375:335|300:330|255:303|245:212|316:176|316:176|254:207|188:170|192:104|255:84|279:113,1,800,2|2,0:0|0:0,0:0:0:0:
275,110,9655,5,2,0:0:0:0:
39,292,11034,101,0,0:0:0:0:
46,215,11206,1,0,0:0:0:0:
108,259,11379,1,2,0:0:0:0:
41,285,11551,5,0,0:0:0:0:
54,206,11724,1,0,0:0:0:0:
116,257,11896,1,0,0:0:0:0:
44,279,12068,101,2,0:0:0:0:
191,267,12241,1,0,0:0:0:0:
324,330,12413,1,0,0:0:0:0:
177,342,12586,5,0,0:0:0:0:
191,267,12758,1,2,0:0:0:0:
205,192,12931,1,0,0:0:0:0:
134,218,13103,101,0,0:0:0:0:
159,121,13275,1,0,2:0:0:0:
163,104,13448,1,2,2:0:0:0:
127,62,13620,1,0,0:0:0:0:
391,143,13793,5,0,0:0:0:0:
370,218,13965,1,0,2:0:0:0:
366,235,14137,1,2,2:0:0:0:
503,188,14310,101,0,0:0:0:0:
478,285,14482,1,0,2:0:0:0:
474,302,14655,1,2,2:0:0:0:
505,185,14827,5,0,2:0:0:0:
436,149,15000,1,0,0:0:0:0:
425,72,15172,101,0,0:0:0:0:
344,277,15344,1,0,0:0:0:0:
192,320,15517,2,0,L|166:325,1,25,2|0,0:0|0:0,0:0:0:0:
123,103,15862,5,0,0:0:0:0:
83,305,16034,2,0,L|78:330,1,25,0|2,0:0|0:0,0:0:0:0:
127,87,16379,1,0,0:0:0:0:
296,324,16551,101,0,0:0:0:0:
348,262,16724,1,2,0:0:0:0:
427,287,16896,1,0,0:0:0:0:
296,324,17068,5,0,0:0:0:0:
323,246,17241,1,0,0:0:0:0:
268,183,17413,1,0,0:0:0:0:
383,144,17586,101,2,0:0:0:0:
246,258,17758,1,0,0:0:0:0:
414,319,17931,1,0,0:0:0:0:
383,144,18103,5,0,0:0:0:0:
397,222,18275,1,2,0:0:0:0:
400,241,18448,1,0,0:0:0:0:
226,98,18620,101,0,0:0:0:0:
163,153,18793,1,0,0:0:0:0:
85,126,18965,1,2,0:0:0:0:
137,2,19137,1,0,0:0:0:0:
100,208,19310,5,0,0:0:0:0:
241,180,19482,1,0,0:0:0:0:
163,153,19655,1,2,0:0:0:0:
273,342,19827,101,0,0:0:0:0:
179,233,20000,1,0,0:0:0:0:
194,315,20172,1,0,0:0:0:0:
303,125,20344,5,2,0:0:0:0:
256,261,20517,1,0,0:0:0:0:
319,207,20689,101,0,0:0:0:0:
224,98,20862,1,0,0:0:0:0:
381,151,21034,2,0,L|407:159,1,25,2|0,0:0|0:0,0:0:0:0:
208,94,21379,1,0,0:0:0:0:
441,19,21551,2,0,L|467:11,1,25,0|2,0:0|0:0,0:0:0:0:
192,90,21896,1,0,0:0:0:0:
476,99,22068,85,0,0:0:0:0:
330,51,22241,1,0,0:0:0:0:
319,207,22413,1,2,0:0:0:0:
324,129,22586,5,0,0:0:0:0:
161,149,22758,1,0,0:0:0:0:
245,140,22931,1,0,0:0:0:0:
153,64,23103,101,2,0:0:0:0:
168,233,23275,1,0,0:0:0:0:
161,149,23448,5,0,0:0:0:0:
174,325,23620,1,0,0:0:0:0:
16,250,23793,1,2,0:0:0:0:
254,219,23965,1,0,0:0:0:0:
30,250,24137,101,0,0:0:0:0:
168,315,24310,1,0,0:0:0:0:
157,162,24482,1,2,0:0:0:0:
117,242,24655,1,0,0:0:0:0:
385,215,24827,5,0,0:0:0:0:
390,227,25000,1,0,0:0:0:0:
379,352,25172,1,2,0:0:0:0:
311,132,25344,101,0,0:0:0:0:
315,143,25517,1,0,0:0:0:0:
305,269,25689,1,0,0:0:0:0:
229,60,25862,5,2,0:0:0:0:
212,193,26034,1,0,0:0:0:0:
229,60,26206,101,0,0:0:0:0:
81,202,26379,2,0,L|85:236,1,25,0|2,0:0|0:0,0:0:0:0:
311,132,26724,5,0,0:0:0:0:
163,274,26896,2,0,L|167:308,1,25,0|0,0:0|0:0,0:0:0:0:
384,212,27241,101,2,0:0:0:0:
357,381,27413,1,0,0:0:0:0:
277,298,27586,5,0,0:0:0:0:
468,287,27758,1,0,0:0:0:0:
362,131,27931,1,2,0:0:0:0:
373,307,28103,101,0,0:0:0:0:
443,190,28275,1,0,0:0:0:0:
291,202,28448,1,0,0:0:0:0:
481,294,28620,5,2,0:0:0:0:
268,302,28793,1,0,0:0:0:0:
360,112,28965,101,0,0:0:0:0:
375,354,29137,1,0,0:0:0:0:
371,240,29310,1,2,0:0:0:0:
375,370,29482,1,0,0:0:0:0:
197,152,29655,5,0,0:0:0:0:
186,334,29827,1,0,0:0:0:0:
190,249,30000,1,2,0:0:0:0:
185,348,30172,1,0,0:0:0:0:
23,262,30344,101,0,0:0:0:0:
23,262,30517,1,0,0:0:0:0:
190,249,30689,1,2,0:0:0:0:
103,177,30862,5,0,0:0:0:0:
103,177,31034,1,0,0:0:0:0:
118,353,31206,1,0,0:0:0:0:
190,249,31379,101,2,0:0:0:0:
23,262,31551,1,0,0:0:0:0:
217,58,31724,5,0,0:0:0:0:
206,173,31896,1,0,0:0:0:0:
293,105,32068,101,2,0:0:0:0:
284,202,32241,1,0,0:0:0:0:
368,153,32413,5,0,0:0:0:0:
361,230,32586,1,0,0:0:0:0:
445,202,32758,101,2,0:0:0:0:
440,246,32931,1,0,0:0:0:0:
512,158,33103,6,0,B|475:108|411:127|411:127|383:70|435:24|435:24|383:70|316:72|316:72|259:79|228:34|239:-24|297:-42|355:0|316:72|316:72|232:112|253:188,1,750,2|0,0:0|0:0,0:0:0:0:
274,272,35862,1,2,0:0:0:0:
45,102,36724,101,0,0:0:0:0:
112,182,36896,1,0,0:0:0:0:
62,298,37068,1,0,0:0:0:0:
27,207,37241,6,0,B|138:176|111:273|216:247,1,200,2|0,0:0|0:0,0:0:0:0:
294,169,38103,1,0,0:0:0:0:
187,108,38275,2,0,L|182:159,1,50
166,332,38620,101,2,0:0:0:0:
303,36,38965,2,0,P|367:44|445:50,1,125
456,51,39482,1,0,0:0:0:0:
444,240,39655,1,2,0:0:0:0:
415,151,39827,1,0,0:0:0:0:
405,335,40000,5,0,0:0:0:0:
405,335,40172,1,0,0:0:0:0:
255,261,40344,2,0,P|218:260|189:274,1,50,2|0,0:0|0:0,0:0:0:0:
117,317,40689,101,0,0:0:0:0:
117,317,40862,1,0,0:0:0:0:
255,152,41034,2,0,P|290:154|319:168,1,50,2|0,0:0|0:0,0:0:0:0:
386,208,41379,5,0,0:0:0:0:
375,45,41551,1,0,0:0:0:0:
379,127,41724,1,2,0:0:0:0:
169,45,41896,101,0,0:0:0:0:
158,208,42068,1,0,0:0:0:0:
162,126,42241,1,0,0:0:0:0:
256,306,42413,5,2,0:0:0:0:
255,153,42586,1,0,0:0:0:0:
143,318,42758,101,0,0:0:0:0:
143,318,42931,1,0,0:0:0:0:
374,291,43103,5,2,0:0:0:0:
374,291,43275,1,0,0:0:0:0:
194,244,43448,101,0,0:0:0:0:
194,244,43620,1,0,0:0:0:0:
314,229,43793,5,2,0:0:0:0:
314,229,43965,1,0,0:0:0:0:
251,146,44137,102,0,B|191:88|237:9|237:9|304:65|424:32|424:32|346:85|377:188|377:188|425:225|477:205|477:205|499:168|498:118|498:118|475:124|460:130,1,750,2|0,0:0|0:0,0:0:0:0:
251,146,46896,5,2,0:0:0:0:
80,307,48103,101,0,0:0:0:0:
80,307,48275,2,0,P|71:260|59:194,1,100,2|0,0:0|0:0,0:0:0:0:
61,208,48793,1,0,0:0:0:0:
195,263,48965,2,0,P|201:184|204:141,1,100
202,163,49482,1,0,0:0:0:0:
303,322,49655,6,0,B|374:296|403:220|403:220|412:298|487:352,1,300,2|0,0:0|0:0,0:0:0:0:
386,370,50862,1,0,0:0:0:0:
386,370,51034,1,2,0:0:0:0:
139,111,52413,102,0,B|48:38|48:38|77:237,1,300,2|0,0:0|0:0,0:0:0:0:
100,375,53620,1,0,0:0:0:0:
38,292,53793,6,0,L|103:297,1,50,2|0,0:0|0:0,0:0:0:0:
234,365,54137,2,0,L|169:370,1,50,0|0,0:0|0:0,0:0:0:0:
100,375,54482,1,2,0:0:0:0:
100,375,54655,1,0,0:0:0:0:
119,174,54827,1,0,0:0:0:0:
119,174,55172,102,0,L|284:189,1,150.000005722046,0|0,3:0|0:0,0:0:0:0:
342,298,55689,1,0,0:0:0:0:
476,189,55862,2,0,P|444:190|401:228,1,75.0000028610231,8|0,3:0|0:0,0:0:0:0:
473,275,56206,1,0,0:0:0:0:
271,113,56379,1,0,0:0:0:0:
271,113,56465,1,0,0:0:0:0:
271,113,56551,6,0,L|267:204,1,75.0000028610231,0|0,0:0|0:0,0:0:0:0:
254,334,56896,1,2,0:0:0:0:
365,158,57068,1,0,0:0:0:0:
188,266,57241,2,0,B|140:263|112:225|112:225|102:265|76:290,1,150.000005722046,8|0,3:0|0:0,0:0:0:0:
23,347,57758,1,0,0:0:0:0:
66,111,57931,102,0,P|146:107|205:171,1,150.000005722046,0|0,3:0|0:0,0:0:0:0:
306,313,58448,1,0,0:0:0:0:
306,313,58534,1,0,0:0:0:0:
306,313,58620,2,0,L|299:212,1,75.0000028610231,8|0,3:0|0:0,0:0:0:0:
284,93,58965,1,0,0:0:0:0:
188,266,59137,1,0,0:0:0:0:
405,195,59310,6,0,B|513:176|513:176|474:226,1,150.000005722046,2|0,0:0|0:0,0:0:0:0:
442,309,59827,102,0,L|445:247,1,37.5000014305115,0|0,0:0|0:0,0:0:0:0:
450,107,60000,1,8,3:0:0:0:
450,107,60172,1,0,0:0:0:0:
357,276,60344,1,0,0:0:0:0:
357,276,60517,1,0,0:0:0:0:
257,121,60689,6,0,L|261:71,3,37.5000014305115,0|0|0|0,3:0|0:0|0:0|0:0,0:0:0:0:
166,256,61034,2,0,L|173:306,3,37.5000014305115,0|0|0|0,0:0|0:0|0:0|0:0,0:0:0:0:
21,150,61379,101,8,3:0:0:0:
0,114,61465,1,0,0:0:0:0:
8,80,61551,1,0,0:0:0:0:
34,52,61637,1,0,0:0:0:0:
68,50,61724,5,0,0:0:0:0:
104,63,61810,1,0,0:0:0:0:
117,92,61896,1,0,0:0:0:0:
110,135,61982,1,0,0:0:0:0:
74,205,62068,102,0,L|83:276,1,37.5000014305115,0|0,3:0|0:0,0:0:0:0:
127,326,62241,2,0,L|132:364,1,37.5000014305115,0|0,0:0|0:0,0:0:0:0:
252,330,62413,6,0,L|247:292,1,37.5000014305115,0|0,0:0|0:0,0:0:0:0:
188,205,62586,2,0,L|184:168,1,37.5000014305115,0|0,0:0|0:0,0:0:0:0:
296,108,62758,102,0,L|302:163,1,47.4999987316132,8|0,3:0|0:0,0:0:0:0:
355,324,62931,2,0,L|349:269,1,47.4999987316132,0|0,0:0|0:0,0:0:0:0:
390,47,63103,6,0,L|396:102,1,47.4999987316132,0|0,0:0|0:0,0:0:0:0:
478,324,63275,2,0,L|472:269,1,47.4999987316132,0|0,0:0|0:0,0:0:0:0:
500,79,63448,102,0,L|496:42,3,37.5000014305115,0|0|0|0,3:0|0:0|0:0|0:0,0:0:0:0:
496,174,63793,2,0,L|500:211,3,37.5000014305115,8|0|0|0,0:0|0:0|0:0|0:0,0:0:0:0:
393,134,64137,6,0,L|389:97,3,37.5000014305115,0|0|0|0,0:0|0:0|0:0|0:0,0:0:0:0:
367,204,64482,2,0,L|371:241,3,37.5000014305115,8|0|0|0,0:0|0:0|0:0|0:0,0:0:0:0:
284,158,64827,102,0,L|280:121,7,37.5000014305115,0|0|0|0|8|0|0|0,3:0|0:0|0:0|0:0|0:0|0:0|0:0|0:0,0:0:0:0:
249,231,65517,5,0,0:0:0:0:
218,264,65603,1,0,0:0:0:0:
176,281,65689,1,0,0:0:0:0:
131,277,65775,1,0,0:0:0:0:
90,257,65862,1,8,0:0:0:0:
66,218,65948,1,0,0:0:0:0:
59,173,66034,1,0,0:0:0:0:
70,128,66120,1,0,0:0:0:0:
101,95,66206,101,0,3:0:0:0:
477,283,66551,6,0,L|470:383,1,75.0000028610231,8|0,0:0|0:0,0:0:0:0:
483,195,66896,1,0,0:0:0:0:
345,241,67241,102,0,L|338:341,1,75.0000028610231,8|0,0:0|0:0,0:0:0:0:
351,153,67586,1,0,0:0:0:0:
237,178,67931,6,0,L|230:278,1,75.0000028610231,0|0,0:0|0:0,0:0:0:0:
243,90,68275,1,0,3:0:0:0:
223,339,68448,101,0,0:0:0:0:
132,122,68620,1,8,0:0:0:0:
351,153,68793,1,0,0:0:0:0:
132,122,68965,5,2,0:0:0:0:
109,359,69137,1,0,0:0:0:0:
14,265,69310,102,0,L|122:258,1,75.0000028610231,8|0,0:0|0:0,0:0:0:0:
397,358,69655,5,0,3:0:0:0:
374,116,69827,1,0,0:0:0:0:
488,267,70000,102,0,L|380:260,1,75.0000028610231,8|0,0:0|0:0,0:0:0:0:
255,192,70344,5,0,0:0:0:0:
339,37,70517,2,0,B|385:3|385:3|370:145,1,170.000003242493,0|0,3:0|0:0,0:0:0:0:
393,275,71034,102,0,P|354:279|308:253,1,59.9999981689454,8|0,0:0|0:0,0:0:0:0:
279,103,71206,2,0,P|240:99|194:125,1,59.9999981689454,0|0,0:0|0:0,0:0:0:0:
111,224,71379,6,0,L|117:136,1,69.9999978637696,2|0,0:0|0:0,0:0:0:0:
38,16,71551,2,0,L|31:116,1,69.9999978637696,0|0,0:0|0:0,0:0:0:0:
33,332,71724,102,0,B|140:374|223:286|223:286|168:335|189:428,1,300,0|0,3:0|0:0,0:0:0:0:
282,372,72068,6,0,P|311:355|284:357,1,85.0000016212464,8|0,3:0|0:0,0:0:0:0:
120,204,72241,2,0,P|91:221|117:219,1,85.0000016212464,0|0,0:0|0:0,0:0:0:0:
183,365,72413,101,0,0:0:0:0:
213,133,72586,1,0,3:0:0:0:
414,272,72758,6,0,B|333:304|292:230|292:230|318:251|354:249,1,179.999994506836,8|0,3:0|0:0,0:0:0:0:
356,54,73103,102,0,B|397:-22|324:-49|264:56|356:179,1,255.000004863739,4|0,1:3|0:0,0:0:0:0:
452,353,73448,6,0,P|412:369|364:368,1,89.9999972534181,8|0,3:0|0:0,0:0:0:0:
292,230,73620,2,0,P|249:223|205:237,1,89.9999972534181,4|0,0:0|0:0,0:0:0:0:
95,381,73793,101,0,0:0:0:0:
9,113,73965,2,0,L|4:226,1,89.9999972534181,0|0,3:0|0:0,0:0:0:0:
27,318,74137,6,0,B|78:307|108:255|108:255|138:342|219:346,1,240,8|0,3:0|0:0,0:0:0:0:
490,208,74482,102,0,B|417:214|417:214|379:238|379:238|329:208|329:208|294:233|294:233|210:239,1,300,0|0,3:0|0:0,0:0:0:0:
425,312,74827,6,0,B|425:357|425:357|384:311,1,100,8|0,3:0|0:0,0:0:0:0:
308,105,75000,2,0,B|344:63|344:63|344:108,1,100,0|0,0:0|0:0,0:0:0:0:
213,238,75172,101,0,0:0:0:0:
490,208,75344,1,0,3:0:0:0:
176,156,75517,6,0,B|118:136|107:46|183:32|183:32|219:63|222:86|181:103,1,240,8|0,3:0|0:0,0:0:0:0:
77,265,75862,102,0,B|27:277|27:247|27:247|27:215|135:174|107:321|271:242,1,300,0|0,3:0|0:0,0:0:0:0:
377,66,76206,6,0,B|401:97|401:97|381:171,1,89.9999972534181,8|0,3:0|0:0,0:0:0:0:
362,377,76379,2,0,B|338:346|338:346|358:272,1,89.9999972534181,4|0,0:0|0:0,0:0:0:0:
401,225,76551,101,2,0:0:0:0:
384,224,76637,1,0,0:0:0:0:
367,223,76724,2,0,L|447:231,1,69.9999978637696
512,328,76896,6,0,B|490:329|476:334|476:334|458:324|458:324|441:330|414:329,1,85.0000016212464,8|0,3:0|0:0,0:0:0:0:
301,114,77068,2,0,B|290:115|273:109|273:109|255:119|255:119|241:114|219:113,1,85.0000016212464
136,298,77241,101,0,3:0:0:0:
139,53,77413,1,0,0:0:0:0:
66,202,77586,6,0,B|93:208|93:208|108:219|108:219|132:215|132:215|190:224,1,89.9999972534181,8|0,3:0|0:0,0:0:0:0:
228,232,77758,1,0,0:0:0:0:
139,53,77844,102,0,B|105:23|105:23|126:139,1,160,0|0,3:0|0:0,0:0:0:0:
136,298,78103,1,8,3:0:0:0:
368,110,78275,6,0,B|386:73|386:73|339:28|339:28|285:64|285:64|306:129,1,209.999993591309,0|0,0:0|0:0,0:0:0:0:
325,187,78620,101,0,3:0:0:0:
329,341,78793,5,0,0:0:0:0:
329,353,78879,1,0,0:0:0:0:
330,367,78965,2,0,L|327:258,1,100,8|0,3:0|0:0,0:0:0:0:
325,187,79137,1,0,0:0:0:0:
463,189,79224,102,0,B|505:172|505:172|367:185,1,150.000005722046,0|0,0:0|0:0,0:0:0:0:
217,191,79482,1,8,3:0:0:0:
425,299,79655,5,0,0:0:0:0:
325,64,79827,1,0,0:0:0:0:
165,277,80000,102,0,B|101:236|87:141|130:84|220:93|250:158|202:215,1,300,0|0,3:0|0:0,0:0:0:0:
80,356,80344,6,0,P|72:318|50:269,1,85.0000016212464,8|0,0:0|0:0,0:0:0:0:
327,193,80517,2,0,P|303:229|290:273,1,85.0000016212464,0|0,0:0|0:0,0:0:0:0:
275,360,80689,1,0,0:0:0:0:
45,186,80862,101,0,3:0:0:0:
17,171,80948,1,0,0:0:0:0:
0,162,81034,2,0,L|95:155,1,64.9999970245363,8|0,0:0|0:0,0:0:0:0:
320,135,81206,1,0,0:0:0:0:
130,201,81379,5,0,3:0:0:0:
402,210,81551,1,2,3:0:0:0:
169,317,81724,102,0,L|164:256,1,44.999998626709,8|0,0:0|0:0,0:0:0:0:
343,340,81896,2,0,L|346:279,1,44.999998626709
173,381,82068,6,0,L|167:291,1,64.9999970245363,0|0,3:0|0:0,0:0:0:0:
345,295,82241,2,0,L|350:203,1,64.9999970245363
107,171,82413,102,0,L|101:80,1,64.9999970245363,8|0,0:0|0:0,0:0:0:0:
369,136,82586,2,0,L|374:45,1,64.9999970245363
186,59,82758,54,0,B|3:46|3:46|141:129,1,300,0|0,3:0|0:0,0:0:0:0:
176,150,83103,2,0,B|200:188|200:188|184:240,1,100,8|0,3:0|0:0,0:0:0:0:
104,352,83275,2,0,L|-48:360,1,100,0|0,0:0|0:0,0:0:0:0:
318,327,83448,1,0,0:0:0:0:
104,192,83620,1,0,3:0:0:0:
241,270,83793,6,0,B|229:310|229:310|181:243|223:180,1,179.999994506836,8|0,3:0|0:0,0:0:0:0:
270,105,84137,102,0,P|343:142|221:169,1,300,4|0,1:3|0:0,0:0:0:0:
184,104,84482,2,0,B|140:101|140:101|127:109|127:109|71:106,1,100,8|0,3:0|0:0,0:0:0:0:
376,176,84655,2,0,B|417:173|417:173|429:181|429:181|473:178,1,100,4|0,0:0|0:0,0:0:0:0:
241,270,84827,6,0,B|212:232|212:232|225:171,1,100,0|0,0:0|0:0,0:0:0:0:
367,76,85000,2,0,L|379:220,1,100,0|0,3:0|0:0,0:0:0:0:
392,376,85172,1,8,3:0:0:0:
392,376,85344,102,0,B|365:374|365:374|361:362|361:374|361:374|301:371,1,100,0|0,0:0|0:0,0:0:0:0:
222,180,85517,2,0,B|234:140|234:140|282:207|240:270,1,179.999994506836,0|0,3:0|0:0,0:0:0:0:
174,277,85862,6,0,B|206:263|206:263|273:273,1,69.9999978637696,8|0,3:0|0:0,0:0:0:0:
387,299,86034,102,0,B|400:329|400:329|389:393,1,80,0|0,0:0|0:0,0:0:0:0:
222,180,86206,6,0,L|214:44,1,89.9999972534181,0|0,0:0|0:0,0:0:0:0:
486,300,86379,102,0,B|438:297|438:297|429:301|429:301|365:297,1,100,0|0,3:0|0:0,0:0:0:0:
174,277,86551,2,0,B|157:238|157:238|194:197|194:197|244:222|244:222|241:268,1,200,8|0,3:0|0:0,0:0:0:0:
216,344,86810,1,0,0:0:0:0:
204,356,86896,2,0,B|168:360|168:360|144:352|144:352|96:348,1,100,0|0,3:0|0:0,0:0:0:0:
42,286,87068,6,0,P|34:366|106:346,1,179.999994506836,2|0,0:0|0:0,0:0:0:0:
96,228,87413,102,0,L|88:128,1,59.9999981689454,4|0,0:0|0:0,0:0:0:0:
78,18,87586,6,0,L|84:88,1,69.9999978637696,2|0,0:0|0:0,0:0:0:0:
160,124,87758,102,0,B|216:120|216:120|260:80,1,80,0|0,0:0|3:0,0:0:0:0:
308,56,87931,6,0,L|412:64,1,89.9999972534181,8|0,3:0|0:0,0:0:0:0:
236,196,88103,102,0,B|216:152|216:152|236:96,1,100,0|0,0:0|0:0,0:0:0:0:
452,124,88275,6,0,B|472:169|512:192|512:192|466:195|428:228,1,179.999994506836,0|0,3:0|0:0,0:0:0:0:
364,184,88620,2,0,B|344:228|364:268|364:268|384:308|364:360,1,170.000003242493,8|0,3:0|0:0,0:0:0:0:
252,274,88879,2,0,P|280:254|352:370,1,200,0|0,3:0|0:0,0:0:0:0:
304,384,89137,2,0,L|232:376,1,37.5000014305115,0|0,0:0|0:0,0:0:0:0:
108,323,89310,102,0,L|0:329,1,100,8|0,3:0|0:0,0:0:0:0:
9,328,89482,6,0,P|53:340|69:264,1,111.000002709961,0|0,0:0|0:0,0:0:0:0:
121,165,89655,2,0,L|124:115,6,50,4|0|0|0|0|0|0,1:3|0:0|0:0|0:0|0:0|0:0|0:0,0:0:0:0:
33,141,90000,102,0,B|-11:137|-11:137|53:157,1,100,8|0,3:0|0:0,0:0:0:0:
286,135,90172,2,0,B|350:103|350:103|225:109|225:109|216:113|216:113|164:106|164:106|123:115,1,300,4|0,0:0|0:0,0:0:0:0:
108,323,90517,2,0,L|100:222,1,75.0000028610231,0|0,3:0|0:0,0:0:0:0:
86,45,90689,1,8,3:0:0:0:
108,323,90862,1,0,0:0:0:0:
86,45,91034,6,0,B|160:19|160:19|123:113,1,179.999994506836,0|0,3:0|0:0,0:0:0:0:
67,158,91379,2,0,B|-28:159|-28:159|48:152,1,170.000003242493,8|0,3:0|0:0,0:0:0:0:
201,134,91637,2,0,P|198:233|100:224,1,222.000005419922,0|0,3:0|0:0,0:0:0:0:
173,54,91896,2,0,P|216:50|255:70,1,87.500000834465,0|0,0:0|0:0,0:0:0:0:
385,145,92068,102,0,L|480:140,1,87.500000834465,8|0,3:0|0:0,0:0:0:0:
333,8,92241,6,0,B|335:41|335:41|331:48|331:48|333:92,1,75.0000028610231,0|0,0:0|0:0,0:0:0:0:
408,332,92413,102,0,P|366:344|300:287,1,100,0|0,3:0|0:0,0:0:0:0:
185,183,92586,2,0,P|229:161|276:172,1,100,0|0,0:0|0:0,0:0:0:0:
166,301,92758,6,0,B|102:295,1,37.5000014305115,8|0,3:0|0:0,0:0:0:0:
276,172,92931,2,0,B|178:247|64:138|129:35|129:35|115:88|152:127,1,375,2|0,0:0|0:0,0:0:0:0:
212,62,93275,102,0,P|252:47|299:58,1,85.0000016212464,0|0,3:0|0:0,0:0:0:0:
93,181,93448,2,0,P|51:188|12:173,1,85.0000016212464,8|0,3:0|0:0,0:0:0:0:
317,239,93620,6,0,B|314:278|314:278|318:279|318:279|316:320,1,85.0000016212464,2|0,0:0|0:0,0:0:0:0:
384,104,93793,102,0,B|420:68|420:68|396:224,1,179.999994506836,0|0,3:0|0:0,0:0:0:0:
472,288,94137,2,0,B|504:256|504:256|484:136,1,150.000005722046,8|0,3:0|0:0,0:0:0:0:
317,239,94396,2,0,B|268:271|268:271|316:321|316:321|428:256,1,200,0|0,3:0|0:0,0:0:0:0:
208,169,94655,2,0,L|212:221,1,44.999998626709,0|0,0:0|0:0,0:0:0:0:
384,104,94827,6,0,P|400:56|380:0,1,100,8|0,3:0|0:0,0:0:0:0:
268,271,95000,1,0,0:0:0:0:
268,271,95086,1,0,0:0:0:0:
212,213,95172,102,0,P|164:193|192:289,1,225.000008583069,4|0,1:3|0:0,0:0:0:0:
282,168,95517,2,0,L|273:93,1,75.0000028610231,8|0,3:0|0:0,0:0:0:0:
164,16,95689,6,0,B|108:42|108:42|256:57|256:57|264:54|264:54|348:63,1,300,4|0,0:0|0:0,0:0:0:0:
501,57,96034,102,0,L|381:45,1,75.0000028610231,0|0,3:0|0:0,0:0:0:0:
282,168,96206,1,8,3:0:0:0:
501,57,96379,1,0,0:0:0:0:
405,260,96551,6,0,P|446:281|458:190,1,150,0|0,3:0|0:0,0:0:0:0:
404,177,96896,2,0,B|281:168|281:168|237:196,1,150.000005722046,8|0,3:0|2:0,0:0:0:0:
293,330,97155,2,0,B|321:373|321:373|303:203,1,175.00000166893,0|0,0:0|0:0,0:0:0:0:
199,36,97413,2,0,L|194:123,1,87.500000834465,0|0,3:0|2:0,0:0:0:0:
113,303,97586,102,0,B|109:243|109:243|117:215|117:215|113:154,1,150.000005722046,8|0,3:0|0:0,0:0:0:0:
114,155,97931,1,0,0:0:0:0:
114,155,98103,6,0,L|108:216,1,50,0|0,0:0|0:0,0:0:0:0:
64,272,98275,2,0,L|13:294,6,33.2499986301423,2|0|0|0|0|0|0,0:0|0:0|0:0|0:0|0:0|0:0|0:0,0:0:0:0:
144,276,98620,102,0,L|211:324,1,83.0000012031555,0|0,0:0|0:0,0:0:0:0:
284,292,98793,2,0,L|344:335,10,50,2|0|0|0|0|0|0|0|0|0|0,0:0|0:0|0:0|0:0|0:0|0:0|0:0|0:0|0:0|0:0|0:0,0:0:0:0:
212,324,99310,6,0,B|188:278|188:278|210:214|210:214|220:208|220:208|217:159,1,179.999994506836,0|0,3:0|0:0,0:0:0:0:
133,122,99655,2,0,P|168:156|216:159,1,100,8|0,3:0|0:0,0:0:0:0:
354,40,99913,2,0,P|267:7|204:77,1,200,0|0,3:0|0:0,0:0:0:0:
340,152,100172,102,0,L|388:148,1,37.5000014305115,0|0,0:0|0:0,0:0:0:0:
440,192,100344,6,0,P|452:156|433:96,1,80,8|0,3:0|0:0,0:0:0:0:
217,159,100517,2,0,B|221:238,1,80,0|0,0:0|0:0,0:0:0:0:
272,308,100689,102,0,B|217:341|165:305|165:305|157:309|157:309|97:277|45:305,1,240,4|0,1:3|0:0,0:0:0:0:
0,248,101034,2,0,B|-8:204|-8:204|24:292,1,80,8|0,3:0|0:0,0:0:0:0:
205,78,101206,6,0,B|243:44|243:44|221:238|221:238|191:192,1,300,4|0,0:0|0:0,0:0:0:0:
57,134,101551,2,0,L|142:130,1,75.0000028610231,0|0,3:0|0:0,0:0:0:0:
359,121,101724,1,8,3:0:0:0:
57,134,101896,1,0,0:0:0:0:
216,284,102068,102,0,B|203:322|203:322|152:260|193:192,1,179.999994506836,0|0,3:0|0:0,0:0:0:0:
124,64,102413,2,0,P|137:96|112:156,1,69.9999978637696,8|0,3:0|0:0,0:0:0:0:
87,210,102586,2,0,L|11:214,1,69.9999978637696,0|0,0:0|0:0,0:0:0:0:
216,284,102758,6,0,B|244:300|244:300|320:296,1,85.0000016212464,0|0,0:0|0:0,0:0:0:0:
384,292,102931,2,0,B|434:289|434:289|458:265,1,85.0000016212464,0|0,3:0|0:0,0:0:0:0:
508,204,103103,1,8,3:0:0:0:
344,364,103275,1,0,0:0:0:0:
287,141,103448,102,0,B|344:112|344:112|324:280,1,179.999994506836,0|0,3:0|0:0,0:0:0:0:
296,297,103793,2,0,B|240:308|240:308|192:280|192:280|120:292,1,170.000003242493,8|0,3:0|0:0,0:0:0:0:
70,354,104051,2,0,P|103:384|107:286,1,200,0|0,0:0|0:0,0:0:0:0:
80,160,104310,5,0,0:0:0:0:
16,200,104396,1,0,0:0:0:0:
44,268,104482,2,0,B|84:296|84:296|155:285,1,100,8|0,3:0|0:0,0:0:0:0:
287,141,104655,2,0,B|315:101|315:101|304:30,1,100,0|0,0:0|0:0,0:0:0:0:
296,297,104827,102,0,P|320:344|228:316,1,225.000008583069,0|0,3:0|0:0,0:0:0:0:
226,319,105172,2,0,L|444:328,1,200,8|0,3:0|0:0,0:0:0:0:
226,319,105689,1,0,3:0:0:0:
134,288,105862,2,0,L|30:292,1,100,8|0,3:0|0:0,0:0:0:0:
376,128,106206,6,0,P|347:51|451:99,1,262.500002503395,4|0,1:3|0:0,0:0:0:0:
442,163,106551,1,8,3:0:0:0:
258,249,106724,2,0,P|190:328|295:327,1,262.500002503395,4|0,0:0|0:0,0:0:0:0:
330,260,107069,1,0,3:0:0:0:
43,172,107241,102,0,L|128:176,1,85.0000016212464,8|0,3:0|0:0,0:0:0:0:
128,176,107586,6,0,B|144:208|144:208|132:256,1,75.0000028610231,0|0,3:0|0:0,0:0:0:0:
128,260,107844,1,0,0:0:0:0:
68,316,107931,102,0,P|124:284|212:308,1,150.000005722046,8|0,0:0|0:0,0:0:0:0:
280,312,108189,2,0,P|336:344|424:320,1,150.000005722046,0|0,0:0|0:0,0:0:0:0:
474,213,108448,6,0,P|430:301|238:269,1,262.500002503395,0|0,3:0|0:0,0:0:0:0:
248,240,108793,1,0,0:0:0:0:
252,232,108879,1,0,0:0:0:0:
256,224,108965,101,2,0:0:0:0:
266,116,109482,1,0,0:0:0:0:
262,124,109655,1,2,0:0:0:0:
262,124,110344,53,0,3:0:0:0:
341,118,110517,1,0,0:0:0:0:
229,126,110689,5,8,3:0:0:0:
375,114,110862,1,0,0:0:0:0:
294,240,111034,102,0,L|299:179,1,50,0|0,0:0|0:0,0:0:0:0:
307,44,111206,1,0,3:0:0:0:
182,244,111379,2,0,B|134:243|105:206|105:206|89:250|70:262,1,150,8|0,3:0|0:0,0:0:0:0:
56,274,111724,5,0,3:0:0:0:
102,118,111896,2,0,L|96:60,2,50,0|0|8,0:0|0:0|3:0,0:0:0:0:
131,317,112241,1,0,0:0:0:0:
298,185,112413,1,0,0:0:0:0:
298,185,112500,1,0,0:0:0:0:
298,185,112586,102,0,L|291:264,1,55.0000016784668,0|0,3:0|0:0,0:0:0:0:
286,342,112758,1,8,3:0:0:0:
182,244,112931,1,0,0:0:0:0:
450,312,113103,6,0,B|489:251|455:164|455:164|442:213|389:244,1,209.999993591309,0|0,3:0|0:0,0:0:0:0:
354,338,113448,102,0,L|360:276,1,55.0000016784668,8|0,3:0|0:0,0:0:0:0:
375,151,113620,1,0,0:0:0:0:
450,312,113793,1,0,0:0:0:0:
248,220,113965,6,0,L|344:214,1,55.0000016784668,0|0,3:0|0:0,0:0:0:0:
398,76,114137,2,0,P|343:77|301:137,1,110.000003356934,8|0,3:0|0:0,0:0:0:0:
240,68,114396,1,0,0:0:0:0:
240,68,114482,102,0,P|236:38|234:4,1,55.0000016784668,0|0,3:0|0:0,0:0:0:0:
375,151,114655,1,0,0:0:0:0:
152,112,114827,2,0,P|97:116|34:119,1,100,8|0,3:0|0:0,0:0:0:0:
17,119,115086,1,0,0:0:0:0:
21,163,115172,1,0,0:0:0:0:
26,207,115258,1,0,0:0:0:0:
31,251,115344,5,2,0:0:0:0:
105,22,115517,1,0,0:0:0:0:
200,193,115689,1,0,0:0:0:0:
360,15,115862,102,0,B|395:59|395:59|369:173,1,150,0|0,3:0|0:0,0:0:0:0:
259,83,116206,2,0,L|335:78,1,50,8|0,3:0|0:0,0:0:0:0:
474,66,116379,1,0,0:0:0:0:
388,274,116551,1,0,0:0:0:0:
239,169,116724,1,0,3:0:0:0:
496,187,116896,6,0,L|384:180,1,100,8|0,3:0|0:0,0:0:0:0:
317,173,117155,1,0,0:0:0:0:
317,173,117241,1,0,3:0:0:0:
220,323,117413,1,0,0:0:0:0:
67,152,117586,2,0,P|112:146|174:209,1,100,8|0,3:0|0:0,0:0:0:0:
197,245,117844,1,0,0:0:0:0:
197,245,117931,1,0,0:0:0:0:
87,356,118103,102,0,L|92:283,1,50,0|0,3:0|0:0,0:0:0:0:
96,230,118275,1,8,0:3:0:0:
10,302,118448,1,0,0:0:0:0:
285,278,118620,6,0,B|299:150|299:150|248:208,1,179.999994506836,0|0,3:0|0:0,0:0:0:0:
197,245,118965,1,8,3:0:0:0:
392,218,119137,1,0,0:0:0:0:
299,62,119310,1,0,0:0:0:0:
333,339,119482,1,0,3:0:0:0:
415,138,119655,102,0,L|411:208,1,50,8|0,3:0|0:0,0:0:0:0:
285,278,119827,2,0,L|291:211,1,50,0|0,0:0|0:0,0:0:0:0:
299,62,120000,5,0,3:0:0:0:
122,38,120172,2,0,P|169:43|245:51,1,100,0|8,0:0|3:0,0:0:0:0:
299,62,120431,1,0,0:0:0:0:
299,62,120517,1,0,0:0:0:0:
127,268,120689,1,0,0:0:0:0:
276,257,120862,102,0,L|126:268,1,149.999995422363
41,334,121379,6,0,B|101:320|127:269|127:269|139:334|188:357,1,209.999993591309,0|0,3:0|0:0,0:0:0:0:
244,378,121724,1,8,3:0:0:0:
49,165,121896,2,0,L|44:236,1,55.0000016784668,0|0,0:0|0:0,0:0:0:0:
41,334,122068,1,0,0:0:0:0:
226,261,122241,1,0,3:0:0:0:
16,85,122413,2,0,P|59:78|121:126,1,110.000003356934,8|0,3:0|0:0,0:0:0:0:
152,192,122672,1,0,0:0:0:0:
152,192,122758,101,0,3:0:0:0:
253,65,122931,1,0,0:0:0:0:
244,378,123103,6,0,L|250:223,1,110.000003356934,8|0,3:0|0:0,0:0:0:0:
294,286,123362,1,0,0:0:0:0:
343,291,123448,1,0,0:0:0:0:
390,276,123534,1,0,0:0:0:0:
423,239,123620,1,0,0:0:0:0:
309,75,123793,1,8,3:0:0:0:
248,268,123965,1,0,0:0:0:0:
442,133,124137,102,0,B|356:113|374:193|265:159,1,165.000005035401,0|0,3:0|0:0,0:0:0:0:
210,145,124482,2,0,L|217:63,1,55.0000016784668,8|0,3:0|0:0,0:0:0:0:
223,8,124655,1,0,0:0:0:0:
423,239,124827,1,0,0:0:0:0:
423,239,124913,1,0,0:0:0:0:
423,239,125000,2,0,L|430:309,1,55.0000016784668,0|0,3:0|0:0,0:0:0:0:
317,375,125172,6,0,B|275:323|326:257|326:257|333:312,1,165.000005035401,8|0,3:0|0:0,0:0:0:0:
438,375,125517,102,0,L|431:305,1,55.0000016784668,0|0,3:0|0:0,0:0:0:0:
410,150,125689,1,0,0:0:0:0:
317,375,125862,5,8,3:0:0:0:
290,183,126034,1,0,0:0:0:0:
208,364,126206,102,0,L|201:294,1,55.0000016784668,0|0,0:0|0:0,0:0:0:0:
180,139,126379,1,0,3:0:0:0:
87,364,126551,5,8,3:0:0:0:
60,172,126724,1,0,0:0:0:0:
319,265,126896,102,0,B|335:136|335:136|282:190,1,194.999991073609,0|0,3:0|0:0,0:0:0:0:
280,348,127241,6,0,P|306:357|368:348,1,55.0000016784668,8|0,3:0|0:0,0:0:0:0:
476,336,127413,1,0,0:0:0:0:
476,336,127500,102,0,B|429:332|410:288|410:288|390:347|321:362,1,194.999991073609,0|0,3:0|0:0,0:0:0:0:
154,158,127931,6,0,L|159:222,1,64.9999970245363,8|0,3:0|0:0,0:0:0:0:
168,317,128103,1,0,0:0:0:0:
51,49,128275,101,0,3:0:0:0:
49,297,128448,1,0,0:0:0:0:
287,126,128620,6,0,L|206:137,1,55.0000016784668,8|0,3:0|0:0,0:0:0:0:
34,153,128793,1,0,0:0:0:0:
34,153,128879,2,0,B|69:130|69:130|57:228,1,129.999994049073,0|0,0:0|0:0,0:0:0:0:
49,297,129137,102,0,B|99:289|99:289|141:309|141:309|219:293,1,150,0|0,3:0|0:0,0:0:0:0:
284,277,129482,6,0,L|280:330,1,50,0|0,0:0|0:0,0:0:0:0:
399,356,129655,102,0,B|466:289|410:142|323:229|391:277,1,239.999992675781,2|0,0:0|0:0,0:0:0:0:
486,178,130689,1,0,0:0:0:0:
486,178,130862,1,0,0:0:0:0:
390,276,131034,6,0,P|327:275|246:272,1,119.999996337891,2|0,0:0|0:0,0:0:0:0:
78,177,131551,2,0,P|146:174|185:215,1,119.999996337891,2|0,0:0|0:0,0:0:0:0:
112,252,132068,2,0,L|106:301,2,29.9999990844727,0|0|0,0:0|0:0|0:0,0:0:0:0:
132,85,132413,101,0,0:0:0:0:
221,103,132586,1,0,0:0:0:0:
310,125,132758,6,0,B|418:44|336:-53|234:-80|115:73|251:210|325:213|325:213|395:106|553:152|574:285|509:384|390:375|344:332,1,975.0000371933
5,98,135172,102,0,P|64:42|146:60,1,164.9999949646,2|0,0:0|0:0,0:0:0:0:
117,252,135862,6,0,B|71:296|41:369|41:369|87:268|87:103,1,389.999982147218,2|0,0:0|0:0,0:0:0:0:
107,42,136551,102,0,B|66:3|66:3|88:134,1,179.999994506836,2|0,0:0|0:0,0:0:0:0:
210,268,137241,2,0,L|347:259,1,119.999996337891,2|0,0:0|0:0,0:0:0:0:
462,251,137758,1,0,0:0:0:0:
379,345,137931,5,0,0:0:0:0:
376,367,138103,1,0,0:0:0:0:
325,222,138275,101,2,0:0:0:0:
306,208,138448,1,0,0:0:0:0:
462,251,138620,5,0,0:0:0:0:
483,241,138793,1,0,0:0:0:0:
386,271,138965,101,2,0:0:0:0:
386,271,139137,1,0,0:0:0:0:
171,200,139310,5,0,0:0:0:0:
148,208,139482,1,0,0:0:0:0:
306,208,139655,101,2,0:0:0:0:
325,220,139827,1,0,0:0:0:0:
244,87,140000,5,0,0:0:0:0:
245,63,140172,1,0,0:0:0:0:
239,164,140344,101,2,0:0:0:0:
239,164,140517,1,0,0:0:0:0:
362,67,140689,6,0,B|406:33|406:33|385:175,2,179.999994506836,0|2|0,0:0|0:0|0:0,0:0:0:0:
286,132,141896,1,0,0:0:0:0:
326,231,142068,102,0,P|422:248|473:180,1,179.999994506836,2|0,0:0|0:0,0:0:0:0:
219,203,142758,2,0,B|156:211|156:211|115:243|115:243|36:251,1,179.999994506836,2|0,0:0|0:0,0:0:0:0:
112,58,143448,6,0,P|186:31|161:108,1,194.999991073609,0|0,0:0|0:0,0:0:0:0:
87,133,143793,2,0,B|46:112|46:112|1:131,2,86.6666626993817,2|0|0,0:0|0:0|0:0,0:0:0:0:
102,159,144137,102,0,L|96:233,1,59.9999981689454,0|0,0:0|0:0,0:0:0:0:
189,345,144482,2,0,L|195:271,1,59.9999981689454,2|0,0:0|0:0,0:0:0:0:
117,162,144827,6,0,L|111:228,1,59.9999981689454,0|0,0:0|0:0,0:0:0:0:
195,329,145172,2,0,L|201:263,1,59.9999981689454,2|0,0:0|0:0,0:0:0:0:
132,165,145517,102,0,L|128:224,1,59.9999981689454,0|0,0:0|0:0,0:0:0:0:
202,314,145862,2,0,L|207:255,1,59.9999981689454,2|0,0:0|0:0,0:0:0:0:
268,37,146206,6,0,B|306:49|331:101|331:101|363:55|418:47,1,179.999994506836,2|0,0:0|0:0,0:0:0:0:
428,162,146896,1,0,0:0:0:0:
224,142,147068,1,0,0:0:0:0:
369,236,147241,1,0,0:0:0:0:
267,226,147413,1,0,0:0:0:0:
316,310,147586,102,0,L|309:105,1,179.999994506836,2|0,0:0|0:0,0:0:0:0:
155,296,148275,6,0,B|60:311|75:253|-8:259|-8:259|50:282|57:332,1,269.999991760254,2|0,0:0|0:0,0:0:0:0:
131,183,148965,70,0,B|152:110|107:46|107:46|166:111|252:99|252:99|224:106|209:130,1,359.999989013672,2|0,0:0|0:0,0:0:0:0:
208,130,149655,5,2,0:0:0:0:
327,82,149827,1,0,0:0:0:0:
270,177,150000,1,0,0:0:0:0:
375,197,150172,1,0,0:0:0:0:
299,253,150344,101,0,0:0:0:0:
297,272,150517,1,0,0:0:0:0:
305,289,150689,1,0,0:0:0:0:
381,161,150862,5,0,0:0:0:0:
383,180,151034,1,2,0:0:0:0:
464,253,151206,101,0,0:0:0:0:
388,311,151379,1,0,0:0:0:0:
302,271,151551,1,0,0:0:0:0:
410,119,151724,6,0,L|407:143,1,25,0|0,0:0|0:0,0:0:0:0:
407,143,152068,1,0,0:0:0:0:
211,74,152241,2,0,L|216:98,1,25,0|2,0:0|0:0,0:0:0:0:
216,98,152586,1,0,0:0:0:0:
7,101,152758,2,0,L|20:121,1,25,0|0,0:0|0:0,0:0:0:0:
21,122,153103,101,0,0:0:0:0:
92,98,153275,1,0,0:0:0:0:
165,116,153448,1,0,0:0:0:0:
203,181,153620,1,0,0:0:0:0:
199,257,153793,6,0,B|232:284|292:270|304:214|297:156|254:120,1,225.000008583069,2|0,0:0|0:0,0:0:0:0:
121,79,154482,102,0,L|117:48,1,25,0|0,0:0|0:0,0:0:0:0:
195,46,154827,2,0,L|198:70,1,25,0|0,0:0|0:0,0:0:0:0:
33,1,155172,2,0,P|46:68|52:149,1,150.000005722046,2|0,0:0|0:0,0:0:0:0:
367,48,155689,2,0,B|390:37|390:37|364:36,1,50,0|0,0:0|0:0,0:0:0:0:
285,23,155862,6,0,B|293:48|284:73|284:73|267:51|273:21,1,100,2|0,0:0|0:0,0:0:0:0:
434,121,156206,102,0,B|422:140|405:144|405:144|406:123|428:109,1,75.0000028610231
470,257,156551,6,0,B|458:261|443:255|443:255|457:245|467:246,1,50,2|0,0:0|0:0,0:0:0:0:
419,375,156896,101,0,0:0:0:0:
419,375,157068,1,0,0:0:0:0:
293,140,157241,6,0,B|317:194|317:194|295:297|295:297|217:350,1,225.000008583069,0|0,0:0|0:0,0:0:0:0:
55,85,157931,102,0,L|18:91,1,37.5000014305115,2|0,0:0|0:0,0:0:0:0:
228,251,158103,2,0,L|167:242,1,37.5000014305115,0|0,0:0|0:0,0:0:0:0:
0,170,158275,6,0,L|37:164,1,37.5000014305115,0|0,0:0|0:0,0:0:0:0:
245,331,158448,2,0,L|184:322,1,37.5000014305115,0|0,0:0|0:0,0:0:0:0:
366,130,158620,102,0,B|355:55|355:55|282:65|282:65|293:140,1,225.000008583069,0|0,0:0|0:0,0:0:0:0:
293,140,159310,2,0,B|211:116|211:116|198:50|198:50|68:15|68:15,1,279.999991455078,2|0,0:0|0:0,0:0:0:0:
75,16,160000,6,0,L|78:43,1,25,0|0,0:0|0:0,0:0:0:0:
7,147,160344,2,0,P|55:151|89:117,1,100,0|2,0:0|0:0,0:0:0:0:
249,35,160862,102,0,P|230:35|215:45,1,37.5000014305115,2|0,0:0|0:0,0:0:0:0:
209,80,161034,2,0,P|218:63|215:45,1,37.5000014305115
188,22,161206,2,0,P|197:37|213:44,1,37.5000014305115
396,175,161379,6,0,P|352:156|301:158,1,100,0|0,0:0|0:0,0:0:0:0:
275,182,161637,2,0,P|345:179|409:206,1,139.999995727539,0|0,0:0|0:0,0:0:0:0:
462,263,161896,1,0,0:0:0:0:
364,47,162068,102,0,L|368:22,2,25,2|0|0,0:0|0:0|0:0,0:0:0:0:
327,304,162413,1,0,0:0:0:0:
327,304,162586,1,0,0:0:0:0:
327,304,162758,6,0,L|30:264,1,300.000011444092,2|0,0:0|0:0,0:0:0:0:
193,210,163275,2,0,L|173:358,1,150.000005722046,2|0,0:0|0:0,0:0:0:0:
30,264,163793,2,0,L|20:189,1,75.0000028610231,0|0,0:0|0:0,0:0:0:0:
1,42,164137,101,0,0:0:0:0:
209,10,164310,1,0,0:0:0:0:
76,63,164482,5,0,0:0:0:0:
208,88,164655,1,0,0:0:0:0:
116,130,164827,102,0,L|147:126,3,25,2|0|0|0,0:0|0:0|0:0|0:0,0:0:0:0:
405,98,165517,6,0,B|300:131|257:4|337:-50|383:24|359:233|319:145|282:236|314:339|314:339|310:312|319:288,1,500,2|2,0:0|2:0,0:0:0:0:
317,294,166724,2,0,P|342:302|367:301,1,50,0|0,0:0|2:0,0:0:0:0:
472,237,166896,102,0,B|499:299|463:359|463:359|470:318|442:290,1,200,0|0,0:0|0:0,0:0:0:0:
263,95,167413,1,0,0:0:0:0:
401,114,167586,6,0,B|377:49|311:31|311:31|342:55|342:94,1,200,2|0,0:0|0:0,0:0:0:0:
317,293,168103,1,0,0:0:0:0:
119,176,168275,102,0,B|332:216|332:216|287:210|257:243,1,300,0|0,0:0|0:0,0:0:0:0:
257,243,168965,6,0,B|207:233,1,50,2|0,0:0|0:0,0:0:0:0:
218,72,169137,2,0,B|168:81,1,50,0|0,0:0|0:0,0:0:0:0:
366,303,169310,102,0,B|317:294,1,50,0|0,0:0|0:0,0:0:0:0:
327,11,169482,2,0,B|277:20,1,50,2|0,0:0|0:0,0:0:0:0:
486,143,169655,6,0,P|378:100|431:203,1,300,0|0,0:0|0:0,0:0:0:0:
431,203,170344,2,0,B|379:155|379:155|284:162|284:162|263:185|263:185|191:176|191:176|173:151,1,300.000011444092,2|0,0:0|0:0,0:0:0:0:
173,151,171034,102,0,L|180:89,3,59.9999981689454,0|0|0|0,0:0|0:0|0:0|0:0,0:0:0:0:
112,0,171379,2,0,L|117:50,3,50,8|0|2|0,0:0|0:0|0:0|0:0,0:0:0:0:
47,126,171724,2,0,L|51:88,3,37.5000014305115,0|0|0|0,0:3|0:3|0:3|0:3,0:3:0:0:
0,6,172068,2,0,L|2:31,3,25,8|0|0|0,0:0|0:3|0:3|0:3,0:3:0:0:
51,88,172413,5,2,0:0:0:0:
86,91,172500,1,0,0:0:0:0:
70,72,172586,1,0,0:0:0:0:
67,107,172672,1,0,0:0:0:0:
102,177,172758,101,8,0:0:0:0:
133,191,172844,1,0,0:0:0:0:
125,168,172931,1,0,0:0:0:0:
110,200,173017,1,0,0:0:0:0:
116,283,173103,5,2,0:0:0:0:
142,284,173189,1,0,0:0:0:0:
179,278,173275,1,0,0:0:0:0:
225,260,173362,1,0,0:0:0:0:
275,216,173448,1,8,0:0:0:0:
310,152,173534,1,0,0:0:0:0:
321,70,173620,2,0,B|334:29|312:2|312:2|302:31|312:54,1,125,0|0,0:0|0:0,0:0:0:0:
489,268,173793,102,0,B|427:269|373:237|356:158|370:89|419:53|480:69|499:118|479:176|432:202,1,400,0|0,3:0|0:0,0:0:0:0:
432,202,175172,6,0,B|444:171|441:131|412:107|412:107|341:120|362:145|322:216|252:157|295:31|295:31|308:127|352:97|367:158|359:180|359:180|320:177|297:200,1,600.000022888185,4|0,3:0|2:0,0:0:0:0:
86,56,176551,102,0,B|78:134|151:167|160:171|195:128|126:40|83:151|112:202,1,225.000008583069,2|0,0:0|2:0,0:0:0:0:
269,263,177241,2,0,B|204:217|139:263|130:270|151:321|261:306|187:212|127:213,1,225.000008583069,2|0,0:0|2:0,0:0:0:0:
0,317,177931,2,0,B|70:282|62:204|62:193|7:184|-33:288|83:270|113:219,1,225.000008583069,2|0,0:0|2:0,0:0:0:0:
480,61,178793,6,0,L|458:29,1,37.5000014305115,0|0,0:0|2:0,0:0:0:0:
401,99,178965,2,0,L|394:70,1,25,2|0,0:0|2:0,0:0:0:0:
319,106,179137,2,0,L|321:94,1,12.5,0|0,0:0|2:0,0:0:0:0:
319,106,179310,102,0,L|315:131,1,25,0|0,0:0|0:0,0:0:0:0:
315,130,179655,6,0,P|283:80|286:40,1,100,8|0,0:0|0:0,0:0:0:0:
458,117,180172,1,0,0:0:0:0:
278,204,180344,102,0,B|370:191|417:86|352:1|352:1|369:31|360:64,1,330.000003147125,8|0,0:0|0:0,0:0:0:0:
359,64,180862,1,0,0:0:0:0:
40,25,181034,6,0,B|14:69|14:69|162:52,1,200,8|0,0:0|0:0,0:0:0:0:
286,41,181379,1,0,0:0:0:0:
286,41,181465,1,0,0:0:0:0:
286,41,181551,2,0,L|236:46,1,50,0|0,0:0|0:0,0:0:0:0:
476,19,181724,102,0,B|467:77|467:77|470:98|470:98|459:178,1,151.515151515152,8|0,0:0|0:0,0:0:0:0:
415,295,181896,2,0,B|421:260|421:260|408:231,1,66.6666666666667,0|0,0:0|2:0,0:0:0:0:
41,270,182068,69,0,3:0:0:0:
41,270,182241,102,0,B|192:251,1,151.515151515152,0|0,0:0|0:0,0:0:0:0:
415,295,182413,6,0,P|464:287|498:252,1,100,8|0,3:0|0:0,0:0:0:0:
272,125,182586,2,0,P|254:171|271:217,1,100,2|0,0:0|0:0,0:0:0:0:
354,230,182758,102,0,P|336:158|270:125,1,151.515151515152,0|0,0:0|0:0,0:0:0:0:
306,0,182931,2,0,P|258:12|229:52,1,100,0|0,3:0|0:0,0:0:0:0:
138,196,183103,6,0,B|126:234|126:234|70:174|105:106,1,179.999994506836,8|0,3:0|0:0,0:0:0:0:
17,0,183448,102,0,B|5:46|40:100|106:106|106:106|149:36|230:51|230:51|201:146,1,375,4|0,1:3|0:0,0:0:0:0:
159,325,183793,2,0,P|111:337|43:282,1,125,8|0,3:0|0:0,0:0:0:0:
13,204,183965,6,0,L|137:196,1,125,4|0,0:0|0:0,0:0:0:0:
403,213,184137,102,0,B|392:260|392:260|484:219|484:219|464:144,1,227.272727272727
512,79,184310,2,0,P|440:66|388:117,1,151.515151515152,0|0,3:0|0:0,0:0:0:0:
323,344,184482,1,8,0:3:0:0:
306,13,184655,6,0,P|372:44|388:116,1,151.515151515152,0|8,3:0|0:0,0:0:0:0:
319,359,184827,102,0,L|315:375,1,18.75,0|0,3:0|0:0,0:0:0:0:
323,344,185000,6,0,L|362:197,1,151.515151515152,2|0,3:0|0:0,0:0:0:0:
508,302,185172,2,0,P|474:354|415:369,1,125,8|0,0:0|0:0,0:0:0:0:
228,318,185344,2,0,P|185:276|182:215,1,125,8|0,0:0|0:0,0:0:0:0:
452,171,185517,102,0,P|457:219|431:261,1,100,4|0,0:3|0:0,0:0:0:0:
270,216,185689,2,0,L|249:118,1,100
416,49,185862,6,0,P|464:60|494:98,1,100,0|0,0:3|0:0,0:0:0:0:
280,220,186034,2,0,L|259:122,1,100,8|0,0:0|0:0,0:0:0:0:
197,340,186206,2,0,P|281:290|182:319,1,300,4|0,1:3|0:0,0:0:0:0:
107,287,186551,102,0,P|87:286|104:276,1,50,8|0,3:0|0:0,0:0:0:0:
46,200,186724,6,0,P|30:181|53:187,1,59.9999981689454,4|0,2:0|0:0,0:0:0:0:
66,76,186896,102,0,P|64:54|75:76,1,69.9999978637696,2|0,0:0|0:0,0:0:0:0:
182,0,187068,6,0,P|198:-19|189:7,1,80
329,55,187241,102,0,P|360:65|329:68,1,89.9999972534181,2|0,0:0|0:0,0:0:0:0:
483,248,187413,6,0,B|433:241|433:241|479:224,1,100,0|0,2:0|0:0,0:0:0:0:
28,332,187586,102,0,B|137:345|137:345|123:338|123:338|222:351,1,225.000008583069,0|0,3:0|0:0,0:0:0:0:
348,248,187931,2,0,B|312:286|319:339|319:339|312:286|259:259,1,200,8|0,3:0|0:0,0:0:0:0:
106,58,188189,6,0,B|186:6|266:98|209:172|209:172|223:132|197:100,1,303.030303030303,0|0,3:0|0:0,0:0:0:0:
16,250,188448,102,0,P|-2:205|23:164,1,100,8|0,3:0|0:0,0:0:0:0:
287,135,188620,2,0,P|257:173|209:171,1,100,2|2,0:0|0:0,0:0:0:0:
121,208,188793,2,0,L|105:48,1,151.515151515152,2|2,0:0|0:0,0:0:0:0:
389,339,188965,5,0,3:0:0:0:
373,82,189137,1,0,0:0:0:0:
383,71,189224,1,0,0:0:0:0:
467,88,189310,102,0,B|494:151|494:151|445:198|445:198|201:155,1,375,8|0,3:0|0:0,0:0:0:0:
21,73,189655,2,0,P|80:88|112:140,1,125,0|0,3:0|0:0,0:0:0:0:
7,250,189827,6,0,B|33:319|104:346|182:316|182:316|143:282|147:233,1,303.030303030303,8|0,3:0|0:0,0:0:0:0:
293,5,190086,1,8,0:0:0:0:
302,0,190172,2,0,L|283:110,1,100,0|8,0:0|0:0,0:0:0:0:
476,296,190344,102,0,B|386:310|386:310|385:305|385:305|386:310|386:310|273:328|273:328|262:372|212:385,1,303.030303030303,2|0,2:0|2:0,2:0:0:0:
237,242,190603,1,0,2:0:0:0:
237,242,190689,6,0,P|271:278|274:327,1,100,8|0,2:0|2:0,2:0:0:0:
228,161,190862,102,0,P|182:146|136:163,1,100,2|0,2:0|2:0,2:0:0:0:
305,191,191034,6,0,P|326:179|341:160,1,50,0|0,2:0|2:0,2:0:0:0:
284,98,191206,101,2,0:0:0:0:
284,98,191293,1,2,0:0:0:0:
284,98,191379,6,0,P|270:52|299:13,1,100,10|0,0:0|0:0,0:0:0:0:
298,13,191551,102,0,P|311:59|283:97,1,100,10|0,0:0|0:0,0:0:0:0:
30,274,191724,6,0,P|-4:172|103:167,1,250,4|0,1:3|0:0,0:0:0:0:
359,350,191982,1,0,3:0:0:0:
455,338,192068,102,0,B|515:324|515:324|277:300,1,300,8|0,3:0|0:0,0:0:0:0:
93,328,192241,6,0,B|149:359|191:313|191:313|185:261|224:234,1,200,0|0,3:0|0:0,0:0:0:0:
280,26,192413,102,0,B|335:46|331:100|331:100|314:75|289:69,1,151.515151515152,2|0,0:0|0:0,0:0:0:0:
278,300,192586,6,0,B|271:237|271:237|273:227|273:227|263:150,1,151.515151515152,0|0,3:0|3:0,0:0:0:0:
45,134,192758,102,0,L|504:92,1,454.545454545455,12|0,1:3|0:0,0:0:0:0:
469,379,193103,5,4,3:0:0:0:
469,379,193275,2,0,B|406:372|406:372|384:377|384:377|311:368,1,151.515151515152
58,343,193448,2,0,P|22:287|85:268,1,151.515151515152,8|0,0:0|0:0,0:0:0:0:
512,306,193620,2,0,B|446:269|446:269|400:330,1,151.515151515152
147,333,193793,102,0,P|203:284|276:297,1,151.515151515152
320,368,193965,2,0,P|293:328|296:277,1,100,0|0,3:0|0:0,0:0:0:0:
252,54,194137,6,0,P|262:90|250:125,1,75.0000028610231,8|0,3:0|0:0,0:0:0:0:
23,109,194482,102,0,B|-2:23|-2:23|176:86|176:86|44:221,1,454.545454545455,4|2,1:3|0:0,3:0:0:0:
70,317,194827,6,0,B|190:300,1,100,8|0,0:3|0:0,0:0:0:0:
252,54,195000,2,0,P|301:90|307:150,1,125,2|0,1:3|0:0,0:0:0:0:
450,384,195172,102,0,P|531:313|506:208,1,227.272727272727
512,125,195344,2,0,P|451:132|416:181,1,125,6|0,1:3|0:0,0:0:0:0:
357,348,195517,1,8,0:0:0:0:
308,151,195689,6,0,P|368:142|415:180,1,125,4|0,1:3|0:0,0:0:0:0:
358,340,195862,102,0,L|353:359,1,18.75,0|0,3:0|3:0,0:0:0:0:
362,326,196034,6,0,P|310:274|239:288,1,151.515151515152,2|0,3:0|0:0,0:0:0:0:
76,362,196206,102,0,B|77:291|7:333|76:368|76:368|124:387|163:370|179:344,1,227.272727272727,8|0,3:0|0:0,0:0:0:0:
238,287,196379,2,0,P|249:233|213:192,1,113.636363636364,2|0,0:0|0:0,0:0:0:0:
56,179,196551,6,0,P|-8:150|0:80,1,151.515151515152
93,14,196724,2,0,L|82:88,1,75.0000028610231,0|0,3:0|0:0,0:0:0:0:
238,287,196896,102,0,P|299:244|373:230,1,151.515151515152,8|0,3:0|0:0,0:0:0:0:
462,240,197068,2,0,P|461:203|471:167,1,75.0000028610231
512,70,197241,6,0,B|303:38|303:38|348:55|354:106,1,300,4|0,1:3|0:0,0:0:0:0:
150,197,197586,102,0,B|144:168|129:147|129:147|151:161|159:179,1,100,8|0,3:0|0:0,0:0:0:0:
150,196,197758,2,0,P|198:138|269:114,1,151.515151515152,4|0,0:0|0:0,0:0:0:0:
377,313,197931,5,2,0:0:0:0:
381,316,198017,1,0,0:0:0:0:
385,319,198103,1,0,0:0:0:0:
389,322,198189,1,0,0:0:0:0:
392,326,198275,101,0,0:0:0:0:
378,288,198362,5,0,0:0:0:0:
334,247,198448,102,0,P|325:259|323:271,1,25,0|0,0:0|0:0,0:0:0:0:
248,231,198534,6,0,P|244:245|239:270,1,37.5000014305115,2|0,0:0|0:0,0:0:0:0:
140,280,198620,102,0,P|92:289|46:270,1,100,0|0,3:0|0:0,0:0:0:0:
157,176,198965,6,0,B|134:125|177:81|177:81|202:142|154:178,1,200,8|0,0:0|0:0,0:0:0:0:
121,372,199224,1,0,0:0:0:0:
139,381,199310,102,0,P|153:342|37:237,1,200,8|0,0:0|0:0,0:0:0:0:
0,150,199568,1,0,0:0:0:0:
12,162,199655,6,0,P|36:150|78:149,2,50,0|0|0,0:0|0:0|0:0,0:0:0:0:
210,0,200000,2,0,P|210:52|306:54,1,150,0|0,0:0|0:0,0:0:0:0:
368,33,200344,1,0,0:0:0:0:
368,33,200431,2,0,B|379:101|265:127|263:58|263:58|297:71,1,200,2|0,0:0|0:0,0:0:0:0:
426,224,200689,102,0,B|392:171|316:192|316:192|354:261|313:327|273:333|273:333|274:286|253:251|209:239|173:235|130:254|143:332|200:325,1,539.999983520508,2|0,3:0|0:0,3:0:0:0:
470,353,201724,5,0,0:0:0:0:
393,345,201810,2,0,L|273:333,1,119.999996337891,2|0,0:0|0:0,0:0:0:0:
195,326,202241,102,0,L|191:300,4,14.9999995422363,0|0|0|0|0,0:0|0:0|0:0|0:0|0:0,0:0:0:0:
75,308,202500,6,0,P|93:275|127:263,2,75.0000028610231,2|0|0,0:0|0:0|0:0,0:0:0:0:
401,106,202844,1,0,0:0:0:0:
401,106,202931,102,0,P|380:77|344:71,1,75.0000028610231,0|0,0:0|0:0,0:0:0:0:
263,103,203103,6,0,P|268:152|242:193,2,100,8|0|0,0:0|0:0|0:0,0:0:0:0:
126,263,203362,102,0,L|51:254,1,75.0000028610231,0|0,0:0|0:0,0:0:0:0:
311,281,203534,2,0,L|385:289,1,75.0000028610231,0|0,0:0|0:0,0:0:0:0:
163,186,203706,6,0,P|139:157|141:121,1,75.0000028610231,0|8,0:0|0:0,0:0:0:0:
77,58,203879,2,0,P|96:26|132:17,1,75.0000028610231,0|0,0:0|0:0,0:0:0:0:
359,48,204051,1,0,0:0:0:0:
359,48,204137,69,0,3:0:0:0:
221,34,204310,2,0,B|262:33|291:65|291:65|322:38|389:54,1,151.515151515152,0|0,0:0|0:0,0:0:0:0:
318,333,204482,6,0,P|315:288|278:220,1,100,8|0,3:0|0:0,0:0:0:0:
485,25,204655,2,0,P|464:70|460:119,1,100,0|0,0:0|0:0,0:0:0:0:
512,288,204827,101,0,0:0:0:0:
214,190,205000,1,0,3:0:0:0:
512,213,205172,6,0,B|457:207|457:207|410:236|410:236|364:177|364:177|302:202|302:202|271:185|271:185|234:192|234:192|167:186,1,345.000006580353,8|0,3:0|0:0,0:0:0:0:
61,93,205517,102,0,B|52:49|28:24|28:24|89:19|144:9|144:9|143:90|120:170|120:170|145:114|188:90|252:102,1,454.545454545455,4|0,1:3|0:0,0:0:0:0:
283,65,205862,6,0,B|294:43|294:43|284:15|284:15|264:37|264:37|271:73,1,110.000003356934,8|0,3:0|0:0,0:0:0:0:
198,277,206034,2,0,B|249:302|249:302|323:288,1,110.000003356934,4|0,0:0|0:0,0:0:0:0:
356,200,206206,1,0,0:0:0:0:
75,170,206379,102,0,B|103:173|103:173|108:168|108:168|108:174|108:174|229:187,1,115.000002193451,0|0,3:0|0:0,0:0:0:0:
427,107,206551,6,0,B|461:61|447:-29|343:-58|233:38|293:173|400:233,1,389.999982147218,8|0,3:0|0:0,0:0:0:0:
417,377,206896,102,0,P|444:209|352:351,1,454.545454545455,2|0,3:2|0:0,0:0:0:0:
341,337,207241,6,0,P|330:269|365:218,1,94.9999974632264,8|0,3:0|0:0,0:0:0:0:
487,245,207413,2,0,P|498:313|463:364,1,94.9999974632264,2|0,0:0|0:0,0:0:0:0:
417,377,207586,1,0,0:0:0:0:
129,382,207758,2,0,L|283:377,1,104.999996795654,0|0,3:0|0:0,0:0:0:0:
413,290,207931,102,0,B|365:287|322:234|322:234|314:321|235:379,1,284.999992389679,8|0,3:0|0:0,0:0:0:0:
107,271,208275,6,0,B|44:153|163:61|284:177|177:287,1,345.000006580353,4|0,1:3|0:0,0:0:0:0:
97,366,208620,102,0,P|55:350|23:311,1,89.9999972534181,8|0,3:0|0:0,0:0:0:0:
32,117,208793,2,0,P|8:164|6:217,1,89.9999972534181,4|0,0:0|0:0,0:0:0:0:
193,309,208965,6,0,L|211:223,1,80,2|0,0:0|0:0,0:0:0:0:
186,119,209137,2,0,L|203:203,1,80,0|0,0:0|0:0,0:0:0:0:
416,371,209310,102,0,L|406:275,1,89.9999972534181,0|0,0:0|0:0,0:0:0:0:
425,4,209482,2,0,L|411:94,1,89.9999972534181,2|0,0:0|0:0,0:0:0:0:
465,210,209655,6,0,B|517:238|568:171|508:132|434:123|455:260|293:205,1,320,0|0,3:0|0:0,0:0:0:0:
177,135,210172,1,0,0:0:0:0:
185,121,210258,1,0,0:0:0:0:
191,134,210344,1,8,3:0:0:0:
0,297,210517,102,0,P|41:262|108:254,1,119.999996337891,0|0,3:0|0:0,0:0:0:0:
218,276,210862,1,8,0:0:0:0:
214,36,211034,6,0,P|271:117|259:221,1,200
218,276,211551,1,0,0:0:0:0:
82,193,211724,102,0,P|79:90|158:178,1,269.999991760254,4|0,1:3|0:0,0:0:0:0:
310,312,212068,6,0,P|403:371|407:255,1,269.999991760254,4|0,0:0|0:0,0:0:0:0:
318,207,212413,101,0,3:0:0:0:
318,207,212586,1,0,0:0:0:0:
76,354,212758,6,0,B|52:325|19:296|19:296|93:329|191:339,1,240,8|2,0:0|0:0,0:0:0:0:
347,347,213103,102,0,B|344:327|344:327|346:315|346:315|338:265,7,44.999998626709,8|0|0|0|0|0|0|0,3:0|0:0|0:0|0:0|0:0|0:0|0:0|0:0,0:0:0:0:
176,231,213448,2,0,B|179:211|179:211|177:199|177:199|179:178,7,50,0|0|0|0|0|0|0|0,3:0|0:0|0:0|0:0|0:0|0:0|0:0|0:0,0:0:0:0:
267,88,213793,5,0,3:0:0:0:
243,335,213965,1,0,0:0:0:0:
245,68,214137,101,8,3:0:0:0:
257,356,214310,1,8,0:0:0:0:
54,147,214482,6,0,L|153:154,1,85.0000016212464,2|0,0:0|0:0,0:0:0:0:
454,223,214655,2,0,L|360:230,1,85.0000016212464,0|0,0:0|0:0,0:0:0:0:
148,372,214827,102,0,P|151:319|156:239,1,94.9999974632264,8|0,0:0|0:0,0:0:0:0:
351,16,215000,2,0,P|353:64|358:149,1,94.9999974632264,0|0,0:0|0:0,0:0:0:0:
375,348,215172,85,0,3:0:0:0:
375,348,215344,2,0,B|406:322|406:322|247:343,1,151.515151515152,0|0,0:0|0:0,0:0:0:0:
14,209,215517,6,0,L|114:220,1,100,8|0,3:0|0:0,0:0:0:0:
180,125,215689,2,0,L|194:225,1,100,2|0,0:0|0:0,0:0:0:0:
296,336,215862,1,0,0:0:0:0:
296,336,216034,102,0,P|247:337|209:305,1,100,0|0,3:0|2:0,0:0:0:0:
32,31,216206,2,0,P|128:43|180:125,1,200,8|0,3:0|0:0,0:0:0:0:
242,169,216465,1,0,0:0:0:0:
230,183,216551,6,0,B|181:144|187:77|239:37|296:49|296:49|284:100|318:132,1,300,4|0,1:3|0:0,0:0:0:0:
467,47,216896,2,0,P|421:67|372:72,1,100,8|0,3:0|0:0,0:0:0:0:
85,101,217068,2,0,P|134:105|180:125,1,100,4|0,0:0|0:0,0:0:0:0:
333,282,217241,102,0,B|308:322|308:322|296:211,1,151.515151515152,0|0,0:0|0:0,0:0:0:0:
278,44,217413,2,0,B|339:2|339:2|372:72,1,151.515151515152,0|0,3:0|0:0,0:0:0:0:
480,248,217586,1,8,3:0:0:0:
480,248,217758,6,0,P|445:219|394:223,1,100,0|0,0:0|0:0,0:0:0:0:
81,326,217931,102,0,B|150:319|150:319|162:328|162:328|235:322,1,150,2|0,3:2|0:0,0:0:0:0:
306,315,218275,6,0,P|268:253|152:308,1,202.020202020202,8|0,3:0|2:0,0:0:0:0:
159,284,218448,2,0,P|227:291|283:236,1,151.515151515152,0|0,0:0|0:0,0:0:0:0:
423,51,218620,102,0,B|463:68|463:68|317:96,1,151.515151515152,0|0,0:0|2:0,0:0:0:0:
34,96,218793,2,0,B|-6:113|-6:113|140:141,1,151.515151515152,0|0,3:0|2:0,0:0:0:0:
253,161,218965,6,0,B|282:94|282:94|209:68,1,150,8|0,3:0|0:0,0:0:0:0:
176,143,219310,102,0,P|255:197|350:171,1,200,4|0,1:3|0:0,0:0:0:0:
357,89,219568,1,0,0:0:0:0:
361,93,219655,6,0,L|369:41,1,50,8|0,3:0|0:0,0:0:0:0:
343,221,219827,2,0,L|351:169,1,50,4|0,0:0|0:0,0:0:0:0:
370,9,220000,102,0,P|406:14|448:82,1,100,2|0,0:0|0:0,0:0:0:0:
476,238,220172,2,0,L|459:139,1,100,0|0,0:0|0:0,0:0:0:0:
382,326,220344,2,0,L|397:237,1,87.500000834465,2|0,0:0|0:0,0:0:0:0:
495,366,220517,2,0,L|488:317,1,50,0|0,0:0|0:0,0:0:0:0:
446,60,220689,6,0,B|291:37|291:37|348:80,1,225.000008583069,0|0,3:0|2:0,0:0:0:0:
459,139,221034,102,0,B|474:221|474:221|443:249,1,125,8|0,3:0|0:0,0:0:0:0:
375,291,221206,1,0,0:0:0:0:
375,291,221293,2,0,P|302:269|219:280,1,160,0|0,3:0|0:0,0:0:0:0:
149,313,221551,6,0,L|377:291,1,227.272727272727,0|0,0:0|2:0,0:0:0:0:
452,278,221724,2,0,B|490:281|490:281|454:292,1,75.7575757575758,8|0,3:0|2:0,0:0:0:0:
85,206,221896,102,0,B|47:219|47:219|157:232,1,151.515151515152,0|0,0:0|0:0,0:0:0:0:
375,290,222068,6,0,L|380:252,6,37.5000014305115,4|0|0|0|0|0|0,1:3|0:0|0:0|0:0|0:0|0:0|0:0,0:0:0:0:
375,291,222413,2,0,B|292:309|292:309|300:239,1,150.000005722046,8|0,3:0|2:0,0:0:0:0:
149,26,222586,102,0,B|210:-1|253:48|253:48|287:93|335:77,1,209.999993591309,4|0,0:0|0:0,0:0:0:0:
335,77,222931,6,0,P|254:103|189:93,1,150.000005722046,0|0,3:0|2:0,0:0:0:0:
12,18,223103,1,8,3:0:0:0:
12,18,223275,2,0,B|1:67|1:67|25:110,1,100,0|0,0:0|0:0,0:0:0:0:
174,198,223448,102,0,B|193:110|106:61|22:90|4:158|57:202|101:179,1,300.000011444092,0|0,3:0|0:0,0:0:0:0:
60,354,223706,1,0,0:0:0:0:
38,359,223793,2,0,P|28:290|94:264,1,151.515151515152,8|0,3:0|0:0,0:0:0:0:
353,319,223965,5,0,0:0:0:0:
331,321,224051,2,0,B|143:334|143:334|257:339,1,303.030303030303,0|0,3:0|0:0,0:0:0:0:
438,350,224310,102,0,B|429:285|429:285|404:262|398:231|408:199,1,155.000001182556,0|0,0:0|0:0,0:0:0:0:
369,9,224482,2,0,B|389:44|383:88|350:116|350:116|330:226|330:226|406:203,1,310.000002365112,8|0,3:0|0:0,0:0:0:0:
482,226,224741,1,0,0:0:0:0:
496,242,224827,6,0,P|479:146|432:130,1,151.515151515152,0|0,3:0|0:0,0:0:0:0:
230,23,225000,2,0,B|199:60|199:60|302:51,1,151.515151515152,0|0,0:0|0:0,0:0:0:0:
456,38,225172,2,0,B|481:36,1,25,8|0,3:0|2:0,0:0:0:0:
141,110,225344,102,0,B|95:152|95:152|304:133,1,269.999991760254,4|0,3:2|2:0,0:0:0:0:
384,77,225689,6,0,L|379:126,1,50,2|0,0:0|2:0,0:0:0:0:
290,261,225862,2,0,L|295:212,1,50,2|0,0:0|2:0,0:0:0:0:
459,231,226034,102,0,B|488:242|488:242|368:254,1,151.515151515152,2|0,0:0|2:0,0:0:0:0:
30,72,226206,6,0,P|155:109|159:203,1,227.272727272727,0|0,3:0|2:0,0:0:0:0:
115,263,226379,2,0,B|91:284|91:284|209:269,1,151.515151515152,0|0,0:0|2:0,0:0:0:0:
334,71,226551,102,0,B|323:162|323:162|299:190|299:190|290:260,1,200,8|0,3:0|2:0,0:0:0:0:
282,340,226810,2,0,L|254:344,1,25,0|0,3:0|0:0,0:0:0:0:
462,5,227068,6,0,B|442:-13|442:-13|462:60,1,100,0|0,0:0|0:0,0:0:0:0:
484,140,227241,2,0,B|334:118|334:118|338:133|338:133|201:112,1,303.030303030303,8|0,3:0|0:0,0:0:0:0:
127,99,227500,1,0,0:0:0:0:
104,96,227586,2,0,P|119:23|178:37,1,151.515151515152,0|0,3:0|2:0,0:0:0:0:
324,23,227758,102,0,P|308:72|307:171,1,150,0|8,0:0|3:0,0:0:0:0:
406,347,228103,1,4,0:0:0:0:
239,44,228275,2,0,P|283:118|390:125,1,200,0|0,0:0|3:0,0:0:0:0:
457,82,228534,1,0,0:0:0:0:
457,82,228620,6,0,B|483:52|483:52|461:180,1,151.515151515152,8|0,3:0|2:0,0:0:0:0:
416,336,228793,2,0,B|436:360|436:360|459:205,1,151.515151515152,0|0,0:0|2:0,0:0:0:0:
324,23,228965,102,0,P|408:32|388:125,1,202.500000772476,0|2,3:0|2:0,0:0:0:0:
316,152,229310,2,0,B|202:126|202:126|168:119|143:130|126:150,1,200,8|0,3:0|2:0,0:0:0:0:
194,288,229568,2,0,B|216:320|216:320|281:277|281:277|246:217|246:217|180:202,1,250,2|2,0:0|0:0,0:0:0:0:
30,35,229827,2,0,B|85:5|85:5|115:59,1,125,0|0,3:0|2:0,0:0:0:0:
184,202,230000,6,0,B|219:164|201:110|201:110|180:57|218:17,1,200,8|2,3:0|0:0,0:0:0:0:
493,305,230344,1,0,3:2:0:0:
494,305,230517,102,0,P|451:337|398:333,1,100,0|0,0:0|0:0,0:0:0:0:
415,125,230689,2,0,L|421:175,6,50,8|0|0|0|0|0|0,0:0|0:0|0:0|0:0|0:0|0:0|0:0,0:0:0:0:
430,257,231034,6,0,P|382:248|347:214,1,100,0|0,0:0|0:0,0:0:0:0:
406,42,231206,2,0,P|342:85|333:137,1,100,0|0,0:0|0:0,0:0:0:0:
232,171,231379,2,0,L|282:165,6,50,8|0|0|0|0|0|0,3:0|0:0|0:0|0:0|0:0|0:0|0:0,0:0:0:0:
35,134,231724,102,0,P|133:153|160:250,1,209.999993591309,0|0,3:0|0:0,0:0:0:0:
160,248,232068,6,0,P|119:222|112:174,1,100,8|0,3:0|2:0,0:0:0:0:
258,9,232241,1,0,0:0:0:0:
243,24,232327,2,0,P|216:105|222:193,1,175.00000166893,0|0,3:0|0:0,0:0:0:0:
296,228,232586,2,0,P|321:191|375:176,1,100,0|0,0:0|0:0,0:0:0:0:
480,199,232758,102,0,B|515:268|515:268|367:251,1,225.000008583069,8|0,3:0|2:0,0:0:0:0:
372,175,233103,6,0,L|378:126,6,50,4|0|0|0|0|0|0,1:3|0:0|0:0|0:0|0:0|0:0|0:0,0:0:0:0:
345,2,233448,102,0,B|390:-2|390:-2|440:40|440:40|445:80,1,151.515151515152,8|0,3:0|0:0,0:0:0:0:
451,201,233620,2,0,B|130:169|130:169|249:224,1,454.545454545455,4|0,0:0|0:0,0:0:0:0:
305,326,233965,6,0,B|312:302|312:302|306:278,1,50,0|0,3:0|0:0,0:0:0:0:
429,120,234137,1,8,1:3:0:0:
429,120,234310,2,0,B|405:98|405:98|374:102,1,62.5,0|0,0:0|0:0,0:0:0:0:
249,224,234482,102,0,P|297:148|274:57,1,187.5,0|0,3:0|0:0,0:0:0:0:
164,34,234827,6,0,B|198:28|224:1|224:1|180:41|211:106,1,150.000005722046,8|0,3:0|0:0,0:0:0:0:
489,88,235000,101,0,0:0:0:0:
473,86,235086,2,0,L|274:58,1,200,0|2,0:0|0:0,0:0:0:0:
70,30,235344,2,0,B|79:93|79:93|87:103|87:103|101:194,1,150.000005722046,0|0,3:0|0:0,0:0:0:0:
261,260,235517,6,0,P|131:284|182:215,1,300.000011444092,8|0,3:0|0:0,0:0:0:0:
340,267,235775,1,0,0:0:0:0:
338,247,235862,102,0,P|313:200|267:183,1,100,0|0,3:0|0:0,0:0:0:0:
294,8,236034,2,0,L|281:107,1,100,0|0,0:0|0:0,0:0:0:0:
253,310,236206,2,0,L|261:261,1,50,8|0,3:0|2:0,0:0:0:0:
425,161,236379,6,0,B|414:151|394:149|382:161|382:161|412:164,1,75.0000028610231,12|0,0:0|0:0,0:0:0:0:
414,240,236465,2,0,B|194:222|194:222|181:142,1,300.000011444092,0|0,3:0|0:0,0:0:0:0:
63,24,236724,101,0,0:0:0:0:
97,20,236810,1,0,0:0:0:0:
128,36,236896,2,0,L|134:87,1,50,8|0,3:0|0:0,0:0:0:0:
162,339,237068,2,0,L|156:289,1,50,2|0,0:0|0:0,0:0:0:0:
438,85,237241,6,0,P|359:195|371:332,1,277.499998941422,0|0,3:0|0:0,0:0:0:0:
371,332,237586,2,0,P|381:231|340:144,1,200,8|0,3:0|0:0,0:0:0:0:
340,144,238103,1,0,3:0:0:0:
474,288,238275,102,0,B|408:260|361:314|361:314|311:369|248:338,1,250,8|0,3:0|0:0,0:0:0:0:
183,295,238534,1,0,0:0:0:0:
183,295,238620,2,0,P|233:261|293:273,1,125,4|0,1:3|2:0,0:0:0:0:
66,79,238793,6,0,B|127:137|86:236|86:236|90:200|68:174,1,225.000008583069,2|2,0:0|2:0,0:0:0:0:
11,224,239137,1,4,3:2:0:0:
165,296,239310,2,0,P|108:220|11:224,1,200,0|0,3:0|3:0,0:0:0:0:
15,228,239568,1,0,0:0:0:0:
19,232,239655,102,0,B|50:238|64:254|64:254|94:237|127:249,1,100,8|0,3:0|0:0,0:0:0:0:
177,372,239827,2,0,B|208:366|222:350|222:350|252:367|285:355,1,100,0|0,0:0|0:0,0:0:0:0:
235,59,240000,6,0,L|243:134,1,75.0000028610231,0|0,3:0|2:0,0:0:0:0:
261,285,240172,2,0,L|253:210,1,75.0000028610231,0|0,0:0|2:0,0:0:0:0:
388,156,240344,2,0,L|313:164,1,75.0000028610231,8|0,0:0|2:0,0:0:0:0:
107,188,240517,2,0,L|182:180,1,75.0000028610231,0|0,0:0|2:0,0:0:0:0:
472,156,240689,101,0,0:0:0:0:
472,156,240775,1,0,0:0:0:0:
472,156,240862,2,0,P|502:251|385:234,1,262.500002503395,0|0,3:0|2:0,0:0:0:0:
396,82,241206,2,0,L|388:156,1,75.0000028610231,0|0,0:0|0:0,0:0:0:0:
464,353,241379,5,2,0:0:0:0:
452,341,241896,1,0,0:0:0:0:
436,337,242068,1,0,0:0:0:0:
360,356,242758,70,0,L|364:200,1,150,0|0,3:0|0:0,0:0:0:0:
366,130,243103,1,8,3:0:0:0:
472,242,243275,5,0,0:0:0:0:
492,210,243362,1,0,0:0:0:0:
512,178,243448,1,0,0:0:0:0:
491,146,243534,1,0,0:0:0:0:
472,114,243620,1,0,3:0:0:0:
296,169,243793,2,0,L|190:174,1,100,8|0,3:0|0:0,0:0:0:0:
172,176,244051,1,0,0:0:0:0:
100,162,244137,102,0,P|52:249|144:201,1,225.000008583069,0|0,3:0|0:0,0:0:0:0:
172,176,244482,2,0,L|177:63,1,100,8|0,3:0|0:0,0:0:0:0:
127,23,244741,1,0,0:0:0:0:
114,24,244827,1,0,0:0:0:0:
102,25,244913,1,0,0:0:0:0:
77,50,245000,6,0,L|2:45,1,50,0|0,3:0|0:0,0:0:0:0:
172,176,245172,2,0,B|264:171|264:171|285:182|285:182|404:175,1,225.000008583069,8|0,3:0|0:0,0:0:0:0:
455,222,245517,102,0,B|473:175|473:175|448:105,1,100,0|0,3:0|0:0,0:0:0:0:
238,260,245862,2,0,L|244:362,1,100,8|0,3:0|0:0,0:0:0:0:
316,384,246120,1,0,0:0:0:0:
327,380,246206,1,0,0:0:0:0:
338,376,246293,1,0,0:0:0:0:
349,372,246379,1,0,3:0:0:0:
164,296,246551,1,8,3:0:0:0:
321,166,246724,1,0,0:0:0:0:
321,166,246810,1,0,0:0:0:0:
321,166,246896,6,0,L|184:160,1,100,0|0,3:0|0:0,0:0:0:0:
64,300,247241,2,0,L|201:294,1,100,8|0,3:0|0:0,0:0:0:0:
228,336,247500,2,0,L|224:388,2,50,0|0|0,0:0|0:0|0:0,0:0:0:0:
258,253,247758,102,0,P|242:218|231:333,1,437.500004172325,2|0,0:0|0:0,0:0:0:0:
267,264,248275,6,0,B|362:260|362:260|390:247|390:247|498:243,1,225.000008583069,0|0,3:0|0:0,0:0:0:0:
440,362,248620,2,0,L|397:286,1,50,8|0,3:0|0:0,0:0:0:0:
449,66,248793,1,0,0:0:0:0:
468,99,248879,1,0,0:0:0:0:
487,134,248965,1,0,0:0:0:0:
452,154,249051,1,0,0:0:0:0:
417,173,249137,1,0,3:0:0:0:
261,100,249310,2,0,L|268:0,1,100,8|0,3:0|0:0,0:0:0:0:
273,4,249568,1,0,0:0:0:0:
277,8,249655,102,0,P|299:62|174:83,1,225.000008583069,0|0,3:0|0:0,0:0:0:0:
128,27,250000,2,0,P|167:12|209:28,1,75.0000028610231,8|0,3:0|0:0,0:0:0:0:
178,238,250172,2,0,B|138:268|138:268|159:83,1,225.000008583069,0|0,0:0|0:0,0:0:0:0:
169,82,250517,1,0,3:0:0:0:
18,340,250689,2,0,L|10:205,1,100,8|0,3:0|0:0,0:0:0:0:
169,82,251034,6,0,P|163:160|49:130,1,225.000008583069,0|0,3:0|0:0,0:0:0:0:
56,117,251379,1,8,3:0:0:0:
246,236,251551,1,0,0:0:0:0:
246,236,251637,1,0,0:0:0:0:
246,236,251724,2,0,P|259:274|238:324,1,75.0000028610231,0|0,0:0|0:0,0:0:0:0:
182,276,251896,1,0,3:0:0:0:
340,116,252068,2,0,P|404:153|493:84,1,194.999991073609,8|0,3:0|0:0,0:0:0:0:
477,76,252413,102,0,B|447:130|447:130|474:307,1,225.000008583069,0|0,0:0|0:0,0:0:0:0:
461,361,252758,2,0,B|478:331|478:331|468:273,1,75.0000028610231,0|0,3:0|0:0,0:0:0:0:
240,198,252931,2,0,B|184:260|184:260|322:290,1,225.000008583069,2|0,0:0|0:0,0:0:0:0:
396,311,253275,1,2,0:0:0:0:
396,311,253793,6,0,B|232:277|232:277|156:343,1,225.000008583069,0|0,3:0|0:0,0:0:0:0:
119,278,254137,2,0,B|107:314|107:314|122:362,1,75.0000028610231,8|0,3:0|0:0,0:0:0:0:
239,157,254310,101,0,0:0:0:0:
204,107,254396,1,0,0:0:0:0:
169,58,254482,1,0,0:0:0:0:
120,93,254568,1,0,0:0:0:0:
71,128,254655,1,0,3:0:0:0:
118,349,254827,2,0,L|255:342,1,129.999994049073,8|0,3:0|0:0,0:0:0:0:
268,341,255086,1,0,0:0:0:0:
316,284,255172,6,0,P|404:336|316:364,1,225.000008583069,0|0,3:0|0:0,0:0:0:0:
268,341,255517,2,0,L|276:180,1,150.000005722046,8|0,3:0|0:0,0:0:0:0:
324,136,255775,1,0,0:0:0:0:
336,134,255862,1,0,0:0:0:0:
348,133,255948,1,0,0:0:0:0:
361,132,256034,1,0,3:0:0:0:
112,48,256206,2,0,P|44:71|56:140,1,150.000005722046,8|0,3:0|0:0,0:0:0:0:
72,144,256465,1,0,0:0:0:0:
144,124,256551,102,0,B|152:160|152:160|128:200|128:200|120:320,1,194.999991073609,0|0,3:0|0:0,0:0:0:0:
119,331,256896,1,8,3:0:0:0:
336,300,257068,1,0,0:0:0:0:
317,273,257155,1,0,0:0:0:0:
290,255,257241,1,0,0:0:0:0:
258,250,257327,1,0,0:0:0:0:
227,258,257413,1,0,3:0:0:0:
19,325,257586,2,0,L|154:333,1,100,8|0,3:0|0:0,0:0:0:0:
152,264,257844,1,0,0:0:0:0:
152,264,257931,6,0,L|140:160,1,64.9999970245363,0|0,3:0|0:0,0:0:0:0:
124,20,258103,1,0,0:0:0:0:
235,323,258275,101,8,3:0:0:0:
204,80,258448,1,0,0:0:0:0:
304,256,258620,6,0,L|292:152,1,64.9999970245363,0|0,0:0|0:0,0:0:0:0:
272,12,258793,1,0,3:0:0:0:
392,316,258965,101,8,3:0:0:0:
360,72,259137,1,0,0:0:0:0:
460,244,259310,6,0,B|420:216|420:216|304:240,1,150,0|0,3:0|0:0,0:0:0:0:
244,295,259655,102,0,P|324:322|316:234,1,200,8|0,3:0|0:0,0:0:0:0:
248,108,259913,1,0,0:0:0:0:
240,120,260000,6,0,L|248:220,1,100
449,90,260172,102,0,P|399:62|347:81,1,100,0|0,3:0|0:0,0:0:0:0:
135,126,260344,6,0,B|174:123|174:123|175:135|182:123|182:123|257:118,1,112.500004291535,8|0,3:0|0:0,0:0:0:0:
428,244,260517,102,0,B|373:271|373:271|319:236,1,125
319,236,260689,6,0,P|377:269|283:317,1,225.000008583069,0|0,3:0|0:0,0:0:0:0:
236,252,261034,2,0,B|188:228|124:252|124:252|64:276|4:252,1,225.000008583069,8|0,3:0|0:0,0:0:0:0:
16,256,261379,102,0,P|12:232|16:200,1,50
56,76,261551,2,0,L|52:12,1,37.5000014305115,8|0,0:0|0:0,0:0:0:0:
72,152,261724,1,2,0:0:0:0:
72,152,262068,5,2,0:0:0:0:
72,152,262413,2,0,L|112:156,1,32.999999899292,0|0,0:0|0:0,0:0:0:0:
220,268,262758,2,0,L|203:231,1,32.999999899292,0|0,0:0|0:0,0:0:0:0:
247,81,263103,2,0,L|223:113,1,32.999999899292,0|0,0:0|0:0,0:0:0:0:
180,168,263448,102,0,B|248:136|312:168|312:168|376:200|434:172,1,263.999999194336,2|0,0:0|0:0,0:0:0:0:
496,228,265000,1,0,0:0:0:0:
452,296,265172,6,0,P|386:333|435:172,1,428.999998690796,2|0,0:0|0:0,0:0:0:0:
434,171,267586,102,0,P|396:192|336:176,1,98.999999697876
343,181,268793,5,0,0:0:0:0:
343,181,268965,2,0,P|304:160|244:176,1,98.999999697876,2|0,0:0|0:0,0:0:0:0:
172,200,269655,2,0,L|128:196,1,32.999999899292,0|0,0:0|0:0,0:0:0:0:
139,197,270172,1,0,0:0:0:0:
65,158,270344,1,0,0:0:0:0:
69,241,270517,102,0,B|44:271|70:317|114:314|135:279|135:279|113:327|156:385|220:380|263:332|258:270|201:248,1,395.999998791504,2|0,0:0|0:0,0:0:0:0:
139,197,272758,1,0,0:0:0:0:
200,144,272931,1,0,0:0:0:0:
164,72,273103,6,0,L|88:80,1,65.999999798584,0|2,0:0|0:0,0:0:0:0:
200,144,273620,2,0,L|265:137,1,65.999999798584,0|2,0:0|0:0,0:0:0:0:
332,88,274137,1,0,0:0:0:0:
256,52,274310,1,0,0:0:0:0:
344,172,274482,102,0,L|336:280,1,98.999999697876,2|0,0:0|0:0,0:0:0:0:
336,270,275172,1,0,0:0:0:0:
336,270,275689,1,0,0:0:0:0:
404,320,275862,53,0,0:0:0:0:
344,172,276034,1,0,0:0:0:0:
232,295,276206,2,0,P|198:270|245:287,1,150,2|0,0:0|0:0,0:0:0:0:
247,285,276551,6,0,L|241:351,1,50,0|0,0:0|0:0,0:0:0:0:
112,311,276896,2,0,L|116:360,1,50,2|0,0:0|0:0,0:0:0:0:
373,343,277241,102,0,B|383:236|383:236|346:272,1,150,0|0,0:0|0:0,0:0:0:0:
352,265,277931,1,2,0:0:0:0:
352,265,278448,1,0,0:0:0:0:
239,190,278620,6,0,P|152:202|117:258,1,150,2|0,0:0|0:0,0:0:0:0:
0,191,279310,2,0,P|87:203|122:259,1,150,0|0,0:0|0:0,0:0:0:0:
125,341,280000,102,0,B|109:368|109:368|120:241,1,150,2|0,0:0|0:0,0:0:0:0:
121,74,280689,2,0,B|137:47|137:47|126:174,1,150,0|0,0:0|0:0,0:0:0:0:
119,249,281379,5,0,0:0:0:0:
119,249,281551,1,0,0:0:0:0:
254,191,281724,102,0,B|337:178|393:278|335:336|335:336|302:355|260:350|260:350|245:306|269:277,1,362.999998892212,2|0,0:0|0:0,0:0:0:0:
254,191,283793,5,0,0:0:0:0:
263,285,283965,1,0,0:0:0:0:
366,144,284137,102,0,P|418:139|469:170,1,100,2|0,0:0|0:0,0:0:0:0:
184,305,284655,2,0,P|132:310|81:279,1,100,0|0,0:0|0:0,0:0:0:0:
151,211,285172,1,0,0:0:0:0:
151,211,285344,1,0,0:0:0:0:
273,367,285517,6,0,P|277:303|282:197,1,150,2|0,0:0|0:0,0:0:0:0:
348,96,286206,102,0,P|194:134|319:205,1,350,2|0,0:0|0:0,0:0:0:0:
461,151,286896,5,0,0:0:0:0:
281,217,287068,1,0,0:0:0:0:
472,249,287241,102,0,B|416:255|386:210|386:210|379:299|300:321,1,250,2|0,0:0|0:0,0:0:0:0:
198,296,288275,6,0,L|203:215,1,69.9999978637696,2|0,0:0|0:0,0:0:0:0:
109,334,288620,102,0,L|114:253,1,69.9999978637696,0|0,0:0|0:0,0:0:0:0:
26,365,288965,6,0,L|31:284,1,69.9999978637696,2|0,0:0|0:0,0:0:0:0:
175,140,289310,1,0,0:0:0:0:
113,264,289482,1,0,0:0:0:0:
68,93,289655,102,0,P|139:80|172:154,1,150,2|0,0:0|0:0,0:0:0:0:
291,241,290344,2,0,B|256:209|256:209|269:333,1,150,0|0,0:0|0:0,0:0:0:0:
486,273,291034,6,0,B|411:250|432:326|334:295,1,150,2|0,0:0|0:0,0:0:0:0:
345,298,291724,1,0,0:0:0:0:
486,273,292068,102,0,B|529:219|473:170|473:170|482:217,1,150,0|0,0:0|0:0,0:0:0:0:
472,351,292413,5,0,0:0:0:0:
472,351,292586,1,0,0:0:0:0:
345,298,292758,102,0,B|296:276|241:325|241:325|222:263|163:256|163:256|170:323|128:355,1,329.99999899292,2|0,0:0|0:0,0:0:0:0:
66,280,294655,1,0,0:0:0:0:
86,162,294827,1,0,0:0:0:0:
86,162,295000,1,0,0:0:0:0:
266,215,295172,6,0,P|262:165|258:106,2,98.999999697876,2|0|0,0:0|0:0|0:0,0:0:0:0:
348,304,296379,1,0,0:0:0:0:
426,211,296551,102,0,P|430:161|434:102,2,98.999999697876,2|0|0,0:0|0:0|0:0,0:0:0:0:
348,304,297931,101,2,0:0:0:0:
137,49,300689,102,0,P|133:97|151:143,1,98.999999697876,2|0,0:0|0:0,0:0:0:0:
25,254,302068,2,0,P|28:302|10:348,1,98.999999697876,2|0,0:0|0:0,0:0:0:0:
9,348,302758,2,0,P|49:321|97:313,1,98.999999697876,0|0,0:0|0:0,0:0:0:0:
268,365,303448,6,0,B|231:308|232:230|302:193|328:250|262:318|174:309|174:309|171:167|271:114|325:188|385:152|408:84|390:19|365:-19|310:-20|269:21|297:66,1,791.999997583008,2|0,0:0|2:0,0:0:0:0:
441,198,307931,2,0,L|433:133,2,65.999999798584,0|0|0,0:0|0:0|0:0,0:0:0:0:
247,339,308965,102,0,B|278:334|300:356|300:356|298:365|298:365|321:337|317:302,1,131.999999597168,2|0,0:0|0:0,0:0:0:0:
372,245,310000,2,0,P|308:263|243:261,1,131.999999597168,2|0,0:0|0:0,0:0:0:0:
127,179,311034,2,0,P|161:184|190:197,1,65.999999798584,0|0,0:0|0:0,0:0:0:0:
190,318,311724,6,0,P|213:221|216:122,1,197.999999395752,2|0,0:0|0:0,0:0:0:0:
201,43,313103,1,2,0:0:0:0:
256,192,313146,12,0,316551,0:0:0:0:
