osu file format v14

[General]
AudioFilename: audio.mp3
AudioLeadIn: 0
PreviewTime: 88526
Countdown: 0
SampleSet: Soft
StackLeniency: 0.7
Mode: 0
LetterboxInBreaks: 0
EpilepsyWarning: 1
WidescreenStoryboard: 1

[Editor]
Bookmarks: 14797,29566,44335,132951,147720,162028,267720,273258
DistanceSpacing: 1.6
BeatDivisor: 2
GridSize: 4
TimelineZoom: 0.9999999

[Metadata]
Title:Life Of Sin Pt.4
TitleUnicode:Life Of Sin Pt.4
Artist:MitiS
ArtistUnicode:MitiS
Creator:Astarte
Version:Normal
Source:
Tags:instrumental dance electronic series progressive house trance chill lovestep chillstep drums and bass dnb CaffeAmericano Caffe Hokichi HydroCannon13
BeatmapID:979475
BeatmapSetID:457132

[Difficulty]
HPDrainRate:4
CircleSize:3.5
OverallDifficulty:4
ApproachRate:5.5
SliderMultiplier:1.1
SliderTickRate:1

[Events]
//Background and Video events
0,0,"bg.jpg",0,0
//Break Periods
2,30487,43133
2,118872,131824
2,148641,161362
//Storyboard Layer 0 (Background)
//Storyboard Layer 1 (Fail)
//Storyboard Layer 2 (Pass)
//Storyboard Layer 3 (Foreground)
Sprite,Foreground,Centre,"SB\ring.png",248,360 S,1,223410,223870,0.25,0.9 C,0,223410,223870,255,128,64 P,0,223410,223870,A F,0,223640,223870,1,0
Sprite,Foreground,Centre,"SB\ring.png",524,200 S,1,227102,227562,0.25,0.85 C,0,227102,227562,255,145,145 P,0,227102,227562,A F,0,227332,227562,1,0
Sprite,Foreground,Centre,"SB\ring.png",504,304 S,1,229872,230332,0.25,0.85 C,0,229872,230332,255,145,145 P,0,229872,230332,A F,0,230102,230332,1,0
Sprite,Foreground,Centre,"SB\ring.png",416,292 S,1,230795,231255,0.25,0.85 C,0,230795,231255,242,210,85 P,0,230795,231255,A F,0,231025,231255,1,0
Sprite,Foreground,Centre,"SB\ring.png",128,212 S,1,232641,233101,0.25,0.85 C,0,232641,233101,242,210,85 P,0,232641,233101,A F,0,232871,233101,1,0
Sprite,Foreground,Centre,"SB\ring.png",256,116 S,1,233564,234024,0.25,0.85 C,0,233564,234024,242,210,85 P,0,233564,234024,A F,0,233794,234024,1,0
Sprite,Foreground,Centre,"SB\ring.png",516,116 S,1,234487,234947,0.25,0.85 C,0,234487,234947,255,128,64 P,0,234487,234947,A F,0,234717,234947,1,0
Sprite,Foreground,Centre,"SB\ring.png",388,340 S,1,236333,236793,0.25,0.85 C,0,236333,236793,255,128,64 P,0,236333,236793,A F,0,236563,236793,1,0
Sprite,Foreground,Centre,"SB\ring.png",240,132 S,1,238179,238639,0.25,0.85 C,0,238179,238639,255,145,145 P,0,238179,238639,A F,0,238409,238639,1,0
Sprite,Foreground,Centre,"SB\ring.png",320,312 S,1,241872,242332,0.25,0.85 C,0,241872,242332,242,210,85 P,0,241872,242332,A F,0,242102,242332,1,0
Sprite,Foreground,Centre,"SB\ring.png",520,128 S,1,243718,244178,0.25,0.85 C,0,243718,244178,242,210,85 P,0,243718,244178,A F,0,243948,244178,1,0
Sprite,Foreground,Centre,"SB\ring.png",424,392 S,1,244641,245101,0.25,0.85 C,0,244641,245101,242,210,85 P,0,244641,245101,A F,0,244871,245101,1,0
Sprite,Foreground,Centre,"SB\ring.png",360,280 S,1,245564,246024,0.25,0.85 C,0,245564,246024,255,128,64 P,0,245564,246024,A F,0,245794,246024,1,0
Sprite,Foreground,Centre,"SB\ring.png",168,80 S,1,247410,247870,0.25,0.85 C,0,247410,247870,255,128,64 P,0,247410,247870,A F,0,247640,247870,1,0
Sprite,Foreground,Centre,"SB\ring.png",424,188 S,1,248333,248793,0.25,0.85 C,0,248333,248793,255,128,64 P,0,248333,248793,A F,0,248563,248793,1,0
Sprite,Foreground,Centre,"SB\ring.png",472,328 S,1,249256,249716,0.25,0.85 C,0,249256,249716,255,145,145 P,0,249256,249716,A F,0,249486,249716,1,0
Sprite,Foreground,Centre,"SB\ring.png",192,128 S,1,251102,251562,0.25,0.85 C,0,251102,251562,255,145,145 P,0,251102,251562,A F,0,251332,251562,1,0
Sprite,Foreground,Centre,"SB\ring.png",496,308 S,1,252949,253409,0.25,0.9 C,0,252949,253409,242,210,85 P,0,252949,253409,A F,0,253179,253409,1,0
Sprite,Foreground,Centre,"SB\highlight.png",248,360 F,0,223353,223525,0,0.7 S,0,223353,224330,1.1 C,0,223353,224330,255,128,64 P,0,223353,224330,A F,2,223525,224330,0.7,0
Sprite,Foreground,Centre,"SB\highlight.png",72,304 F,0,224045,224217,0,0.7 S,0,224045,225022,1.1 C,0,224045,225022,255,128,64 P,0,224045,225022,A F,2,224217,225022,0.7,0
Sprite,Foreground,Centre,"SB\highlight.png",120,180 F,0,224507,224679,0,0.7 S,0,224507,225484,1.1 C,0,224507,225484,255,128,64 P,0,224507,225484,A F,2,224679,225484,0.7,0
Sprite,Foreground,Centre,"SB\highlight.png",344,220 F,0,225430,225602,0,0.7 S,0,225430,226407,1.1 C,0,225430,226407,255,128,64 P,0,225430,226407,A F,2,225602,226407,0.7,0
Sprite,Foreground,Centre,"SB\highlight.png",288,140 F,0,225199,225371,0,0.7 S,0,225199,226176,1.1 C,0,225199,226176,255,128,64 P,0,225199,226176,A F,2,225371,226176,0.7,0
Sprite,Foreground,Centre,"SB\highlight.png",524,200 F,0,226122,226294,0,0.7 S,0,226122,227099,1.1 C,0,226122,227099,255,128,64 P,0,226122,227099,A F,2,226294,227099,0.7,0
Sprite,Foreground,Centre,"SB\highlight.png",524,200 F,0,227045,227217,0,0.7 S,0,227045,228022,1.1 C,0,227045,228022,255,145,145 P,0,227045,228022,A F,2,227217,228022,0.7,0
Sprite,Foreground,Centre,"SB\highlight.png",352,184 F,0,227738,227910,0,0.7 S,0,227738,228715,1.1 C,0,227738,228715,255,145,145 P,0,227738,228715,A F,2,227910,228715,0.7,0
Sprite,Foreground,Centre,"SB\highlight.png",216,144 F,0,228199,228371,0,0.7 S,0,228199,229176,1.1 C,0,228199,229176,255,145,145 P,0,228199,229176,A F,2,228371,229176,0.7,0
Sprite,Foreground,Centre,"SB\highlight.png",228,332 F,0,228892,229064,0,0.7 S,0,228892,229869,1.1 C,0,228892,229869,255,145,145 P,0,228892,229869,A F,2,229064,229869,0.7,0
Sprite,Foreground,Centre,"SB\highlight.png",308,292 F,0,229122,229294,0,0.7 S,0,229122,230099,1.1 C,0,229122,230099,255,145,145 P,0,229122,230099,A F,2,229294,230099,0.7,0
Sprite,Foreground,Centre,"SB\highlight.png",556,284 F,0,226353,226525,0,0.7 S,0,226353,227330,1.1 C,0,226353,227330,255,128,64 P,0,226353,227330,A F,2,226525,227330,0.7,0
Sprite,Foreground,Centre,"SB\highlight.png",504,304 F,0,229815,229987,0,0.7 S,0,229815,230792,1.1 C,0,229815,230792,255,145,145 P,0,229815,230792,A F,2,229987,230792,0.7,0
Sprite,Foreground,Centre,"SB\highlight.png",452,372 F,0,230045,230217,0,0.7 S,0,230045,231022,1.1 C,0,230045,231022,255,145,145 P,0,230045,231022,A F,2,230217,231022,0.7,0
Sprite,Foreground,Centre,"SB\highlight.png",416,292 F,0,230738,230910,0,0.7 S,0,230738,231715,1.1 C,0,230738,231715,242,210,85 P,0,230738,231715,A F,2,230910,231715,0.7,0
Sprite,Foreground,Centre,"SB\highlight.png",396,100 F,0,231430,231602,0,0.7 S,0,231430,232407,1.1 C,0,231430,232407,242,210,85 P,0,231430,232407,A F,2,231602,232407,0.7,0
Sprite,Foreground,Centre,"SB\highlight.png",256,116 F,0,231892,232064,0,0.7 S,0,231892,232869,1.1 C,0,231892,232869,242,210,85 P,0,231892,232869,A F,2,232064,232869,0.7,0
Sprite,Foreground,Centre,"SB\highlight.png",128,212 F,0,232584,232756,0,0.7 S,0,232584,233561,1.1 C,0,232584,233561,242,210,85 P,0,232584,233561,A F,2,232756,233561,0.7,0
Sprite,Foreground,Centre,"SB\highlight.png",168,292 F,0,232815,232987,0,0.7 S,0,232815,233792,1.1 C,0,232815,233792,242,210,85 P,0,232815,233792,A F,2,232987,233792,0.7,0
Sprite,Foreground,Centre,"SB\highlight.png",256,116 F,0,233507,233679,0,0.7 S,0,233507,234484,1.1 C,0,233507,234484,242,210,85 P,0,233507,234484,A F,2,233679,234484,0.7,0
Sprite,Foreground,Centre,"SB\highlight.png",328,168 F,0,233738,233910,0,0.7 S,0,233738,234715,1.1 C,0,233738,234715,242,210,85 P,0,233738,234715,A F,2,233910,234715,0.7,0
Sprite,Foreground,Centre,"SB\highlight.png",516,116 F,0,234430,234602,0,0.7 S,0,234430,235407,1.1 C,0,234430,235407,255,128,64 P,0,234430,235407,A F,2,234602,235407,0.7,0
Sprite,Foreground,Centre,"SB\highlight.png",568,188 F,0,234661,234833,0,0.7 S,0,234661,235638,1.1 C,0,234661,235638,255,128,64 P,0,234661,235638,A F,2,234833,235638,0.7,0
Sprite,Foreground,Centre,"SB\highlight.png",500,296 F,0,235122,235294,0,0.7 S,0,235122,236099,1.1 C,0,235122,236099,255,128,64 P,0,235122,236099,A F,2,235294,236099,0.7,0
Sprite,Foreground,Centre,"SB\highlight.png",560,412 F,0,235584,235756,0,0.7 S,0,235584,236561,1.1 C,0,235584,236561,255,128,64 P,0,235584,236561,A F,2,235756,236561,0.7,0
Sprite,Foreground,Centre,"SB\highlight.png",388,340 F,0,236276,236448,0,0.7 S,0,236276,237253,1.1 C,0,236276,237253,255,128,64 P,0,236276,237253,A F,2,236448,237253,0.7,0
Sprite,Foreground,Centre,"SB\highlight.png",92,232 F,0,237430,237602,0,0.7 S,0,237430,238407,1.1 C,0,237430,238407,255,128,64 P,0,237430,238407,A F,2,237602,238407,0.7,0
Sprite,Foreground,Centre,"SB\highlight.png",172,76 F,0,237892,238064,0,0.7 S,0,237892,238869,1.1 C,0,237892,238869,255,128,64 P,0,237892,238869,A F,2,238064,238869,0.7,0
Sprite,Foreground,Centre,"SB\highlight.png",240,132 F,0,238122,238294,0,0.7 S,0,238122,239099,1.1 C,0,238122,239099,255,145,145 P,0,238122,239099,A F,2,238294,239099,0.7,0
Sprite,Foreground,Centre,"SB\highlight.png",420,176 F,0,238815,238987,0,0.7 S,0,238815,239792,1.1 C,0,238815,239792,255,145,145 P,0,238815,239792,A F,2,238987,239792,0.7,0
Sprite,Foreground,Centre,"SB\highlight.png",536,116 F,0,239276,239448,0,0.7 S,0,239276,240253,1.1 C,0,239276,240253,255,145,145 P,0,239276,240253,A F,2,239448,240253,0.7,0
Sprite,Foreground,Centre,"SB\highlight.png",560,312 F,0,239969,240141,0,0.7 S,0,239969,240946,1.1 C,0,239969,240946,255,145,145 P,0,239969,240946,A F,2,240141,240946,0.7,0
Sprite,Foreground,Centre,"SB\highlight.png",492,364 F,0,240199,240371,0,0.7 S,0,240199,241176,1.1 C,0,240199,241176,255,145,145 P,0,240199,241176,A F,2,240371,241176,0.7,0
Sprite,Foreground,Centre,"SB\highlight.png",320,312 F,0,240892,241064,0,0.7 S,0,240892,241869,1.1 C,0,240892,241869,255,145,145 P,0,240892,241869,A F,2,241064,241869,0.7,0
Sprite,Foreground,Centre,"SB\highlight.png",240,348 F,0,241122,241294,0,0.7 S,0,241122,242099,1.1 C,0,241122,242099,255,145,145 P,0,241122,242099,A F,2,241294,242099,0.7,0
Sprite,Foreground,Centre,"SB\highlight.png",320,312 F,0,241815,241987,0,0.7 S,0,241815,242792,1.1 C,0,241815,242792,242,210,85 P,0,241815,242792,A F,2,241987,242792,0.7,0
Sprite,Foreground,Centre,"SB\highlight.png",244,164 F,0,242507,242679,0,0.7 S,0,242507,243484,1.1 C,0,242507,243484,242,210,85 P,0,242507,243484,A F,2,242679,243484,0.7,0
Sprite,Foreground,Centre,"SB\highlight.png",332,84 F,0,242969,243141,0,0.7 S,0,242969,243946,1.1 C,0,242969,243946,242,210,85 P,0,242969,243946,A F,2,243141,243946,0.7,0
Sprite,Foreground,Centre,"SB\highlight.png",520,128 F,0,243661,243833,0,0.7 S,0,243661,244638,1.1 C,0,243661,244638,242,210,85 P,0,243661,244638,A F,2,243833,244638,0.7,0
Sprite,Foreground,Centre,"SB\highlight.png",472,204 F,0,243892,244064,0,0.7 S,0,243892,244869,1.1 C,0,243892,244869,242,210,85 P,0,243892,244869,A F,2,244064,244869,0.7,0
Sprite,Foreground,Centre,"SB\highlight.png",424,392 F,0,244584,244756,0,0.7 S,0,244584,245561,1.1 C,0,244584,245561,242,210,85 P,0,244584,245561,A F,2,244756,245561,0.7,0
Sprite,Foreground,Centre,"SB\highlight.png",340,364 F,0,244815,244987,0,0.7 S,0,244815,245792,1.1 C,0,244815,245792,242,210,85 P,0,244815,245792,A F,2,244987,245792,0.7,0
Sprite,Foreground,Centre,"SB\highlight.png",180,340 F,0,246199,246371,0,0.7 S,0,246199,247176,1.1 C,0,246199,247176,255,128,64 P,0,246199,247176,A F,2,246371,247176,0.7,0
Sprite,Foreground,Centre,"SB\highlight.png",88,236 F,0,246661,246833,0,0.7 S,0,246661,247638,1.1 C,0,246661,247638,255,128,64 P,0,246661,247638,A F,2,246833,247638,0.7,0
Sprite,Foreground,Centre,"SB\highlight.png",168,80 F,0,247353,247525,0,0.7 S,0,247353,248330,1.1 C,0,247353,248330,255,128,64 P,0,247353,248330,A F,2,247525,248330,0.7,0
Sprite,Foreground,Centre,"SB\highlight.png",240,128 F,0,247584,247756,0,0.7 S,0,247584,248561,1.1 C,0,247584,248561,255,128,64 P,0,247584,248561,A F,2,247756,248561,0.7,0
Sprite,Foreground,Centre,"SB\highlight.png",424,188 F,0,248276,248448,0,0.7 S,0,248276,249253,1.1 C,0,248276,249253,255,128,64 P,0,248276,249253,A F,2,248448,249253,0.7,0
Sprite,Foreground,Centre,"SB\highlight.png",496,140 F,0,248507,248679,0,0.7 S,0,248507,249484,1.1 C,0,248507,249484,255,128,64 P,0,248507,249484,A F,2,248679,249484,0.7,0
Sprite,Foreground,Centre,"SB\highlight.png",472,328 F,0,249199,249371,0,0.7 S,0,249199,250176,1.1 C,0,249199,250176,255,145,145 P,0,249199,250176,A F,2,249371,250176,0.7,0
Sprite,Foreground,Centre,"SB\highlight.png",384,312 F,0,249430,249602,0,0.7 S,0,249430,250407,1.1 C,0,249430,250407,255,145,145 P,0,249430,250407,A F,2,249602,250407,0.7,0
Sprite,Foreground,Centre,"SB\highlight.png",260,368 F,0,249892,250064,0,0.7 S,0,249892,250869,1.1 C,0,249892,250869,255,145,145 P,0,249892,250869,A F,2,250064,250869,0.7,0
Sprite,Foreground,Centre,"SB\highlight.png",144,304 F,0,250353,250525,0,0.7 S,0,250353,251330,1.1 C,0,250353,251330,255,145,145 P,0,250353,251330,A F,2,250525,251330,0.7,0
Sprite,Foreground,Centre,"SB\highlight.png",192,128 F,0,251045,251217,0,0.7 S,0,251045,252022,1.1 C,0,251045,252022,255,145,145 P,0,251045,252022,A F,2,251217,252022,0.7,0
Sprite,Foreground,Centre,"SB\highlight.png",524,76 F,0,252199,252371,0,0.7 S,0,252199,253176,1.1 C,0,252199,253176,255,145,145 P,0,252199,253176,A F,2,252371,253176,0.7,0
Sprite,Foreground,Centre,"SB\highlight.png",560,248 F,0,252661,252833,0,0.7 S,0,252661,253638,1.1 C,0,252661,253638,255,145,145 P,0,252661,253638,A F,2,252833,253638,0.7,0
Sprite,Foreground,Centre,"SB\highlight.png",360,280 F,0,245507,245679,0,0.7 S,0,245507,246484,1.1 C,0,245507,246484,255,128,64 P,0,245507,246484,A F,2,245679,246484,0.7,0
Sprite,Foreground,Centre,"SB\ring.png",164,152 S,0,267718,267833,0.25,0.6 C,0,267718,268641,255,128,64 P,0,267718,268641,A S,0,267833,268641,0.6,1 F,0,268179,268641,1,0
//Storyboard Sound Samples

[TimingPoints]
26,461.538461538462,4,2,1,20,1,0
59102,-100,4,2,1,70,0,1
87718,-100,4,2,1,70,0,0
88641,-100,4,2,1,70,0,1
118179,-100,4,2,1,25,0,0
193872,-100,4,2,1,70,0,1
222487,-100,4,2,1,70,0,0
223410,-100,4,2,1,80,0,1
252949,-100,4,2,1,80,0,0
253410,-100,4,2,1,20,0,0

[Colours]
Combo1 : 128,128,128
Combo2 : 255,145,145
Combo3 : 242,210,85
Combo4 : 255,128,64
Combo5 : 192,192,192

[HitObjects]
136,132,14795,6,0,P|192:160|260:148,1,110,2|0,0:0|0:0,0:0:0:0:
308,104,15487,1,0,0:0:0:0:
372,172,15718,2,0,L|368:281,1,110
296,332,16410,1,0,0:0:0:0:
224,280,16641,2,0,P|208:228|220:168,2,110
372,184,18026,2,0,L|384:124,1,55
308,80,18487,6,0,P|240:88|184:76,1,110,2|0,0:0|0:0,0:0:0:0:
120,44,19179,1,0,0:0:0:0:
84,124,19410,2,0,B|76:168|76:168|84:252,1,110
128,308,20102,1,0,0:0:0:0:
208,268,20333,2,0,L|324:280,2,110
128,112,21718,2,0,L|144:56,1,55
220,100,22179,6,0,P|276:84|336:96,1,110,2|0,0:0|0:0,0:0:0:0:
396,144,22872,1,0,0:0:0:0:
348,216,23102,2,0,L|340:328,1,110
180,248,24026,2,0,P|132:252|92:244,2,82.5
260,196,24949,2,0,L|320:192,1,55
376,128,25410,2,0,L|416:184,1,55
424,260,25872,38,0,P|385:304|335:319,1,110,2|0,0:0|0:0,0:0:0:0:
264,272,26564,1,0,0:0:0:0:
196,212,26795,2,0,P|240:184|300:188,1,110
384,184,27487,1,0,0:0:0:0:
420,104,27718,5,2,0:0:0:0:
256,192,27949,12,4,29564,0:3:0:0:
392,72,44333,6,0,P|400:140|384:196,1,110,2|0,0:0|0:0,0:0:0:0:
356,260,45026,1,0,0:0:0:0:
276,224,45256,2,0,L|148:232,1,110
96,284,45949,1,0,0:0:0:0:
52,208,46179,2,0,P|40:152|44:100,2,110
84,380,47564,2,0,P|112:380|140:368,1,55
124,284,48026,38,0,L|240:304,1,110,2|0,0:0|0:0,0:0:0:0:
304,352,48718,1,0,0:0:0:0:
364,288,48949,2,0,P|384:236|376:164,1,110
360,96,49641,1,0,0:0:0:0:
280,132,49872,2,0,L|160:136,2,110
432,224,51256,2,0,L|420:288,1,55
376,352,51718,6,0,P|312:344|260:360,1,110,2|0,0:0|0:0,0:0:0:0:
180,364,52410,1,0,0:0:0:0:
140,284,52641,2,0,L|128:164,1,110
268,64,53564,2,0,P|308:68|360:60,2,82.5
184,40,54487,1,0,0:0:0:0:
140,116,54718,2,0,L|132:184,1,55
172,248,55179,1,0,0:0:0:0:
256,192,55410,12,4,57256,0:0:0:0:
348,124,59102,6,0,P|360:184|344:240,1,110,2|8,0:0|0:0,0:0:0:0:
288,296,59795,1,0,0:0:0:0:
208,260,60026,2,0,L|84:268,1,110,0|8,0:0|0:0,0:0:0:0:
20,312,60718,1,0,0:0:0:0:
8,224,60949,2,0,L|0:124,2,82.5
20,312,61872,1,0,0:0:0:0:
160,208,62333,2,0,L|220:196,1,55,8|0,0:0|0:0,0:0:0:0:
212,284,62795,38,0,P|260:296|332:272,1,110,2|8,0:0|0:0,0:0:0:0:
356,204,63487,1,0,0:0:0:0:
316,124,63718,2,0,P|263:109|210:121,1,110,0|8,0:0|0:0,0:0:0:0:
140,176,64410,1,0,0:0:0:0:
164,260,64641,2,0,L|156:352,2,82.5
140,176,65564,1,0,0:0:0:0:
308,228,66026,2,0,L|376:224,1,55,8|0,0:0|0:0,0:0:0:0:
388,308,66487,6,0,P|436:304|484:252,1,110,2|8,0:0|0:0,0:0:0:0:
492,176,67179,1,0,0:0:0:0:
428,116,67410,2,0,L|308:108,1,110,0|8,0:0|0:0,0:0:0:0:
244,156,68102,1,0,0:0:0:0:
172,104,68333,2,0,P|156:160|188:224,1,110,0|8,0:0|0:0,0:0:0:0:
224,280,69026,1,0,0:0:0:0:
296,232,69256,2,0,P|320:228|360:236,1,55
404,300,69718,2,0,P|428:304|468:296,1,55,8|0,0:0|0:0,0:0:0:0:
512,228,70179,6,0,L|504:100,1,110,2|8,0:0|0:0,0:0:0:0:
440,60,70872,1,0,0:0:0:0:
376,120,71102,2,0,P|316:128|252:116,1,110,0|8,0:0|0:0,0:0:0:0:
180,132,71795,1,0,0:0:0:0:
164,220,72026,2,0,L|144:308,2,82.5
268,76,73179,1,8,0:0:0:0:
396,196,73641,1,0,0:0:0:0:
340,264,73872,38,0,P|392:284|456:260,1,110,2|8,0:0|0:0,0:0:0:0:
508,212,74564,1,0,0:0:0:0:
464,136,74795,2,0,B|460:92|460:92|432:24,1,110,0|8,0:0|0:0,0:0:0:0:
348,8,75487,1,0,0:0:0:0:
272,56,75718,2,0,L|184:64,2,82.5
348,100,76641,1,0,0:0:0:0:
260,252,77102,2,0,P|256:288|264:316,1,55,8|0,0:0|0:0,0:0:0:0:
324,368,77564,6,0,L|200:380,1,110,2|8,0:0|0:0,0:0:0:0:
136,332,78256,1,0,0:0:0:0:
176,252,78487,2,0,P|180:192|164:136,1,110,0|8,0:0|0:0,0:0:0:0:
112,76,79179,1,0,0:0:0:0:
188,32,79410,2,0,L|288:24,2,82.5
112,76,80333,1,0,0:0:0:0:
188,236,80795,2,0,P|216:244|248:240,1,55,8|0,0:0|0:0,0:0:0:0:
296,172,81256,6,0,L|408:164,1,110,2|8,0:0|0:0,0:0:0:0:
488,132,81949,1,0,0:0:0:0:
512,216,82179,2,0,P|520:284|492:340,1,110,0|8,0:0|0:0,0:0:0:0:
432,368,82872,1,0,0:0:0:0:
356,320,83102,2,0,B|248:320,2,82.5
428,268,84026,1,0,0:0:0:0:
368,204,84256,2,0,P|364:172|364:136,1,55,0|8,0:0|0:0,0:0:0:0:
412,76,84718,1,0,0:0:0:0:
336,28,84949,38,0,B|272:24|272:24|212:32,1,110,2|8,0:0|0:0,0:0:0:0:
152,76,85641,1,0,0:0:0:0:
188,156,85872,2,0,P|200:216|180:284,1,110,0|8,0:0|0:0,0:0:0:0:
128,324,86564,1,0,0:0:0:0:
200,376,86795,2,0,L|292:384,2,82.5
136,316,87718,2,0,P|132:276|136:248,1,55
196,200,88179,2,0,P|200:160|196:132,1,55
140,80,88641,6,0,L|272:88,1,110,4|8,0:3|0:0,0:0:0:0:
312,148,89333,2,0,P|312:188|300:224,1,55
256,272,89795,2,0,P|312:264|368:292,1,110,0|8,0:0|0:0,0:0:0:0:
428,340,90487,1,0,0:0:0:0:
472,264,90718,2,0,B|478:202|478:202|470:154,1,110,0|8,0:0|0:0,0:0:0:0:
412,88,91410,1,0,0:0:0:0:
340,136,91641,2,0,L|285:142,2,55
364,220,92333,6,0,L|236:236,1,110,2|8,0:0|0:0,0:0:0:0:
176,272,93026,2,0,P|144:280|104:272,1,55
64,212,93487,2,0,P|52:164|68:88,1,110,0|8,0:0|0:0,0:0:0:0:
120,40,94179,1,0,0:0:0:0:
192,92,94410,2,0,B|256:100|256:100|324:92,1,110,0|8,0:0|0:0,0:0:0:0:
380,52,95102,1,0,0:0:0:0:
380,140,95333,2,0,L|388:216,2,55
468,152,96026,38,0,L|484:280,1,110,2|8,0:0|0:0,0:0:0:0:
424,328,96718,2,0,P|388:336|360:332,1,55
296,288,97179,2,0,P|216:288|176:308,1,110,0|8,0:0|0:0,0:0:0:0:
116,348,97872,1,0,0:0:0:0:
52,288,98102,2,0,P|40:228|52:172,1,110,0|8,0:0|0:0,0:0:0:0:
112,116,98795,1,0,0:0:0:0:
188,164,99026,2,0,B|232:172|232:172|308:164,1,110,0|8,0:0|0:0,0:0:0:0:
368,116,99718,5,2,0:0:0:0:
424,184,99949,2,0,L|432:244,1,55,0|8,0:0|0:0,0:0:0:0:
500,292,100410,2,0,L|492:352,1,55
412,380,100872,2,0,P|356:396|292:364,1,110,8|0,0:0|0:0,0:0:0:0:
228,340,101564,2,0,B|232:280|196:252|196:252|188:212|200:180,1,165,2|0,0:0|0:0,0:0:0:0:
324,64,102718,1,8,0:0:0:0:
152,32,103179,1,0,0:0:0:0:
96,100,103410,6,0,P|84:148|104:220,1,110,2|8,0:0|0:0,0:0:0:0:
168,256,104102,2,0,L|240:264,1,55
280,196,104564,2,0,P|348:192|396:228,1,110,0|8,0:0|0:0,0:0:0:0:
436,284,105256,1,0,0:0:0:0:
492,216,105487,2,0,L|508:100,1,110,0|8,0:0|0:0,0:0:0:0:
448,44,106179,1,0,0:0:0:0:
380,100,106410,2,0,P|340:112|304:104,2,55
328,28,107102,38,0,L|208:20,1,110,2|8,0:0|0:0,0:0:0:0:
156,84,107795,2,0,P|152:120|160:164,1,55
236,172,108256,2,0,P|252:216|228:280,1,110,0|8,0:0|0:0,0:0:0:0:
176,340,108949,1,0,0:0:0:0:
116,276,109179,2,0,P|97:225|113:173,1,110,0|8,0:0|0:0,0:0:0:0:
172,108,109872,1,0,0:0:0:0:
252,148,110102,2,0,P|284:144|312:152,2,55
276,232,110795,6,0,P|352:224|384:192,1,110,2|8,0:0|0:0,0:0:0:0:
440,144,111487,2,0,L|508:148,1,55
484,60,111949,2,0,L|356:52,1,110,0|8,0:0|0:0,0:0:0:0:
308,112,112641,1,0,0:0:0:0:
304,200,112872,2,0,P|240:208|192:168,1,110,0|8,0:0|0:0,0:0:0:0:
140,124,113564,1,0,0:0:0:0:
76,184,113795,2,0,B|68:228|68:228|76:308,1,110,0|8,0:0|0:0,0:0:0:0:
140,352,114487,5,2,0:0:0:0:
204,292,114718,2,0,P|236:288|276:296,1,55,0|8,0:0|0:0,0:0:0:0:
316,356,115179,2,0,P|343:358|370:354,1,55
424,284,115641,2,0,L|428:160,1,110,8|0,0:0|0:0,0:0:0:0:
344,152,116333,2,0,P|256:184|232:132,1,165,2|0,0:0|0:0,0:0:0:0:
372,28,117487,1,8,0:0:0:0:
460,180,117949,1,0,0:0:0:0:
396,240,118179,37,4,0:1:0:0:
364,100,132949,6,0,L|352:220,1,110,2|0,0:3|0:0,0:0:0:0:
224,328,133872,2,0,P|191:332|156:324,1,55
120,256,134333,2,0,L|128:180,1,55
84,124,134795,2,0,L|80:8,2,110
244,196,136179,2,0,L|320:192,1,55
376,240,136641,6,0,B|424:236|424:236|444:240|444:240|496:236,1,110,2|0,0:3|0:0,0:0:0:0:
340,336,137564,2,0,P|304:340|272:336,1,55
224,276,138026,2,0,P|196:274|169:278,1,55
84,260,138487,2,0,P|68:192|76:136,2,110
240,184,139872,2,0,P|244:144|236:104,1,55
184,64,140333,38,0,L|336:68,1,110,2|0,0:3|0:0,0:0:0:0:
464,28,141256,2,0,L|468:104,1,55
424,160,141718,2,0,L|420:236,1,55
412,304,142179,2,0,P|352:316|276:292,1,110
148,228,143102,2,0,L|56:228,1,55
56,144,143564,2,0,L|140:144,1,55
188,100,144026,6,0,P|268:88|328:104,1,110,2|0,0:3|0:0,0:0:0:0:
368,144,144718,1,0,0:0:0:0:
436,88,144949,2,0,P|452:164|428:212,1,110
456,280,145641,1,0,0:0:0:0:
384,332,145872,2,0,L|252:336,1,110,2|0,0:3|0:0,0:0:0:0:
192,364,146564,1,0,0:0:0:0:
144,292,146795,2,0,P|124:240|128:176,1,110
268,80,147718,21,4,0:3:0:0:
368,116,162487,6,0,L|356:244,1,110,4|0,0:3|0:0,0:0:0:0:
208,320,163410,2,0,L|196:192,1,110
332,100,164333,2,0,P|416:144|308:232,1,275,2|0,0:0|0:0,0:0:0:0:
152,176,165949,1,0,0:0:0:0:
152,176,166179,54,0,B|104:172|104:172|16:180,1,110,2|0,0:0|0:0,0:0:0:0:
160,44,167102,2,0,B|208:48|208:48|296:40,1,110
448,48,168026,2,0,B|448:100|408:124|408:124|464:176|432:276,1,220
188,316,169641,1,0,0:0:0:0:
188,316,169872,6,0,P|172:252|184:196,1,110,2|0,0:0|0:0,0:0:0:0:
288,72,170795,2,0,P|304:136|292:192,1,110
188,316,171718,2,0,L|424:340,1,220
496,344,172872,2,0,B|484:272|484:272|488:220,1,110
488,148,173564,54,0,P|404:160|364:144,1,110,2|0,0:0|0:0,0:0:0:0:
216,96,174487,2,0,P|200:164|220:220,1,110
292,228,175179,1,0,0:0:0:0:
312,316,175410,2,0,B|204:308|204:308|120:328,1,165,2|0,0:0|0:0,0:0:0:0:
64,292,176333,2,0,L|57:237,1,55
120,172,176795,2,0,L|126:117,1,55
68,52,177256,6,0,L|216:60,1,110,4|0,0:3|0:0,0:0:0:0:
256,96,177949,1,0,0:0:0:0:
336,60,178179,2,0,P|368:120|340:216,1,165
260,232,179102,2,0,B|248:280|248:280|256:368,2,110
412,140,180487,2,0,L|420:68,1,55
496,124,180949,54,0,L|480:252,1,110,2|0,0:0|0:0,0:0:0:0:
480,320,181641,1,0,0:0:0:0:
396,300,181872,2,0,P|324:288|212:320,1,165
152,284,182795,2,0,L|128:152,2,110
300,188,184179,2,0,L|354:190,1,55
412,256,184641,6,0,P|440:184|424:140,1,110,2|0,0:0|0:0,0:0:0:0:
384,80,185333,1,0,0:0:0:0:
308,124,185564,2,0,B|256:136|256:136|132:124,1,165
76,72,186487,2,0,P|60:128|80:184,1,110
220,276,187410,2,0,L|288:272,1,55
316,196,187872,2,0,L|370:199,1,55
456,212,188333,54,0,B|444:136|444:136|448:88,1,110,2|0,0:0|0:0,0:0:0:0:
404,24,189026,1,0,0:0:0:0:
328,72,189256,2,0,L|180:80,1,110
136,40,189949,1,0,0:0:0:0:
104,124,190179,2,0,P|92:192|116:264,1,110,2|0,0:0|0:0,0:0:0:0:
148,308,190872,1,0,0:0:0:0:
224,268,191102,2,0,P|260:264|292:272,1,55
340,328,191564,2,0,P|367:331|394:327,1,55
456,264,192026,5,2,0:0:0:0:
456,264,193872,6,0,L|464:136,1,110,4|8,0:3|0:0,0:0:0:0:
424,76,194564,1,0,0:0:0:0:
352,128,194795,2,0,B|308:140|272:124|272:124|224:140,1,110,0|8,0:0|0:0,0:0:0:0:
168,176,195487,1,0,0:0:0:0:
212,252,195718,2,0,P|216:304|204:348,2,82.5
168,176,196641,1,0,0:0:0:0:
44,52,197102,2,0,L|48:128,1,55,8|0,0:0|0:0,0:0:0:0:
8,184,197564,6,0,P|0:256|16:308,1,110,2|8,0:0|0:0,0:0:0:0:
60,364,198256,1,0,0:0:0:0:
132,312,198487,2,0,L|248:304,1,110,0|8,0:0|0:0,0:0:0:0:
328,328,199179,1,0,0:0:0:0:
364,248,199410,2,0,P|352:188|360:144,2,82.5
440,292,200333,1,0,0:0:0:0:
484,120,200795,2,0,L|476:56,1,55,8|0,0:0|0:0,0:0:0:0:
392,40,201256,6,0,B|339:51|339:27|283:43,1,110,2|8,0:0|0:0,0:0:0:0:
204,84,201949,1,0,0:0:0:0:
132,36,202179,2,0,P|118:92|150:152,1,110,0|8,0:0|0:0,0:0:0:0:
200,200,202872,1,0,0:0:0:0:
284,180,203102,2,0,L|304:304,1,110,0|8,0:0|0:0,0:0:0:0:
468,348,204026,2,0,P|472:300|464:272,1,55
404,236,204487,2,0,P|400:188|408:160,1,55
440,100,204949,38,0,L|312:108,1,110,2|8,0:0|0:0,0:0:0:0:
248,80,205641,1,0,0:0:0:0:
224,164,205872,2,0,P|148:188|104:172,1,110,0|8,0:0|0:0,0:0:0:0:
52,128,206564,1,0,0:0:0:0:
0,200,206795,2,0,L|8:332,1,110,0|8,0:0|0:0,0:0:0:0:
172,372,207718,1,0,0:0:0:0:
332,304,208179,1,0,0:0:0:0:
232,160,208641,6,0,P|244:108|232:40,1,110,2|8,0:0|0:0,0:0:0:0:
164,4,209333,1,0,0:0:0:0:
92,52,209564,2,0,P|80:104|92:172,1,110,0|8,0:0|0:0,0:0:0:0:
104,244,210256,1,0,0:0:0:0:
188,276,210487,2,0,L|292:284,2,82.5
104,244,211410,1,0,0:0:0:0:
208,100,211872,2,0,L|276:104,1,55,8|0,0:0|0:0,0:0:0:0:
336,52,212333,6,0,B|320:100|320:100|328:180,1,110,2|8,0:0|0:0,0:0:0:0:
392,220,213026,1,0,0:0:0:0:
364,304,213256,2,0,P|304:320|240:300,1,110,0|8,0:0|0:0,0:0:0:0:
192,252,213949,1,0,0:0:0:0:
112,284,214179,2,0,L|60:388,2,110,0|8|0,0:0|0:0|0:0,0:0:0:0:
88,108,215564,2,0,P|84:60|92:32,1,55
172,72,216026,38,0,L|296:64,1,110,2|8,0:0|0:0,0:0:0:0:
368,88,216718,1,0,0:0:0:0:
452,60,216949,2,0,B|468:120|428:120|452:192,1,110,0|8,0:0|0:0,0:0:0:0:
476,252,217641,1,0,0:0:0:0:
416,316,217872,2,0,P|356:328|292:312,1,110,0|8,0:0|0:0,0:0:0:0:
140,264,218795,2,0,P|136:232|144:200,1,55
212,160,219256,2,0,P|216:128|208:96,1,55
152,40,219718,6,0,L|288:48,1,110,2|8,0:0|0:0,0:0:0:0:
336,96,220410,1,0,0:0:0:0:
280,164,220641,2,0,P|272:216|284:260,2,82.5
336,96,221564,1,0,0:0:0:0:
488,184,222026,2,0,L|492:248,1,55,8|0,0:0|0:0,0:0:0:0:
404,252,222487,2,0,L|385:313,1,55,0|0,0:3|0:3,0:3:0:0:
300,288,222949,2,0,L|261:339,1,55,8|0,0:0|0:0,0:0:0:0:
184,304,223410,6,0,P|120:296|64:308,1,110,4|8,0:3|0:0,0:0:0:0:
8,248,224102,2,0,L|0:180,1,55
56,124,224564,2,0,B|124:128|124:128|168:120,1,110,0|8,0:0|0:0,0:0:0:0:
244,84,225256,1,0,0:0:0:0:
280,164,225487,2,0,P|328:192|384:180,1,110,0|8,0:0|0:0,0:0:0:0:
460,144,226179,1,0,0:0:0:0:
492,228,226410,2,0,L|496:288,2,55
460,144,227102,38,0,P|416:100|360:96,1,110,4|8,0:3|0:0,0:3:0:0:
288,128,227795,2,0,L|220:120,1,55
152,88,228256,2,0,P|128:140|148:204,1,110,0|8,0:0|0:0,0:0:0:0:
164,276,228949,1,0,0:0:0:0:
244,236,229179,2,0,B|300:228|300:228|352:236,1,110,0|8,0:0|0:0,0:0:0:0:
440,248,229872,1,0,0:0:0:0:
388,316,230102,2,0,P|388:344|396:376,2,55
352,236,230795,6,0,L|368:120,1,110,4|8,0:3|0:0,0:0:0:0:
332,44,231487,2,0,P|304:48|272:44,1,55
192,60,231949,2,0,P|136:52|80:80,1,110,0|8,0:0|0:0,0:0:0:0:
64,156,232641,1,0,0:0:0:0:
104,236,232872,2,0,P|138:202|144:120,1,110,0|8,0:0|0:0,0:0:0:0:
192,60,233564,1,0,0:0:0:0:
264,112,233795,2,0,L|384:96,1,110,0|8,0:0|0:0,0:0:0:0:
452,60,234487,5,4,0:3:0:0:
504,132,234718,2,0,P|508:168|504:196,1,55
436,240,235179,2,0,P|432:276|436:304,1,55
496,356,235641,2,0,L|372:348,1,110,8|0,0:0|0:0,0:0:0:0:
324,284,236333,2,0,P|272:248|176:272,1,165,2|0,0:0|0:0,0:0:0:0:
28,176,237487,1,8,0:0:0:0:
108,20,237949,1,0,0:0:0:0:
176,76,238179,38,0,L|288:68,1,110,4|8,0:3|0:0,0:0:0:0:
356,120,238872,2,0,P|384:124|424:112,1,55
472,60,239333,2,0,L|468:176,1,110,0|8,0:0|0:0,0:0:0:0:
496,256,240026,1,0,0:0:0:0:
428,308,240256,2,0,P|368:324|304:300,1,110,0|8,0:0|0:0,0:0:0:0:
256,256,240949,1,0,0:0:0:0:
176,292,241179,2,0,L|116:300,2,55
256,256,241872,6,0,B|264:204|264:204|256:124,1,110,4|8,0:3|0:0,0:0:0:0:
180,108,242564,2,0,L|184:48,1,55
268,28,243026,2,0,P|308:40|384:32,1,110,0|8,0:0|0:0,0:0:0:0:
456,72,243718,1,0,0:0:0:0:
408,148,243949,2,0,L|396:260,1,110,0|8,0:0|0:0,0:0:0:0:
360,336,244641,1,0,0:0:0:0:
276,308,244872,2,0,P|244:308|208:316,2,55
296,224,245564,6,0,P|220:224|164:240,1,110,4|8,0:3|0:0,0:0:0:0:
116,284,246256,2,0,L|92:220,1,55
24,180,246718,2,0,P|16:116|36:60,1,110,0|8,0:0|0:0,0:0:0:0:
104,24,247410,1,0,0:0:0:0:
176,72,247641,2,0,L|304:84,1,110,0|8,0:0|0:0,0:0:0:0:
360,132,248333,1,0,0:0:0:0:
432,84,248564,2,0,P|444:144|408:204,1,110,0|8,0:0|0:0,0:0:0:0:
408,272,249256,37,4,0:3:0:0:
320,256,249487,2,0,P|284:252|256:260,1,55
196,312,249949,2,0,P|160:316|132:308,1,55
80,248,250410,2,0,L|68:128,1,110,8|0,0:0|0:0,0:0:0:0:
128,72,251102,2,0,B|212:40|212:100|296:64,1,165,2|0,0:0|0:0,0:0:0:0:
460,20,252256,1,8,0:0:0:0:
496,192,252718,1,0,0:0:0:0:
432,252,252949,6,0,P|372:268|308:240,1,110,4|8,0:3|0:0,0:0:0:0:
180,160,253872,2,0,P|231:143|284:157,1,110,0|8,0:0|0:0,0:0:0:0:
328,328,254795,2,0,B|316:248|352:232|404:220|408:156|384:84|332:68,1,275
184,40,256410,1,0,0:0:0:0:
184,40,256641,6,0,L|64:52,1,110,2|8,0:0|0:0,0:0:0:0:
0,212,257564,2,0,L|120:224,1,110,0|8,0:0|0:0,0:0:0:0:
284,204,258487,2,0,P|316:280|452:272,1,220
336,44,260102,1,0,0:0:0:0:
336,44,260333,38,0,B|288:52|288:52|220:44,1,110,2|8,0:0|0:0,0:0:0:0:
100,164,261256,2,0,B|148:156|148:156|216:164,1,110,0|8,0:0|0:0,0:0:0:0:
380,120,262179,2,0,P|448:180|360:264,1,220
296,244,263333,2,0,P|232:236|180:252,1,110
136,316,264026,6,0,L|124:188,1,110,2|8,0:0|0:0,0:0:0:0:
256,88,264949,2,0,L|245:197,1,110,0|8,0:0|0:0,0:0:0:0:
276,280,265641,1,0,0:0:0:0:
364,276,265872,2,0,P|416:252|424:144,1,165
368,92,266795,2,0,L|304:88,1,55
236,132,267256,2,0,L|181:135,1,55,8|0,0:0|0:0,0:0:0:0:
100,96,267718,5,4,0:3:0:0:
