osu file format v14

[General]
AudioFilename: audio.mp3
AudioLeadIn: 0
PreviewTime: 88526
Countdown: 0
SampleSet: Soft
StackLeniency: 0.7
Mode: 0
LetterboxInBreaks: 0
EpilepsyWarning: 1
WidescreenStoryboard: 1

[Editor]
Bookmarks: 14797,29566,44335,132951,147720,162489,267720,273258
DistanceSpacing: 1.3
BeatDivisor: 2
GridSize: 4
TimelineZoom: 0.9999999

[Metadata]
Title:Life Of Sin Pt.4
TitleUnicode:Life Of Sin Pt.4
Artist:MitiS
ArtistUnicode:MitiS
Creator:Astarte
Version:Easy
Source:
Tags:instrumental dance electronic series progressive house trance chill lovestep chillstep drums and bass dnb CaffeAmericano Caffe Hokichi HydroCannon13
BeatmapID:981836
BeatmapSetID:457132

[Difficulty]
HPDrainRate:2
CircleSize:2.5
OverallDifficulty:2
ApproachRate:4
SliderMultiplier:0.9
SliderTickRate:1

[Events]
//Background and Video events
0,0,"bg.jpg",0,0
//Break Periods
2,30487,42833
2,118872,131509
2,148641,161047
//Storyboard Layer 0 (Background)
//Storyboard Layer 1 (Fail)
//Storyboard Layer 2 (Pass)
//Storyboard Layer 3 (Foreground)
Sprite,Foreground,Centre,"SB\ring.png",432,128 S,0,29564,29679,0.25,0.6 C,0,29564,30487,242,210,85 P,0,29564,30487,A S,0,29679,30487,0.6,1 F,0,30026,30487,1,0
Sprite,Foreground,Centre,"SB\ring.png",228,356 S,0,267718,267833,0.25,0.6 C,0,267718,268641,255,128,64 P,0,267718,268641,A S,0,267833,268641,0.6,1 F,0,268179,268641,1,0
Sprite,Foreground,Centre,"SB\ring.png",368,392 S,1,223410,223870,0.25,0.9 C,0,223410,223870,255,128,64 P,0,223410,223870,A F,0,223640,223870,1,0
Sprite,Foreground,Centre,"SB\ring.png",340,316 S,1,227102,227562,0.25,0.85 C,0,227102,227562,255,145,145 P,0,227102,227562,A F,0,227332,227562,1,0
Sprite,Foreground,Centre,"SB\ring.png",376,136 S,1,230795,231255,0.25,0.85 C,0,230795,231255,242,210,85 P,0,230795,231255,A F,0,231025,231255,1,0
Sprite,Foreground,Centre,"SB\ring.png",376,424 S,1,232641,233101,0.25,0.85 C,0,232641,233101,242,210,85 P,0,232641,233101,A F,0,232871,233101,1,0
Sprite,Foreground,Centre,"SB\ring.png",196,417 S,1,233564,234024,0.25,0.85 C,0,233564,234024,242,210,85 P,0,233564,234024,A F,0,233794,234024,1,0
Sprite,Foreground,Centre,"SB\ring.png",376,424 S,1,234487,234947,0.25,0.85 C,0,234487,234947,242,210,85 P,0,234487,234947,A F,0,234717,234947,1,0
Sprite,Foreground,Centre,"SB\ring.png",409,96 S,1,236333,236793,0.25,0.85 C,0,236333,236793,255,128,64 P,0,236333,236793,A F,0,236563,236793,1,0
Sprite,Foreground,Centre,"SB\ring.png",468,176 S,1,238179,238639,0.25,0.85 C,0,238179,238639,255,145,145 P,0,238179,238639,A F,0,238409,238639,1,0
Sprite,Foreground,Centre,"SB\ring.png",408,188 S,1,241872,242332,0.25,0.85 C,0,241872,242332,242,210,85 P,0,241872,242332,A F,0,242102,242332,1,0
Sprite,Foreground,Centre,"SB\ring.png",156,168 S,1,245564,246024,0.25,0.85 C,0,245564,246024,255,128,64 P,0,245564,246024,A F,0,245794,246024,1,0
Sprite,Foreground,Centre,"SB\ring.png",488,192 S,1,247410,247870,0.25,0.85 C,0,247410,247870,255,128,64 P,0,247410,247870,A F,0,247640,247870,1,0
Sprite,Foreground,Centre,"SB\ring.png",489,371 S,1,248333,248793,0.25,0.85 C,0,248333,248793,255,128,64 P,0,248333,248793,A F,0,248563,248793,1,0
Sprite,Foreground,Centre,"SB\ring.png",488,192 S,1,249256,249716,0.25,0.85 C,0,249256,249716,255,128,64 P,0,249256,249716,A F,0,249486,249716,1,0
Sprite,Foreground,Centre,"SB\ring.png",172,188 S,1,251102,251562,0.25,0.85 C,0,251102,251562,255,145,145 P,0,251102,251562,A F,0,251332,251562,1,0
Sprite,Foreground,Centre,"SB\ring.png",252,248 S,1,252949,253409,0.25,0.9 C,0,252949,253409,242,210,85 P,0,252949,253409,A F,0,253179,253409,1,0
Sprite,Foreground,Centre,"SB\highlight.png",368,392 F,0,223353,223525,0,0.7 S,0,223353,224330,1.1 C,0,223353,224330,255,128,64 P,0,223353,224330,A F,2,223525,224330,0.7,0
Sprite,Foreground,Centre,"SB\highlight.png",231,304 F,0,224276,224448,0,0.7 S,0,224276,225253,1.1 C,0,224276,225253,255,128,64 P,0,224276,225253,A F,2,224448,225253,0.7,0
Sprite,Foreground,Centre,"SB\highlight.png",276,392 F,0,225199,225371,0,0.7 S,0,225199,226176,1.1 C,0,225199,226176,255,128,64 P,0,225199,226176,A F,2,225371,226176,0.7,0
Sprite,Foreground,Centre,"SB\highlight.png",340,316 F,0,227045,227217,0,0.7 S,0,227045,228022,1.1 C,0,227045,228022,255,145,145 P,0,227045,228022,A F,2,227217,228022,0.7,0
Sprite,Foreground,Centre,"SB\highlight.png",464,216 F,0,227969,228141,0,0.7 S,0,227969,228946,1.1 C,0,227969,228946,255,145,145 P,0,227969,228946,A F,2,228141,228946,0.7,0
Sprite,Foreground,Centre,"SB\highlight.png",284,176 F,0,228892,229064,0,0.7 S,0,228892,229869,1.1 C,0,228892,229869,255,145,145 P,0,228892,229869,A F,2,229064,229869,0.7,0
Sprite,Foreground,Centre,"SB\highlight.png",376,136 F,0,230738,230910,0,0.7 S,0,230738,231715,1.1 C,0,230738,231715,242,210,85 P,0,230738,231715,A F,2,230910,231715,0.7,0
Sprite,Foreground,Centre,"SB\highlight.png",292,280 F,0,231661,231833,0,0.7 S,0,231661,232638,1.1 C,0,231661,232638,242,210,85 P,0,231661,232638,A F,2,231833,232638,0.7,0
Sprite,Foreground,Centre,"SB\highlight.png",376,424 F,0,232584,232756,0,0.7 S,0,232584,233561,1.1 C,0,232584,233561,242,210,85 P,0,232584,233561,A F,2,232756,233561,0.7,0
Sprite,Foreground,Centre,"SB\highlight.png",456,364 F,0,234892,235064,0,0.7 S,0,234892,235869,1.1 C,0,234892,235869,255,128,64 P,0,234892,235869,A F,2,235064,235869,0.7,0
Sprite,Foreground,Centre,"SB\highlight.png",428,268 F,0,235353,235525,0,0.7 S,0,235353,236330,1.1 C,0,235353,236330,255,128,64 P,0,235353,236330,A F,2,235525,236330,0.7,0
Sprite,Foreground,Centre,"SB\highlight.png",468,176 F,0,235815,235987,0,0.7 S,0,235815,236792,1.1 C,0,235815,236792,255,128,64 P,0,235815,236792,A F,2,235987,236792,0.7,0
Sprite,Foreground,Centre,"SB\highlight.png",409,96 F,0,236276,236448,0,0.7 S,0,236276,237253,1.1 C,0,236276,237253,255,128,64 P,0,236276,237253,A F,2,236448,237253,0.7,0
Sprite,Foreground,Centre,"SB\highlight.png",468,176 F,0,238122,238294,0,0.7 S,0,238122,239099,1.1 C,0,238122,239099,255,145,145 P,0,238122,239099,A F,2,238294,239099,0.7,0
Sprite,Foreground,Centre,"SB\highlight.png",556,324 F,0,239045,239217,0,0.7 S,0,239045,240022,1.1 C,0,239045,240022,255,145,145 P,0,239045,240022,A F,2,239217,240022,0.7,0
Sprite,Foreground,Centre,"SB\highlight.png",474,265 F,0,239969,240141,0,0.7 S,0,239969,240946,1.1 C,0,239969,240946,255,145,145 P,0,239969,240946,A F,2,240141,240946,0.7,0
Sprite,Foreground,Centre,"SB\highlight.png",408,188 F,0,241815,241987,0,0.7 S,0,241815,242792,1.1 C,0,241815,242792,242,210,85 P,0,241815,242792,A F,2,241987,242792,0.7,0
Sprite,Foreground,Centre,"SB\highlight.png",248,244 F,0,242738,242910,0,0.7 S,0,242738,243715,1.1 C,0,242738,243715,242,210,85 P,0,242738,243715,A F,2,242910,243715,0.7,0
Sprite,Foreground,Centre,"SB\highlight.png",68,216 F,0,243661,243833,0,0.7 S,0,243661,244638,1.1 C,0,243661,244638,242,210,85 P,0,243661,244638,A F,2,243833,244638,0.7,0
Sprite,Foreground,Centre,"SB\highlight.png",156,168 F,0,245507,245679,0,0.7 S,0,245507,246484,1.1 C,0,245507,246484,255,128,64 P,0,245507,246484,A F,2,245679,246484,0.7,0
Sprite,Foreground,Centre,"SB\highlight.png",332,120 F,0,246430,246602,0,0.7 S,0,246430,247407,1.1 C,0,246430,247407,255,128,64 P,0,246430,247407,A F,2,246602,247407,0.7,0
Sprite,Foreground,Centre,"SB\highlight.png",488,192 F,0,247353,247525,0,0.7 S,0,247353,248330,1.1 C,0,247353,248330,255,128,64 P,0,247353,248330,A F,2,247525,248330,0.7,0
Sprite,Foreground,Centre,"SB\highlight.png",428,112 F,0,249661,249833,0,0.7 S,0,249661,250638,1.1 C,0,249661,250638,255,145,145 P,0,249661,250638,A F,2,249833,250638,0.7,0
Sprite,Foreground,Centre,"SB\highlight.png",332,144 F,0,250122,250294,0,0.7 S,0,250122,251099,1.1 C,0,250122,251099,255,145,145 P,0,250122,251099,A F,2,250294,251099,0.7,0
Sprite,Foreground,Centre,"SB\highlight.png",236,112 F,0,250584,250756,0,0.7 S,0,250584,251561,1.1 C,0,250584,251561,255,145,145 P,0,250584,251561,A F,2,250756,251561,0.7,0
Sprite,Foreground,Centre,"SB\highlight.png",172,188 F,0,251045,251217,0,0.7 S,0,251045,252022,1.1 C,0,251045,252022,255,145,145 P,0,251045,252022,A F,2,251217,252022,0.7,0
//Storyboard Sound Samples

[TimingPoints]
26,461.538461538462,4,2,1,20,1,0
59102,-100,4,2,1,70,0,1
87718,-100,4,2,1,70,0,0
88641,-100,4,2,1,70,0,1
118179,-100,4,2,1,25,0,0
193872,-100,4,2,1,70,0,1
222487,-100,4,2,1,70,0,0
223410,-100,4,2,1,80,0,1
252949,-100,4,2,1,80,0,0
253872,-100,4,2,1,20,0,0

[Colours]
Combo1 : 128,128,128
Combo2 : 255,145,145
Combo3 : 242,210,85
Combo4 : 255,128,64
Combo5 : 192,192,192

[HitObjects]
84,196,14795,6,0,P|128:204|200:184,1,90,2|0,0:0|0:0,0:0:0:0:
256,144,15718,2,0,P|300:137|344:145,1,90
408,224,16641,2,0,P|444:144|388:52,1,180
316,28,18026,1,0,0:0:0:0:
252,104,18487,6,0,B|244:148|244:148|252:220,1,90,2|0,0:0|0:0,0:0:0:0:
336,244,19410,2,0,B|341:198|341:198|333:154,1,90
252,104,20333,2,0,B|188:88|188:88|64:104,1,180
8,176,21718,1,0,0:0:0:0:
68,256,22179,6,0,L|192:240,1,90,2|0,0:0|0:0,0:0:0:0:
248,284,23102,2,0,L|337:295,1,90
424,344,24026,2,0,P|488:288|452:184,1,180
400,136,25410,1,0,0:0:0:0:
304,152,25872,38,0,B|260:176|248:220|248:220|204:200|144:224,1,180,2|0,0:0|0:0,0:0:0:0:
108,304,27256,1,0,0:0:0:0:
208,320,27718,2,0,P|296:316|352:224,1,180,2|0,0:0|0:0,0:0:0:0:
312,156,29102,1,0,0:0:0:0:
368,72,29564,5,4,0:3:0:0:
426,197,44333,6,0,P|385:216|316:214,1,90,2|0,0:0|0:0,0:0:0:0:
250,180,45256,2,0,P|205:184|164:203,1,90
76,252,46179,2,0,P|156:304|256:248,1,180
328,252,47564,1,0,0:0:0:0:
308,156,48026,38,0,L|320:66,1,90,2|0,0:0|0:0,0:0:0:0:
416,36,48949,2,0,L|403:125,1,90
388,224,49872,2,0,P|296:264|216:208,1,180
188,140,51256,1,0,0:0:0:0:
256,68,51718,6,0,L|368:60,1,90,2|0,0:0|0:0,0:0:0:0:
304,152,52641,2,0,L|192:160,1,90
132,100,53564,2,0,P|116:176|216:260,1,180
276,264,54949,1,0,0:0:0:0:
364,312,55410,6,0,B|384:268|368:224|368:224|352:176|376:124,1,180,2|0,0:0|0:0,0:0:0:0:
424,52,56795,1,0,0:0:0:0:
328,32,57256,2,0,B|292:44|272:80|272:80|172:20|172:136|60:36,1,270,2|0,0:0|0:0,0:0:0:0:
0,104,59102,38,0,L|8:204,1,90,4|8,0:3|0:0,0:0:0:0:
100,232,60026,2,0,L|93:142,1,90,0|8,0:0|0:0,0:0:0:0:
6,193,60949,2,0,P|20:300|112:336,1,180,2|0,0:0|0:0,0:0:0:0:
168,296,62333,1,8,0:0:0:0:
252,352,62795,6,0,L|356:344,1,90,2|8,0:0|0:0,0:0:0:0:
424,288,63718,2,0,B|428:248|428:248|412:168,1,90,0|8,0:0|0:0,0:0:0:0:
448,104,64641,2,0,L|260:112,1,180,2|0,0:0|0:0,0:0:0:0:
176,72,66026,1,8,0:0:0:0:
116,152,66487,6,0,P|108:200|120:252,1,90,2|8,0:0|0:0,0:0:0:0:
204,288,67410,2,0,P|212:243|204:199,1,90,0|8,0:0|0:0,0:0:0:0:
116,152,68333,2,0,B|192:160|192:160|328:144,1,180,2|0,0:0|0:0,0:0:0:0:
392,164,69718,1,8,0:0:0:0:
440,252,70179,38,0,P|384:304|272:276,1,180,2|0,0:0|0:0,0:0:0:0:
232,204,71564,1,8,0:0:0:0:
288,124,72026,2,0,P|237:53|150:48,1,180,2|0,0:0|0:0,0:0:0:0:
88,128,73410,1,8,0:0:0:0:
136,212,73872,6,0,L|160:336,1,90,2|8,0:0|0:0,0:0:0:0:
248,328,74795,2,0,L|230:239,1,90,0|8,0:0|0:0,0:0:0:0:
240,140,75718,2,0,B|304:152|304:152|428:124,1,180,2|0,0:0|0:0,0:0:0:0:
512,96,77102,1,8,0:0:0:0:
508,196,77564,6,0,P|504:248|484:288,1,90,2|8,0:0|0:0,0:0:0:0:
392,296,78487,2,0,P|340:300|300:320,1,90,0|8,0:0|0:0,0:0:0:0:
220,368,79410,2,0,P|128:372|40:300,1,180,2|0,0:0|0:0,0:0:0:0:
40,228,80795,1,8,0:0:0:0:
112,160,81256,38,0,P|156:164|200:144,1,90,2|8,0:0|0:0,0:0:0:0:
292,180,82179,2,0,P|336:160|378:164,1,90,0|8,0:0|0:0,0:0:0:0:
468,120,83102,2,0,P|472:192|368:264,1,180,2|0,0:0|0:0,0:0:0:0:
304,236,84487,1,8,0:0:0:0:
232,304,84949,6,0,P|208:260|208:216,1,90,2|8,0:0|0:0,0:0:0:0:
108,200,85872,2,0,P|130:155|166:129,1,90,0|8,0:0|0:0,0:0:0:0:
260,132,86795,2,0,B|308:148|308:148|416:152,1,135,2|0,0:0|0:0,0:0:0:0:
500,252,88179,1,8,0:0:0:0:
428,320,88641,6,0,P|380:328|324:312,1,90,4|8,0:3|0:0,0:0:0:0:
268,252,89564,2,0,B|296:212|296:212|308:144,1,90,0|8,0:0|0:0,0:0:0:0:
232,104,90487,2,0,P|288:76|368:96,2,135,2|0|8,0:0|0:0|0:0,0:0:0:0:
144,148,92333,38,0,P|180:188|240:200,1,90,2|8,0:0|0:0,0:0:0:0:
312,188,93256,2,0,P|351:208|377:244,1,90,0|8,0:0|0:0,0:0:0:0:
324,328,94179,2,0,P|256:344|192:328,2,135,2|0|8,0:0|0:0|0:0,0:0:0:0:
380,244,96026,6,0,L|388:132,1,90,2|8,0:0|0:0,0:0:0:0:
304,100,96949,2,0,L|297:189,1,90,0|8,0:0|0:0,0:0:0:0:
252,276,97872,2,0,B|164:316|164:244|76:284,2,180,2|0|2,0:0|0:0|0:0,0:0:0:0:
348,304,100179,5,8,0:0:0:0:
432,256,100641,1,0,0:0:0:0:
440,156,101102,1,8,0:0:0:0:
380,76,101564,2,0,B|328:68|328:68|245:79,2,135,2|0|8,0:0|0:0|0:0,0:0:0:0:
480,84,103410,38,0,P|464:136|400:168,1,90,2|8,0:0|0:0,0:0:0:0:
340,172,104333,2,0,P|308:203|298:246,1,90,0|8,0:1|0:0,0:0:0:0:
320,344,105256,2,0,B|248:356|248:356|160:340,2,135,2|0|8,0:0|0:0|0:0,0:0:0:0:
396,280,107102,6,0,P|412:232|396:168,1,90,2|8,0:0|0:0,0:0:0:0:
328,136,108026,2,0,P|312:184|328:248,1,90,0|8,0:0|0:0,0:0:0:0:
244,288,108949,2,0,P|216:224|224:140,2,135,2|0|8,0:0|0:0|0:0,0:0:0:0:
332,336,110795,6,0,B|376:336|376:336|420:320,1,90,2|8,0:0|0:0,0:0:0:0:
444,224,111718,2,0,B|400:224|400:224|356:240,1,90,0|8,0:0|0:0,0:0:0:0:
264,272,112641,2,0,P|196:260|156:192,2,135,2|0|8,0:0|0:0|0:0,0:0:0:0:
256,192,114487,12,4,118179,3:1:0:0:
188,76,132949,38,0,P|184:120|224:184,1,90,2|0,0:3|0:0,0:0:0:0:
296,196,133872,2,0,P|312:237|308:281,1,90
232,344,134795,2,0,L|416:336,1,180,2|0,0:0|0:0,0:0:0:0:
512,328,136179,1,0,0:0:0:0:
456,244,136641,6,0,P|440:192|448:144,1,90,2|0,0:3|0:0,0:0:0:0:
484,64,137564,2,0,L|380:56,1,90
324,128,138487,2,0,P|248:164|160:112,1,180,2|0,0:0|0:0,0:0:0:0:
88,68,139872,1,0,0:0:0:0:
40,156,140333,6,0,L|48:268,1,90,2|0,0:3|0:0,0:0:0:0:
144,220,141256,2,0,L|168:332,1,90
256,344,142179,2,0,B|344:304|344:376|444:332,1,180,2|0,0:0|0:0,0:0:0:0:
504,272,143564,1,0,0:0:0:0:
464,180,144026,38,0,L|264:156,1,180,2|0,0:3|0:0,0:0:0:0:
208,100,145410,1,0,0:0:0:0:
136,168,145872,2,0,P|156:248|248:304,1,180,2|0,0:3|0:0,0:0:0:0:
320,256,147256,1,0,0:0:0:0:
408,304,147718,37,4,0:3:0:0:
144,128,162487,6,0,L|244:136,1,90,4|0,0:3|0:0,0:0:0:0:
264,232,163410,2,0,L|353:224,1,90
396,136,164333,2,0,P|452:224|364:324,1,225,2|0,0:0|0:0,0:0:0:0:
256,264,166179,54,0,L|156:256,1,90,2|0,0:0|0:0,0:0:0:0:
140,160,167102,2,0,L|240:168,1,90
324,136,168026,2,0,B|380:124|380:124|412:188|364:272,1,180,2|0,0:0|0:0,0:0:0:0:
208,340,169872,6,0,P|156:348|112:336,1,90,2|0,0:0|0:0,0:0:0:0:
120,240,170795,2,0,P|172:232|216:244,1,90
268,316,171718,2,0,L|452:300,1,180,2|0,0:0|0:0,0:0:0:0:
508,112,173564,54,0,P|468:76|416:72,1,90,2|0,0:0|0:0,0:0:0:0:
348,116,174487,2,0,L|232:120,1,90
192,44,175410,2,0,P|156:120|236:216,1,180,2|0,0:0|0:0,0:0:0:0:
276,260,176795,1,0,0:0:0:0:
364,304,177256,6,0,P|372:256|356:200,1,90,4|0,0:3|0:0,0:0:0:0:
284,160,178179,2,0,P|276:112|292:56,1,90
364,16,179102,2,0,L|164:28,1,180,2|0,0:0|0:0,0:0:0:0:
84,36,180487,1,0,0:0:0:0:
144,116,180949,54,0,P|152:172|132:220,1,90,4|0,0:3|0:0,0:0:0:0:
64,260,181872,2,0,P|56:316|76:364,1,90
152,304,182795,2,0,B|212:324|212:324|340:308,1,180,2|0,0:0|0:0,0:0:0:0:
428,320,184179,1,0,0:0:0:0:
440,220,184641,6,0,L|456:120,1,90,4|0,0:3|0:0,0:0:0:0:
368,80,185564,2,0,L|353:168,1,90
296,248,186487,2,0,P|200:276|124:216,1,180,2|0,0:0|0:0,0:0:0:0:
128,140,187872,1,0,0:0:0:0:
204,76,188333,53,4,0:3:0:0:
256,192,188564,12,0,192026,0:0:0:0:
368,276,193872,22,0,P|316:280|268:260,1,90,4|8,0:3|0:0,0:0:0:0:
332,184,194795,2,0,P|376:179|419:191,1,90,0|8,0:0|0:0,0:0:0:0:
464,280,195718,2,0,L|484:84,1,180
408,36,197102,1,8,0:0:0:0:
328,92,197564,6,0,P|268:100|224:80,1,90,2|8,0:0|0:0,0:0:0:0:
147,127,198487,2,0,P|104:117|61:125,1,90,0|8,0:0|0:0,0:0:0:0:
100,216,199410,2,0,P|192:216|248:132,1,180
320,88,200795,1,8,0:0:0:0:
400,148,201256,6,0,L|404:248,1,90,2|8,0:0|0:0,0:0:0:0:
492,284,202179,2,0,L|495:194,1,90,0|8,0:0|0:0,0:0:0:0:
444,108,203102,2,0,P|388:156|284:132,1,180
192,136,204487,1,8,0:0:0:0:
124,64,204949,38,0,P|92:140|160:232,1,180,2|0,0:0|0:0,0:0:0:0:
188,304,206333,1,8,0:0:0:0:
284,280,206795,2,0,L|336:84,1,180,2|0,0:0|0:0,0:0:0:0:
408,44,208179,1,8,0:0:0:0:
472,120,208641,6,0,P|480:180|468:228,1,90,2|8,0:0|0:0,0:0:0:0:
396,268,209564,2,0,P|336:272|292:292,1,90,0|8,0:0|0:0,0:0:0:0:
232,344,210487,2,0,B|120:356|120:356|40:328,1,180
16,240,211872,1,8,0:0:0:0:
88,172,212333,6,0,P|108:132|104:76,1,90,2|8,0:0|0:0,0:0:0:0:
168,8,213256,2,0,L|280:20,1,90,0|8,0:0|0:0,0:0:0:0:
340,72,214179,2,0,P|368:156|296:240,1,180
284,320,215564,1,8,0:0:0:0:
196,276,216026,38,0,L|96:284,1,90,2|8,0:0|0:0,0:0:0:0:
56,196,216949,2,0,L|156:188,1,90,0|8,0:0|0:0,0:0:0:0:
196,276,217872,2,0,P|244:196|200:104,1,180
140,56,219256,1,8,0:0:0:0:
224,4,219718,6,0,L|428:72,1,180,2|0,0:0|0:0,0:0:0:0:
492,56,221102,1,8,0:0:0:0:
472,152,221564,2,0,B|448:240|504:240|476:332,1,180,2|0,0:0|0:0,0:0:0:0:
388,284,222949,1,8,0:0:0:0:
304,336,223410,6,0,P|256:344|192:324,1,90,4|8,0:3|0:0,0:0:0:0:
167,248,224333,2,0,P|212:240|256:248,1,90,0|8,0:0|0:0,0:0:0:0:
212,336,225256,2,0,P|132:340|80:292,2,135,0|0|8,0:0|0:0|0:0,0:0:0:0:
276,260,227102,38,0,L|404:252,1,90,4|8,0:3|0:0,0:0:0:0:
400,160,228026,2,0,L|272:168,1,90,0|8,0:0|0:0,0:0:0:0:
220,120,228949,2,0,B|140:112|140:112|52:132,2,135,0|0|8,0:0|0:0|0:0,0:0:0:0:
312,80,230795,6,0,P|320:124|304:176,1,90,4|8,0:3|0:0,0:0:0:0:
228,224,231718,2,0,P|220:268|236:320,1,90,0|8,0:0|0:0,0:0:0:0:
312,368,232641,2,0,L|120:360,2,180,0|0|4,0:0|0:0|0:3,0:0:0:0:
392,308,234949,5,8,0:0:0:0:
364,212,235410,1,0,0:0:0:0:
404,120,235872,1,8,0:0:0:0:
345,40,236333,2,0,P|271:30|200:44,2,135,0|0|8,0:0|0:0|0:0,0:0:0:0:
404,120,238179,38,0,L|412:224,1,90,4|8,0:3|0:0,0:0:0:0:
492,268,239102,2,0,L|498:178,1,90,0|8,0:0|0:0,0:0:0:0:
410,209,240026,2,0,P|344:232|260:192,2,135,0|0|8,0:0|0:0|0:0,0:0:0:0:
344,132,241872,6,0,L|248:120,1,90,4|8,0:3|0:0,0:0:0:0:
184,188,242795,2,0,L|94:199,1,90,0|8,0:0|0:0,0:0:0:0:
4,160,243718,2,0,P|0:232|44:284,2,135,0|0|8,0:0|0:0|0:0,0:0:0:0:
92,112,245564,6,0,P|140:120|208:96,1,90,4|8,0:3|0:0,0:0:0:0:
268,64,246487,2,0,P|312:55|355:64,1,90,0|8,0:0|0:0,0:0:0:0:
424,136,247410,2,0,B|420:200|420:200|428:244|428:244|424:328,2,180,0|0|4,0:0|0:0|0:3,0:0:0:0:
364,56,249718,37,8,0:0:0:0:
268,88,250179,1,0,0:0:0:0:
172,56,250641,1,8,0:0:0:0:
108,132,251102,2,0,P|88:184|132:276,2,135,0|0|8,0:0|0:0|0:0,0:0:0:0:
188,192,252949,5,4,0:3:0:0:
383,227,253872,2,0,P|427:236|471:227,1,90,0|8,0:0|0:0,0:0:0:0:
424,136,254795,2,0,P|324:148|284:216,1,180,2|0,0:0|0:0,0:0:0:0:
248,300,256179,1,8,0:0:0:0:
152,324,256641,5,2,0:0:0:0:
28,168,257564,2,0,L|20:76,1,90,0|8,0:0|0:0,0:0:0:0:
96,16,258487,2,0,B|164:28|164:28|284:16,1,180,2|0,0:0|0:0,0:0:0:0:
372,44,259872,1,8,0:0:0:0:
428,128,260333,38,0,B|420:196|420:196|424:240|424:240|412:324,1,180,2|0,0:0|0:0,0:0:0:0:
216,308,262179,2,0,B|206:241|206:241|210:197|210:197|202:129,1,180,2|0,0:0|0:0,0:0:0:0:
256,48,263564,1,8,0:0:0:0:
352,76,264026,5,2,0:0:0:0:
476,228,264949,2,0,P|416:236|368:220,1,90,0|8,0:0|0:0,0:0:0:0:
304,176,265872,1,2,0:0:0:0:
112,132,266795,2,0,P|104:188|120:248,1,90,0|8,0:0|0:0,0:0:0:0:
164,300,267718,5,4,0:3:0:0:
