osu file format v14

[General]
AudioFilename: audio.mp3
AudioLeadIn: 0
PreviewTime: 88526
Countdown: 0
SampleSet: Soft
StackLeniency: 0.7
Mode: 0
LetterboxInBreaks: 0
EpilepsyWarning: 1
WidescreenStoryboard: 1

[Editor]
Bookmarks: 14797,29566,44335,132951,147720,162028,267720,273258
DistanceSpacing: 1.3
BeatDivisor: 4
GridSize: 8
TimelineZoom: 1.5

[Metadata]
Title:Life Of Sin Pt.4
TitleUnicode:Life Of Sin Pt.4
Artist:MitiS
ArtistUnicode:MitiS
Creator:Astarte
Version:Collab Hard
Source:
Tags:instrumental dance electronic series progressive house trance chill lovestep chillstep drums and bass dnb CaffeAmericano Caffe Hokichi HydroCannon13
BeatmapID:990805
BeatmapSetID:457132

[Difficulty]
HPDrainRate:6
CircleSize:4
OverallDifficulty:6
ApproachRate:7.5
SliderMultiplier:1.3
SliderTickRate:1

[Events]
//Background and Video events
0,0,"bg.jpg",0,0
//Break Periods
2,30487,43508
2,118872,132124
2,148641,161662
//Storyboard Layer 0 (Background)
//Storyboard Layer 1 (Fail)
//Storyboard Layer 2 (Pass)
//Storyboard Layer 3 (Foreground)
Sprite,Foreground,Centre,"SB\collab.png",110,360 F,2,10179,11102,0,1 S,0,10179,15256,0.55 F,0,13872,15256,1,0
Sprite,Foreground,Centre,"SB\hc.png",110,360 F,2,12026,12949,0,1 S,0,12026,15256,0.55 F,0,13872,15256,1,0
//Storyboard Sound Samples

[TimingPoints]
26,461.538461538462,4,2,1,20,1,0
59102,-100,4,2,1,70,0,1
87718,-100,4,2,1,70,0,0
88641,-90.9090909090909,4,2,1,70,0,1
118179,-100,4,2,1,25,0,0
193872,-90.9090909090909,4,2,1,70,0,1
222487,-90.9090909090909,4,2,1,70,0,0
223410,-90.9090909090909,4,2,1,70,0,1
252949,-100,4,2,1,70,0,0
253410,-100,4,2,1,20,0,0
267718,-100,4,2,1,5,0,0

[Colours]
Combo1 : 128,128,128
Combo2 : 255,145,145
Combo3 : 242,210,85
Combo4 : 255,128,64
Combo5 : 192,192,192

[HitObjects]
344,80,14795,6,0,L|328:232,1,130,2|0,0:0|0:0,0:0:0:0:
268,268,15487,1,0,0:0:0:0:
268,268,15602,1,0,0:0:0:0:
268,268,15718,2,0,P|256:304|260:336,1,65
399,324,16179,2,0,B|376:316|376:316|336:312,1,65
460,264,16641,2,0,P|480:196|456:120,1,130
400,88,17333,1,0,0:0:0:0:
328,48,17564,2,0,P|320:92|332:136,1,65
268,244,18026,2,0,P|270:211|262:180,1,65
200,280,18487,6,0,L|348:296,1,130,2|0,0:0|0:0,0:0:0:0:
422,209,19179,1,0,0:0:0:0:
422,209,19295,1,0,0:0:0:0:
422,209,19410,2,0,P|422:241|412:272,1,65
336,176,19872,2,0,L|344:108,1,65
356,72,20218,1,0,0:0:0:0:
356,72,20333,2,0,P|284:84|224:60,1,130
152,100,21026,2,0,L|144:168,1,65
96,232,21487,1,0,0:0:0:0:
161,339,21718,2,0,P|168:308|168:276,1,65
96,232,22179,6,0,L|240:224,1,130,2|0,0:0|0:0,0:0:0:0:
288,168,22872,1,0,0:0:0:0:
328,244,23102,2,0,P|380:268|472:236,1,130
276,182,24026,2,0,L|284:312,1,130
204,288,24718,1,0,0:0:0:0:
204,288,24833,1,0,0:0:0:0:
204,288,24949,2,0,P|164:284|128:296,1,65
80,232,25410,2,0,P|72:192|80:148,1,65
160,64,25872,38,0,L|152:200,1,130,2|0,0:0|0:0,0:0:0:0:
200,264,26564,1,0,0:0:0:0:
332,288,26795,2,0,B|300:288|280:268|280:268|276:304|260:324|228:344,1,130
336,200,27487,1,0,0:0:0:0:
256,192,27718,12,4,29564,0:3:0:0:
440,184,44333,6,0,P|384:216|312:200,1,130,2|0,0:0|0:0,0:0:0:0:
264,268,45026,1,0,0:0:0:0:
264,268,45141,1,0,0:0:0:0:
264,268,45256,2,0,L|184:276,1,65
99,345,45718,2,0,L|164:352,1,65
100,260,46179,2,0,P|84:200|104:132,1,130
160,72,46872,1,0,0:0:0:0:
224,124,47102,2,0,P|256:128|300:120,1,65
244,216,47564,2,0,P|211:212|179:216,1,65
280,288,48026,6,0,P|284:224|328:180,1,130,2|0,0:0|0:0,0:0:0:0:
420,212,48718,1,0,0:0:0:0:
420,212,48833,1,0,0:0:0:0:
420,212,48949,2,0,L|432:132,1,65
496,232,49410,2,0,L|505:296,1,65
392,300,49872,2,0,P|344:268|328:192,1,130
276,132,50564,2,0,L|200:124,1,65
216,40,51026,1,0,0:0:0:0:
140,76,51256,2,0,P|124:124|136:164,1,65
216,40,51718,38,0,L|80:32,1,130,2|0,0:0|0:0,0:0:0:0:
16,80,52410,1,0,0:0:0:0:
68,149,52641,2,0,P|99:94|86:32,1,130
44,256,53564,2,0,L|176:240,1,130,2|0,0:0|0:0,0:0:0:0:
244,284,54256,1,0,0:0:0:0:
244,284,54372,1,0,0:0:0:0:
244,284,54487,2,0,P|284:300|328:288,1,65
417,246,54949,2,0,P|388:231|356:232,1,65
460,312,55410,6,0,L|472:172,1,130,2|0,0:0|0:0,0:0:0:0:
444,104,56102,1,0,0:0:0:0:
268,129,56333,2,0,P|311:174|372:160,1,130
300,40,57026,1,0,0:0:0:0:
256,192,57256,12,0,58641,0:0:0:0:
180,212,59102,6,0,P|168:148|208:88,1,130,4|8,0:3|0:0,0:0:0:0:
252,164,59795,1,0,0:0:0:0:
248,248,60026,2,0,L|116:264,1,130,0|8,0:0|0:0,0:0:0:0:
40,232,60718,1,0,0:0:0:0:
40,344,60949,2,0,P|104:376|180:356,1,130,0|8,0:0|0:0,0:0:0:0:
224,312,61641,1,0,0:0:0:0:
300,352,61872,2,0,L|380:360,1,65
442,248,62333,2,0,P|443:280|436:312,1,65,8|0,0:0|0:0,0:0:0:0:
360,272,62795,38,0,L|368:132,1,130,2|8,0:0|0:0,0:0:0:0:
312,80,63487,1,0,0:0:0:0:
240,124,63718,2,0,P|220:176|144:192,1,130,0|8,0:0|0:0,0:0:0:0:
100,132,64410,1,0,0:0:0:0:
100,132,64641,2,0,L|108:284,1,130,0|8,0:0|0:0,0:0:0:0:
136,340,65333,1,0,0:0:0:0:
255,275,65564,2,0,P|223:269|192:276,1,65
276,352,66026,2,0,L|340:340,1,65,8|0,0:0|0:0,0:0:0:0:
416,256,66487,6,0,P|400:192|416:124,1,130,2|8,0:0|0:0,0:0:0:0:
464,64,67179,1,0,0:0:0:0:
384,32,67410,2,0,L|236:36,1,130,0|8,0:0|0:0,0:0:0:0:
184,84,68102,1,0,0:0:0:0:
236,152,68333,2,0,B|244:208|244:208|232:296,1,130,0|8,0:0|0:0,0:0:0:0:
188,352,69026,1,0,0:0:0:0:
108,324,69256,2,0,P|128:292|176:268,1,65
160,192,69718,2,0,L|76:180,1,65,8|0,0:0|0:0,0:0:0:0:
204,120,70179,6,0,P|260:148|328:140,1,130,2|8,0:0|0:0,0:0:0:0:
380,76,70872,1,0,0:0:0:0:
380,76,71102,2,0,L|372:208,1,130,0|8,0:0|0:0,0:0:0:0:
396,288,71795,1,0,0:0:0:0:
320,324,72026,38,0,B|256:344|256:304|192:328,1,130,2|8,0:0|0:0,0:0:0:0:
112,308,72718,2,0,B|128:260|176:248|176:248|168:228|148:212,1,130
120,140,73410,1,8,0:0:0:0:
168,68,73641,1,0,0:0:0:0:
260,152,73872,6,0,L|396:164,1,130,2|8,0:0|0:0,0:0:0:0:
468,128,74564,1,0,0:0:0:0:
508,204,74795,2,0,B|492:240|492:240|508:284|488:336,1,130,0|8,0:0|0:0,0:0:0:0:
416,368,75487,1,0,0:0:0:0:
348,316,75718,2,0,P|280:308|224:328,1,130,0|8,0:0|0:0,0:0:0:0:
144,296,76410,1,0,0:0:0:0:
68,332,76641,2,0,P|60:296|68:260,1,65
135,152,77102,2,0,P|139:184|132:216,1,65,8|0,0:0|0:0,0:0:0:0:
72,104,77564,6,0,P|136:112|200:64,1,130,2|8,0:0|0:0,0:0:0:0:
268,48,78256,1,0,0:0:0:0:
296,156,78487,2,0,L|284:292,1,130,0|8,0:0|0:0,0:0:0:0:
228,348,79179,1,0,0:0:0:0:
228,348,79410,2,0,P|272:328|360:352,1,130,0|8,0:0|0:0,0:0:0:0:
436,348,80102,1,0,0:0:0:0:
510,241,80333,2,0,P|516:272|508:304,1,65
444,192,80795,2,0,P|435:160|441:129,1,65,8|0,0:0|0:0,0:0:0:0:
512,84,81256,38,0,L|380:72,1,130,0|8,0:0|0:0,0:0:0:0:
308,32,81949,1,0,0:0:0:0:
260,100,82179,2,0,P|228:140|136:144,1,130,0|8,0:0|0:0,0:0:0:0:
92,92,82872,1,0,0:0:0:0:
52,208,83102,2,0,L|80:340,1,130,0|8,0:0|0:0,0:0:0:0:
172,292,83795,1,0,0:0:0:0:
172,292,83910,1,0,0:0:0:0:
172,292,84026,2,0,L|236:296,1,65
340,240,84487,2,0,P|312:225|280:224,1,65,8|0,0:0|0:0,0:0:0:0:
384,308,84949,6,0,P|376:244|412:192,1,130,2|8,0:0|0:0,0:0:0:0:
488,156,85641,1,0,0:0:0:0:
488,156,85872,2,0,L|344:152,1,130,0|8,0:0|0:0,0:0:0:0:
284,192,86564,1,0,0:0:0:0:
232,124,86795,2,0,P|256:68|316:36,1,130,0|8,0:0|0:0,0:0:0:0:
392,68,87487,1,0,0:0:0:0:
384,152,87718,2,0,L|394:216,1,65
328,335,88179,2,0,P|313:306|313:273,1,65,8|0,0:0|0:0,0:0:0:0:
264,196,88641,5,4,0:3:0:0:
200,260,88872,2,0,L|124:268,1,71.5000021820069,0|8,0:0|0:0,0:0:0:0:
52,248,89333,2,0,P|116:212|128:124,1,143.000004364014
204,88,90026,2,0,L|216:160,1,71.5000021820069,8|0,0:0|0:0,0:0:0:0:
296,230,90487,2,0,L|308:160,1,71.5000021820069
216,240,90949,2,0,P|232:284|280:308,1,71.5000021820069,8|0,0:0|0:0,0:0:0:0:
340,284,91410,2,0,L|412:292,1,71.5000021820069
384,204,91872,1,8,0:0:0:0:
268,324,92102,1,0,0:0:0:0:
220,244,92333,37,2,0:0:0:0:
288,180,92564,2,0,L|300:96,1,71.5000021820069,0|8,0:0|0:0,0:0:0:0:
236,40,93026,2,0,P|296:60|376:24,1,143.000004364014
404,119,93718,2,0,P|396:156|402:190,1,71.5000021820069,8|0,0:0|0:0,0:0:0:0:
321,302,94179,2,0,P|328:268|320:232,1,71.5000021820069
408,268,94641,2,0,L|484:280,1,71.5000021820069,8|0,0:0|0:0,0:0:0:0:
400,352,95102,2,0,L|324:364,1,71.5000021820069
244,328,95564,1,8,0:0:0:0:
268,220,95795,1,0,0:0:0:0:
328,292,96026,5,2,0:0:0:0:
268,220,96256,2,0,L|184:212,1,71.5000021820069,0|8,0:0|0:0,0:0:0:0:
252,140,96718,2,0,L|404:156,1,143.000004364014
472,204,97410,2,0,P|484:164|476:108,1,71.5000021820069,8|0,0:0|0:0,0:0:0:0:
392,236,97872,2,0,P|392:271|403:305,1,71.5000021820069
328,356,98333,2,0,L|240:360,1,71.5000021820069,8|0,0:0|0:0,0:0:0:0:
180,276,98795,2,0,L|268:280,1,71.5000021820069
324,224,99256,1,8,0:0:0:0:
260,156,99487,1,0,0:0:0:0:
251,279,99718,5,2,0:0:0:0:
172,328,99949,2,0,P|132:336|88:324,1,71.5000021820069,0|8,0:0|0:0,0:0:0:0:
56,252,100410,2,0,P|96:244|140:256,1,71.5000021820069
172,328,100872,2,0,L|180:172,1,143.000004364014
212,100,101564,2,0,P|291:131|354:92,1,143.000004364014,0|8,0:0|0:0,0:0:0:0:
280,40,102256,2,0,L|132:60,1,143.000004364014
28,104,102949,1,8,0:0:0:0:
108,148,103179,1,0,0:0:0:0:
138,59,103410,37,2,0:0:0:0:
208,120,103641,2,0,P|248:136|280:132,1,71.5000021820069,0|8,0:0|0:0,0:0:0:0:
332,60,104102,2,0,L|316:212,1,143.000004364014
408,176,104795,2,0,L|496:168,1,71.5000021820069,8|0,0:0|0:0,0:0:0:0:
420,96,105256,2,0,P|412:52|420:20,1,71.5000021820069
479,169,105718,2,0,P|484:204|476:238,1,71.5000021820069,8|0,0:0|0:0,0:0:0:0:
392,200,106179,2,0,L|304:192,1,71.5000021820069
240,144,106641,1,8,0:0:0:0:
204,228,106872,1,0,0:0:0:0:
116,196,107102,5,2,0:0:0:0:
204,228,107333,2,0,P|208:263|200:297,1,71.5000021820069,0|8,0:0|0:0,0:0:0:0:
116,196,107795,2,0,L|260:172,1,143.000004364014
332,228,108487,2,0,P|380:236|416:220,1,71.5000021820069,8|0,0:0|0:0,0:0:0:0:
488,196,108949,2,0,L|496:288,1,71.5000021820069
400,229,109410,2,0,L|406:157,1,71.5000021820069,8|0,0:0|0:0,0:0:0:0:
329,51,109872,2,0,P|320:85|328:120,1,71.5000021820069
405,157,110333,1,8,0:0:0:0:
412,244,110564,1,0,0:0:0:0:
312,216,110795,5,2,0:0:0:0:
354,299,111026,2,0,P|362:343|354:379,1,71.5000021820069,0|8,0:0|0:0,0:0:0:0:
270,339,111487,2,0,P|266:271|334:207,1,143.000004364014
348,128,112179,2,0,L|428:136,1,71.5000021820069,8|0,0:0|0:0,0:0:0:0:
311,215,112641,2,0,L|231:223,1,71.5000021820069
264,132,113102,2,0,P|256:88|264:56,1,71.5000021820069,8|0,0:0|0:0,0:0:0:0:
348,100,113564,2,0,P|353:135|345:169,1,71.5000021820069
264,216,114026,1,8,0:0:0:0:
300,300,114256,1,0,0:0:0:0:
392,296,114487,37,2,0:0:0:0:
436,212,114718,2,0,L|444:124,1,71.5000021820069,0|8,0:0|0:0,0:0:0:0:
357,72,115179,2,0,L|364:144,1,71.5000021820069
292,204,115641,2,0,B|244:192|244:192|144:204,1,143.000004364014
256,192,116333,12,4,118179,0:1:0:0:
240,164,132949,6,0,P|208:172|176:200,2,65,2|0|0,0:3|0:0|0:0,0:0:0:0:
244,248,133641,2,0,L|92:232,1,130
112,148,134333,2,0,P|124:108|116:72,1,65
52,36,134795,2,0,L|184:36,1,130
256,80,135487,1,0,0:0:0:0:
336,48,135718,2,0,L|324:188,1,130
372,252,136410,1,0,0:0:0:0:
320,320,136641,6,0,P|296:336|284:380,2,65,2|0|0,0:3|0:0|0:3,0:0:0:0:
404,324,137333,2,0,P|448:264|432:200,1,130
380,156,138026,2,0,L|388:84,1,65
285,168,138487,2,0,P|313:224|378:252,1,130
444,212,139179,1,0,0:0:0:0:
380,156,139410,2,0,L|248:104,1,130
184,148,140102,1,0,0:0:0:0:
120,92,140333,38,0,P|112:60|120:24,2,65,2|0|0,0:3|0:3|0:3,0:3:0:0:
80,168,141026,2,0,L|68:300,1,130
152,296,141718,2,0,P|184:316|196:344,1,65
276,364,142179,2,0,B|268:300|268:300|288:224,1,130
356,188,142872,1,0,0:0:0:0:
356,188,142987,1,0,0:0:0:0:
356,188,143102,2,0,L|420:191,1,65
384,100,143564,2,0,P|348:96|296:116,1,65
192,72,144026,6,0,L|200:216,1,130,2|0,0:3|0:3,0:3:0:0:
232,280,144718,1,0,0:0:0:0:
296,224,144949,2,0,P|364:200|400:256,1,130
448,304,145641,1,0,0:0:0:0:
380,352,145872,2,0,L|244:364,1,130,2|0,0:3|0:3,0:3:0:0:
184,312,146564,1,0,0:0:0:0:
236,244,146795,2,0,P|272:176|244:120,1,130
96,72,147718,21,4,0:3:0:0:
198,122,162487,6,0,P|254:154|319:159,1,130,4|0,0:3|0:0,0:0:0:0:
403,157,163179,1,0,0:0:0:0:
363,232,163410,2,0,L|221:252,1,130
150,263,164102,1,0,0:0:0:0:
175,141,164333,2,0,P|170:76|141:18,2,130,2|0|0,0:3|0:0|0:0,0:0:0:0:
150,263,165487,2,0,P|200:245|236:244,1,65
295,256,165949,1,0,0:0:0:0:
394,180,166179,54,0,L|264:174,1,130,2|0,0:0|0:0,0:0:0:0:
184,143,166872,1,0,0:0:0:0:
107,178,167102,2,0,P|100:247|128:315,1,130
181,362,167795,1,0,0:0:0:0:
293,312,168026,6,0,B|340:315|340:315|381:310|381:310|437:314,1,130,2|0,0:3|0:0,0:0:0:0:
495,270,168718,1,0,0:0:0:0:
394,199,168949,2,0,B|352:196|352:196|312:201|312:201|264:197,1,130
145,230,169641,53,0,0:0:0:0:
145,230,169872,2,0,L|141:85,1,130,2|0,0:0|0:0,0:0:0:0:
62,130,170564,1,0,0:0:0:0:
143,151,170795,2,0,P|201:155|224:152,1,65
288,131,171256,2,0,P|320:130|352:134,1,65
445,218,171718,6,0,L|316:227,1,130,2|0,0:3|0:0,0:0:0:0:
238,260,172410,1,0,0:0:0:0:
173,156,172641,1,0,0:0:0:0:
173,156,172872,2,0,P|168:206|105:271,1,130
48,304,173564,54,0,B|152:288|240:336|240:336|336:288|432:304,1,390,2|0,0:3|0:0,0:0:0:0:
480,192,175179,5,0,0:0:0:0:
425,80,175410,2,0,B|356:101|299:67,1,130
234,15,176102,1,0,0:0:0:0:
176,125,176333,1,0,0:0:0:0:
173,128,176564,2,0,L|105:124,2,65
293,165,177256,54,0,P|329:195|343:219,1,65,4|0,0:3|0:0,0:0:0:0:
351,293,177718,2,0,P|370:318|396:337,1,65
325,383,178179,2,0,P|261:358|193:363,1,130
116,369,178872,1,0,0:0:0:0:
39,274,179102,6,0,L|41:209,1,65,2|0,0:3|0:0,0:0:0:0:
89,138,179564,2,0,L|86:73,1,65
206,109,180026,1,2,0:3:0:0:
206,109,180256,2,0,P|261:111|288:104,2,65
306,35,180949,54,0,P|345:77|339:155,1,130,2|0,0:0|0:0,0:0:0:0:
295,215,181641,1,0,0:0:0:0:
363,265,181872,2,0,L|436:266,2,65
299,321,182564,1,0,0:0:0:0:
185,272,182795,6,0,P|148:273|109:286,1,65,2|0,0:3|0:0,0:0:0:0:
79,206,183256,2,0,P|111:205|142:197,1,65
200,135,183718,2,0,L|205:65,1,65,2|0,0:3|0:3,0:3:0:0:
280,106,184179,2,0,L|275:170,1,65
270,294,184641,54,0,P|290:333|316:355,1,65,2|0,0:0|0:0,0:0:0:0:
388,335,185102,2,0,P|374:305|353:281,1,65
295,218,185564,2,0,L|219:221,1,65
105,224,186026,1,0,0:0:0:0:
163,116,186256,1,0,0:0:0:0:
230,220,186487,6,0,P|232:279|226:304,1,65,2|0,0:0|0:0,0:0:0:0:
196,361,186949,2,0,P|228:357|260:359,1,65
335,381,187410,2,0,P|367:383|399:379,1,65
484,287,187872,1,0,0:0:0:0:
364,255,188102,1,0,0:0:0:0:
256,192,188333,12,0,192026,0:0:0:0:
325,94,193872,6,0,L|323:165,1,71.5000021820069,4|0,0:3|0:0,0:0:0:0:
323,191,194218,1,0,0:0:0:0:
322,216,194333,2,0,P|302:252|269:285,1,71.5000021820069,8|0,0:0|0:0,0:0:0:0:
204,326,194795,2,0,P|192:286|192:239,1,71.5000021820069
284,355,195256,1,8,0:0:0:0:
366,309,195487,1,0,0:0:0:0:
312,184,195718,6,0,L|297:256,1,71.5000021820069
221,200,196179,2,0,L|235:130,1,71.5000021820069,8|0,0:0|0:0,0:0:0:0:
142,139,196641,2,0,L|127:208,1,71.5000021820069
145,343,197102,1,8,0:0:0:0:
227,299,197333,1,0,0:0:0:0:
126,208,197564,6,0,P|92:197|56:196,1,71.5000021820069,2|0,0:0|0:0,0:0:0:0:
32,204,197910,1,0,0:0:0:0:
8,212,198026,2,0,L|9:140,1,71.5000021820069,8|0,0:0|0:0,0:0:0:0:
74,74,198487,2,0,L|73:2,1,71.5000021820069
198,57,198949,1,8,0:0:0:0:
327,17,199179,1,0,0:0:0:0:
397,134,199410,38,0,P|401:169|401:205,1,71.5000021820069
367,292,199872,2,0,L|443:301,1,71.5000021820069,8|0,0:0|0:0,0:0:0:0:
383,376,200333,2,0,L|311:367,1,71.5000021820069
195,307,200795,1,8,0:0:0:0:
195,307,201026,1,0,0:0:0:0:
170,174,201256,6,0,P|205:174|240:180,1,71.5000021820069,2|0,0:0|0:0,0:0:0:0:
262,194,201602,1,0,0:0:0:0:
283,207,201718,2,0,P|327:200|356:185,1,71.5000021820069,8|0,0:0|0:0,0:0:0:0:
415,259,202179,2,0,P|379:263|347:277,1,71.5000021820069
256,378,202641,1,8,0:0:0:0:
141,301,202872,1,0,0:0:0:0:
234,202,203102,6,0,L|312:192,1,71.5000021820069
390,229,203564,2,0,L|468:219,1,71.5000021820069,8|0,0:0|0:0,0:0:0:0:
500,135,204026,2,0,L|429:144,1,71.5000021820069
304,192,204487,1,8,0:0:0:0:
232,132,204718,1,0,0:0:0:0:
133,225,204949,38,0,P|121:258|120:294,1,71.5000021820069,2|0,0:0|0:0,0:0:0:0:
123,319,205295,1,0,0:0:0:0:
129,343,205410,2,0,P|162:354|198:355,1,71.5000021820069,8|0,0:0|0:0,0:0:0:0:
273,241,205872,2,0,B|270:264|270:264|275:289|275:289|273:311,1,71.5000021820069
396,251,206333,1,8,0:0:0:0:
342,174,206564,1,0,0:0:0:0:
448,79,206795,6,0,P|457:114|459:150,1,71.5000021820069,2|0,0:0|0:0,0:0:0:0:
436,239,207256,2,0,P|437:274|446:309,1,71.5000021820069,8|0,0:0|0:0,0:0:0:0:
362,351,207718,1,0,0:0:0:0:
233,351,207949,1,0,0:0:0:0:
311,238,208179,1,8,0:0:0:0:
311,238,208410,1,0,0:0:0:0:
245,120,208641,6,0,P|213:143|190:164,1,71.5000021820069,2|0,0:0|0:0,0:0:0:0:
189,190,208987,1,0,0:0:0:0:
190,215,209102,2,0,P|210:251|243:284,1,71.5000021820069,8|0,0:0|0:0,0:0:0:0:
308,325,209564,2,0,P|320:285|320:238,1,71.5000021820069
228,354,210025,1,8,0:0:0:0:
146,308,210256,1,0,0:0:0:0:
200,183,210487,38,0,L|215:255,1,71.5000021820069
291,199,210948,2,0,L|277:129,1,71.5000021820069,8|0,0:0|0:0,0:0:0:0:
370,138,211410,2,0,L|385:207,1,71.5000021820069
367,342,211871,1,8,0:0:0:0:
285,298,212102,1,0,0:0:0:0:
386,207,212333,6,0,P|420:196|456:195,1,71.5000021820069,2|0,0:0|0:0,0:0:0:0:
480,203,212679,1,0,0:0:0:0:
504,211,212795,2,0,L|503:139,1,71.5000021820069,8|0,0:0|0:0,0:0:0:0:
438,73,213256,2,0,L|439:1,1,71.5000021820069
314,56,213718,1,8,0:0:0:0:
185,16,213948,1,0,0:0:0:0:
115,133,214179,6,0,P|111:168|111:204,1,71.5000021820069
145,291,214641,2,0,L|69:300,1,71.5000021820069,8|0,0:0|0:0,0:0:0:0:
129,375,215102,2,0,L|201:366,1,71.5000021820069
317,306,215564,1,8,0:0:0:0:
317,306,215795,1,0,0:0:0:0:
342,173,216025,38,0,P|307:173|272:179,1,71.5000021820069,2|0,0:0|0:0,0:0:0:0:
250,193,216371,1,0,0:0:0:0:
229,206,216487,2,0,P|185:199|156:184,1,71.5000021820069,8|0,0:0|0:0,0:0:0:0:
97,258,216948,2,0,P|133:262|165:276,1,71.5000021820069
256,377,217410,1,8,0:0:0:0:
371,300,217641,1,0,0:0:0:0:
278,201,217871,6,0,L|200:191,1,71.5000021820069
122,228,218333,2,0,L|44:218,1,71.5000021820069,8|0,0:0|0:0,0:0:0:0:
12,134,218795,2,0,L|82:143,1,71.5000021820069
208,191,219256,1,8,0:0:0:0:
280,131,219487,1,0,0:0:0:0:
379,224,219718,6,0,P|390:257|391:293,1,71.5000021820069,2|0,0:0|0:0,0:0:0:0:
389,318,220064,1,0,0:0:0:0:
383,342,220179,2,0,P|349:353|313:354,1,71.5000021820069,8|0,0:0|0:0,0:0:0:0:
239,240,220641,2,0,B|241:263|241:263|236:288|236:288|238:310,1,71.5000021820069
116,250,221102,1,8,0:0:0:0:
170,173,221333,1,0,0:0:0:0:
53,101,221564,38,0,L|138:95,1,71.5000021820069,2|0,0:0|0:0,0:0:0:0:
210,59,222026,2,0,L|281:53,1,71.5000021820069,8|0,0:0|0:0,0:0:0:0:
358,105,222487,2,0,P|371:72|368:21,2,71.5000021820069,0|0|8,0:0|0:0|0:0,0:0:0:0:
280,157,223179,1,0,0:0:0:0:
364,196,223410,5,4,0:3:0:0:
293,311,223641,2,0,P|288:273|295:232,2,71.5000021820069,0|8|0,0:0|0:0|0:0,0:0:0:0:
376,351,224333,2,0,L|461:347,1,71.5000021820069
406,225,224795,1,8,0:0:0:0:
406,225,225026,2,0,P|386:180|404:90,1,143.000004364014
362,7,225718,1,8,0:0:0:0:
293,70,225949,2,0,P|238:75|213:70,1,71.5000021820069
137,33,226410,2,0,P|101:29|66:35,2,71.5000021820069,0|8|0,0:0|0:0|0:0,0:0:0:0:
222,72,227102,5,4,0:3:0:0:
164,196,227333,2,0,P|160:231|166:266,2,71.5000021820069,0|8|0,0:0|0:0|0:0,0:0:0:0:
251,163,228026,2,0,L|331:165,1,71.5000021820069
458,170,228487,1,8,0:0:0:0:
458,170,228718,2,0,P|405:208|395:292,1,143.000004364014
482,260,229410,1,8,0:0:0:0:
458,170,229641,2,0,L|393:132,1,71.5000021820069
311,171,230102,2,0,L|372:207,2,71.5000021820069,0|8|0,0:0|0:0|0:0,0:0:0:0:
229,125,230795,37,4,0:3:0:0:
208,258,231026,2,0,P|166:285|130:294,2,71.5000021820069,0|8|0,0:0|0:0|0:0,0:0:0:0:
291,217,231718,2,0,L|296:309,1,71.5000021820069
421,347,232179,1,8,0:0:0:0:
421,347,232410,2,0,B|416:299|416:299|428:249|428:249|424:205,1,143.000004364014
411,113,233102,1,8,0:0:0:0:
338,170,233333,2,0,P|303:179|267:176,1,71.5000021820069
225,93,233795,2,0,P|259:84|295:87,2,71.5000021820069,0|8|0,0:0|0:0|0:0,0:0:0:0:
165,164,234487,5,4,0:3:0:0:
214,292,234718,2,0,L|210:378,2,71.5000021820069,0|8|0,0:0|0:0|0:0,0:0:0:0:
261,211,235410,1,0,0:0:0:0:
372,284,235641,2,0,P|424:290|507:242,1,143.000004364014
480,158,236333,2,0,L|337:146,1,143.000004364014,2|8,0:0|0:0,0:0:0:0:
244,134,237026,2,0,P|217:102|213:2,2,143.000004364014
304,204,238179,5,4,0:3:0:0:
219,311,238410,2,0,P|224:273|217:232,2,71.5000021820069,0|8|0,0:0|0:0|0:0,0:0:0:0:
136,351,239102,2,0,L|51:347,1,71.5000021820069
106,225,239564,1,8,0:0:0:0:
106,225,239795,2,0,P|126:180|108:90,1,143.000004364014
150,7,240487,1,8,0:0:0:0:
219,70,240718,2,0,P|274:75|299:70,1,71.5000021820069
375,33,241179,2,0,P|411:29|446:35,2,71.5000021820069,0|8|0,0:0|0:0|0:0,0:0:0:0:
290,72,241871,37,4,0:3:0:0:
348,196,242102,2,0,P|352:231|346:266,2,71.5000021820069,0|8|0,0:0|0:0|0:0,0:0:0:0:
261,163,242795,2,0,L|181:165,1,71.5000021820069
54,170,243256,1,8,0:0:0:0:
54,170,243487,2,0,P|107:208|117:292,1,143.000004364014
30,260,244179,1,8,0:0:0:0:
54,170,244410,2,0,L|119:132,1,71.5000021820069
201,171,244871,2,0,L|139:207,2,71.5000021820069,0|8|0,0:0|0:0|0:0,0:0:0:0:
283,125,245564,5,4,0:3:0:0:
304,258,245795,2,0,P|346:285|382:294,2,71.5000021820069,0|8|0,0:0|0:0|0:0,0:0:0:0:
221,217,246487,2,0,L|216:309,1,71.5000021820069
91,347,246948,1,8,0:0:0:0:
91,347,247179,2,0,B|95:299|95:299|83:249|83:249|87:205,1,143.000004364014
101,113,247871,1,8,0:0:0:0:
173,170,248102,2,0,P|208:179|244:176,1,71.5000021820069
287,93,248564,2,0,P|252:84|216:87,2,71.5000021820069,0|8|0,0:0|0:0|0:0,0:0:0:0:
347,164,249256,5,4,0:3:0:0:
298,292,249487,2,0,L|302:378,2,71.5000021820069,0|8|0,0:0|0:0|0:0,0:0:0:0:
251,211,250179,1,0,0:0:0:0:
140,284,250410,2,0,P|88:290|5:242,1,143.000004364014
32,158,251102,2,0,L|175:146,1,143.000004364014,2|8,0:0|0:0,0:0:0:0:
268,136,251795,1,0,0:0:0:0:
268,136,252256,2,0,P|270:72|339:67,1,143.000004364014
440,133,252949,38,0,L|438:266,1,130,4|8,0:3|0:0,0:0:0:0:
385,329,253641,1,0,0:0:0:0:
320,273,253872,2,0,P|256:259|194:274,1,130,0|8,0:0|0:0,0:0:0:0:
114,302,254564,1,0,0:0:0:0:
92,180,254795,2,0,P|90:109|69:48,2,130,2|8|0,0:3|0:0|0:3,0:0:0:0:
35,290,255949,2,0,P|71:303|109:299,1,65,0|8,0:0|0:0,0:0:0:0:
178,280,256410,1,0,0:0:0:0:
265,191,256641,6,0,P|266:252|319:306,1,130,2|8,0:0|0:0,0:0:0:0:
342,223,257333,1,0,0:0:0:0:
265,191,257564,2,0,L|131:195,1,130,0|8,0:0|0:0,0:0:0:0:
50,195,258256,1,0,0:0:0:0:
91,79,258487,2,0,P|117:61|136:35,1,65,2|0,0:3|0:3,0:3:0:0:
222,35,258949,2,0,P|240:61|267:79,1,65,8|0,0:0|0:0,0:0:0:0:
344,114,259410,1,0,0:0:0:0:
344,114,259641,2,0,L|427:110,1,65,0|8,0:0|0:0,0:0:0:0:
503,29,260102,5,0,0:0:0:0:
503,29,260333,2,0,L|500:160,1,130,2|8,0:0|0:0,0:0:0:0:
463,235,261026,1,0,0:0:0:0:
383,264,261256,2,0,P|414:304|443:317,1,65
463,235,261718,2,0,P|446:207|420:188,1,65,8|0,0:0|0:0,0:0:0:0:
303,153,262179,38,0,L|172:157,1,130,2|8,0:3|0:0,0:0:0:0:
88,159,262872,1,0,0:0:0:0:
168,253,263102,1,0,0:0:0:0:
168,253,263333,2,0,L|233:255,2,65,0|8|0,0:0|0:0|0:0,0:0:0:0:
83,270,264026,2,0,P|131:227|140:164,1,130,2|8,0:3|0:0,0:0:0:0:
274,60,264949,2,0,P|316:107|379:116,1,130,0|8,0:0|0:0,0:0:0:0:
464,208,265641,5,0,0:0:0:0:
377,298,265872,2,0,P|319:271|203:335,1,195,2|0,0:0|0:0,0:0:0:0:
131,359,266795,2,0,L|129:284,1,65
91,218,267256,1,8,0:0:0:0:
139,148,267487,1,0,0:0:0:0:
256,192,267718,12,0,271410,0:0:0:0:
