osu file format v14

[General]
AudioFilename: audio.mp3
AudioLeadIn: 0
PreviewTime: 35036
Countdown: 0
SampleSet: Normal
StackLeniency: 0.3
Mode: 0
LetterboxInBreaks: 0
WidescreenStoryboard: 1

[Editor]
Bookmarks: 8308,11581,16490,69945
DistanceSpacing: 3
BeatDivisor: 8
GridSize: 4
TimelineZoom: 1.2

[Metadata]
Title:Influential Past
TitleUnicode:Influential Past
Artist:MitiS
ArtistUnicode:MitiS
Creator:Incomp
Version:Legacy
Source:
Tags:electronic dance instrumental chillstep influential past 2012 dubstep mitismusic
BeatmapID:1542646
BeatmapSetID:713917

[Difficulty]
HPDrainRate:6
CircleSize:4
OverallDifficulty:8.5
ApproachRate:9.3
SliderMultiplier:2.7
SliderTickRate:1

[Events]
//Background and Video events
0,0,"bg.jpg",0,0
//Break Periods
//Storyboard Layer 0 (Background)
//Storyboard Layer 1 (Fail)
//Storyboard Layer 2 (Pass)
//Storyboard Layer 3 (Foreground)
//Storyboard Sound Samples

[TimingPoints]
127,545.454545454546,4,2,1,100,1,0
127,-200,4,2,1,10,0,0
8308,-222.222222222223,4,2,1,10,0,0
12672,-200,4,2,1,10,0,0
16899,-200,4,3,1,5,0,0
17036,-200,4,2,1,10,0,0
17172,-200,4,3,1,5,0,0
17308,-200,4,2,1,10,0,0
17445,-200,4,3,1,5,0,0
17581,-200,4,2,1,15,0,0
21945,-153.846153846154,4,2,1,25,0,0
26308,-125,4,2,1,35,0,0
30672,-100,4,2,1,45,0,0
32854,-100,4,2,1,55,0,0
32990,-100,4,3,1,5,0,0
33127,-58.8235294117647,4,2,1,55,0,0
33263,-58.8235294117647,4,3,1,5,0,0
33399,-100,4,2,1,55,0,0
33536,-100,4,3,1,5,0,0
33672,-58.8235294117647,4,2,1,55,0,0
33808,-100,4,3,1,5,0,0
33945,-100,4,2,1,55,0,0
34217,-200,4,2,1,55,0,0
34899,-50,4,2,1,55,0,0
35036,-83.3333333333333,4,1,1,50,0,1
41581,-83.3333333333333,4,1,1,50,0,0
43763,-83.3333333333333,4,1,1,50,0,1
44581,-66.6666666666667,4,1,1,50,0,1
44717,-83.3333333333333,4,1,1,50,0,1
44990,-83.3333333333333,4,3,1,5,0,1
45127,-83.3333333333333,4,1,1,50,0,1
48945,-66.6666666666667,4,1,1,50,0,1
49081,-83.3333333333333,4,1,1,50,0,1
50308,-83.3333333333333,4,1,1,50,0,0
50581,-58.8235294117647,4,1,1,50,0,0
50854,-83.3333333333333,4,1,1,50,0,0
51127,-58.8235294117647,4,1,1,50,0,0
51399,-83.3333333333333,4,1,1,50,0,0
51672,-58.8235294117647,4,1,1,50,0,0
51945,-83.3333333333333,4,1,1,50,0,0
52490,-83.3333333333333,4,1,1,50,0,1
59036,-83.3333333333333,4,1,1,50,0,0
59308,-58.8235294117647,4,1,1,50,0,0
59581,-83.3333333333333,4,1,1,50,0,0
59854,-58.8235294117647,4,1,1,50,0,0
60127,-83.3333333333333,4,1,1,50,0,0
61217,-100,4,1,1,50,0,0
62036,-66.6666666666667,4,1,1,50,0,0
62308,-100,4,1,1,50,0,0
63127,-66.6666666666667,4,1,1,50,0,0
63399,-100,4,1,1,50,0,0
66399,-66.6666666666667,4,1,1,50,0,0
66672,-100,4,1,1,50,0,0

[Colours]
Combo1 : 137,200,86
Combo2 : 52,78,79
Combo3 : 62,201,205
Combo4 : 89,115,87

[HitObjects]
257,72,8308,6,0,B|271:92|301:110|334:117|334:117|303:118|276:133|255:161|255:161|298:163|330:176|372:221|368:289|348:331|297:359|237:379|150:341|157:250|180:203|180:203|177:233|187:265|212:287|212:287,1,728.999977752686
257,250,12672,6,0,B|280:293|348:320|391:281|412:251|412:251|333:206|333:206|323:192|323:192|278:183|240:160|232:73|256:26|341:9|399:27|416:93|407:134|407:134|412:163|412:163|455:188|455:188|487:207|499:251|479:290|479:290|456:332|399:362,1,945
334,117,16763,6,0,L|363:133,1,33.75
180,116,17036,2,0,L|151:100,1,33.75
257,250,17308,2,0,L|286:266,1,33.75
26,204,17581,6,0,P|18:137|68:77,1,135,2|8,0:0|0:0,0:0:0:0:
103,160,19217,1,8,0:0:0:0:
103,160,19627,1,2,0:0:0:0:
334,206,19763,6,0,P|374:260|361:336,1,135,2|8,0:0|0:0,0:0:0:0:
289,283,21399,1,8,0:0:0:0:
289,283,21808,1,2,0:0:0:0:
257,72,21945,6,0,P|333:28|408:68,1,175.499991966248,2|8,0:0|0:0,0:0:0:0:
334,117,23581,1,8,0:0:0:0:
334,117,23990,1,2,0:0:0:0:
175,291,24127,6,0,P|98:247|96:162,1,175.499991966248,2|8,0:0|0:0,0:0:0:0:
175,202,25490,1,2,0:0:0:0:
411,162,25763,1,8,0:0:0:0:
257,162,26036,1,8,0:0:0:0:
175,202,26172,1,8,0:0:0:0:
98,157,26308,6,0,P|118:132|144:118,1,54,2|0,0:0|0:0,0:0:0:0:
98,246,26581,2,0,P|78:271|52:285,1,54
175,112,26854,2,0,P|228:102|280:125,1,108,8|0,0:0|0:0,0:0:0:0:
284,279,27399,2,0,P|336:290|385:270,1,108
329,202,27808,1,0,0:0:0:0:
207,323,27945,2,0,P|166:359|110:365,1,108,8|0,0:0|0:0,0:0:0:0:
130,278,28353,1,2,0:0:0:0:
284,368,28490,5,2,0:0:0:0:
180,116,28763,1,0,0:0:0:0:
103,160,28899,1,0,0:0:0:0:
103,249,29036,2,0,P|118:270|145:284,1,54,8|0,0:0|0:0,0:0:0:0:
334,295,29308,2,0,P|319:274|292:260,1,54
103,249,29581,5,0,0:0:0:0:
257,339,29717,1,0,0:0:0:0:
180,205,29854,1,0,0:0:0:0:
180,383,29990,1,0,0:0:0:0:
257,250,30127,2,0,P|268:197|248:148,1,108,8|0,0:0|0:0,0:0:0:0:
180,205,30536,1,8,0:0:0:0:
334,295,30672,5,2,0:0:0:0:
257,72,30945,1,0,0:0:0:0:
180,116,31081,1,0,0:0:0:0:
180,205,31217,2,0,P|229:246|301:239,1,135,8|0,0:0|0:0,0:0:0:0:
103,160,31763,2,0,P|91:222|134:281,1,135
180,205,32172,1,0,0:0:0:0:
334,383,32308,2,0,P|394:361|423:295,1,135,8|0,0:0|0:0,0:0:0:0:
334,295,32717,1,2,0:0:0:0:
257,161,32854,6,0,P|227:163|194:187,1,67.5,2|0,0:0|0:0,0:0:0:0:
180,205,33127,6,0,P|169:140|202:90,1,114.750002188683
334,295,33399,6,0,P|351:319|388:335,1,67.5,8|0,0:0|0:0,0:0:0:0:
410,339,33672,6,0,P|359:381|299:377,1,114.750002188683
103,249,33945,1,0,0:0:0:0:
103,249,34217,5,0,0:0:0:0:
26,204,34354,1,0,0:0:0:0:
257,250,34490,1,0,0:0:0:0:
334,295,34627,1,0,0:0:0:0:
103,160,34763,1,0,0:0:0:0:
103,160,34899,6,0,P|94:92|136:39,1,135,0|4,0:0|0:0,0:0:0:0:
257,250,35308,5,0,0:0:0:0:
334,295,35445,1,0,0:0:0:0:
411,251,35581,2,0,P|412:165|355:118,1,161.999995056153,8|0,0:0|0:0,0:0:0:0:
180,294,36127,2,0,P|109:259|95:182,1,161.999995056153,2|0,0:0|0:0,0:0:0:0:
180,205,36536,1,0,0:0:0:0:
411,340,36672,2,0,P|485:297|498:225,1,161.999995056153,8|0,0:0|0:0,0:0:0:0:
411,251,37081,1,2,0:0:0:0:
180,383,37217,5,2,0:0:0:0:
103,160,37490,1,0,0:0:0:0:
103,71,37627,1,0,0:0:0:0:
180,27,37763,2,0,P|217:34|252:64,1,80.9999975280763,8|0,0:0|0:0,0:0:0:0:
103,160,38036,2,0,P|67:167|34:194,1,80.9999975280763
103,249,38308,5,0,0:0:0:0:
257,161,38445,1,0,0:0:0:0:
180,294,38581,2,0,B|161:259|161:259|158:212,1,80.9999975280763,2|0,0:0|0:0,0:0:0:0:
180,27,38854,2,0,P|251:62|265:139,1,161.999995056153,8|2,0:0|0:0,0:0:0:0:
180,116,39263,1,8,0:0:0:0:
334,206,39399,5,2,0:0:0:0:
103,160,39672,1,0,0:0:0:0:
103,249,39808,1,0,0:0:0:0:
180,294,39945,2,0,P|253:255|265:180,1,161.999995056153,8|0,0:0|0:0,0:0:0:0:
351,70,40490,2,0,P|280:104|265:181,1,161.999995056153,2|0,0:0|0:0,0:0:0:0:
351,159,40899,1,0,0:0:0:0:
103,160,41036,2,0,P|98:238|156:289,1,161.999995056153,8|0,0:0|0:0,0:0:0:0:
213,69,41445,1,2,0:0:0:0:
411,251,41581,5,0,0:0:0:0:
411,251,41854,2,0,P|386:279|342:294,1,80.9999975280763
180,294,42127,1,8,0:0:0:0:
334,206,42263,1,0,0:0:0:0:
180,205,42399,2,0,P|143:198|108:168,1,80.9999975280763
180,116,42672,1,0,0:0:0:0:
334,206,42808,1,0,0:0:0:0:
257,72,42945,2,0,P|230:43|190:28,1,80.9999975280763,2|0,0:0|0:0,0:0:0:0:
257,161,43217,5,8,0:0:0:0:
257,161,43490,1,8,0:0:0:0:
257,250,43627,1,8,0:0:0:0:
334,295,43763,5,4,0:0:0:0:
334,295,44036,2,0,B|359:285|359:285|392:229,1,80.9999975280763
428,26,44308,1,8,0:0:0:0:
428,26,44581,6,0,B|396:29|396:29|324:77,1,101.250003862381
103,249,44854,6,0,P|91:288|102:334,1,80.9999975280763
98,326,45127,1,2,0:0:0:0:
334,117,45399,6,0,P|346:78|335:32,2,80.9999975280763,8|0|0,0:0|0:0|0:0,0:0:0:0:
257,72,45808,1,2,0:0:0:0:
411,251,45945,5,2,0:0:0:0:
257,161,46217,1,0,0:0:0:0:
180,116,46354,1,0,0:0:0:0:
103,160,46490,2,0,L|28:202,1,80.9999975280763,8|0,0:0|0:0,0:0:0:0:
334,117,46763,2,0,L|408:75,1,80.9999975280763
180,294,47036,5,0,0:0:0:0:
257,72,47172,1,0,0:0:0:0:
334,206,47308,1,0,0:0:0:0:
103,160,47445,1,0,0:0:0:0:
334,117,47581,2,0,P|405:152|419:229,1,161.999995056153,8|2,0:0|0:0,0:0:0:0:
334,206,47990,1,8,0:0:0:0:
488,296,48127,5,2,0:0:0:0:
488,296,48399,2,0,L|385:265,1,80.9999975280763
180,205,48672,1,8,0:0:0:0:
180,205,48945,6,0,L|330:249,1,101.250003862381
488,296,49217,5,0,0:0:0:0:
411,340,49354,1,0,0:0:0:0:
313,326,49490,1,0,0:0:0:0:
257,250,49627,1,0,0:0:0:0:
257,161,49763,2,0,P|285:131|330:118,2,80.9999975280763,8|0|0,0:0|0:0|0:0,0:0:0:0:
334,206,50172,1,0,0:0:0:0:
103,160,50308,5,2,0:0:0:0:
257,72,50445,1,0,0:0:0:0:
103,71,50581,6,0,P|53:86|17:147,1,114.750002188683
180,294,50854,1,8,0:0:0:0:
103,160,50990,1,0,0:0:0:0:
103,338,51127,6,0,P|140:373|211:374,1,114.750002188683
334,206,51399,1,0,0:0:0:0:
180,294,51536,1,0,0:0:0:0:
411,251,51672,6,0,P|423:200|388:138,1,114.750002188683,2|0,0:0|0:0,0:0:0:0:
180,205,51945,1,8,0:0:0:0:
288,6,52081,1,8,0:0:0:0:
180,294,52217,1,8,0:0:0:0:
103,71,52354,1,8,0:0:0:0:
257,339,52490,5,4,0:0:0:0:
488,118,52763,1,0,0:0:0:0:
488,207,52899,1,0,0:0:0:0:
411,251,53036,2,0,B|373:273|373:273|252:249,1,161.999995056153,8|0,0:0|0:0,0:0:0:0:
103,71,53581,2,0,B|141:49|141:49|262:73,1,161.999995056153,0|2,0:0|0:0,0:0:0:0:
180,294,54127,2,0,B|140:285|140:285|108:259,2,80.9999975280763,8|0|0,0:0|0:0|0:0,0:0:0:0:
180,205,54536,1,2,0:0:0:0:
411,340,54672,5,2,0:0:0:0:
103,338,54945,1,0,0:0:0:0:
26,293,55081,1,0,0:0:0:0:
26,204,55217,2,0,L|26:117,1,80.9999975280763,8|0,0:0|0:0,0:0:0:0:
180,294,55490,2,0,L|180:381,1,80.9999975280763
334,206,55763,5,0,0:0:0:0:
103,160,55899,1,0,0:0:0:0:
334,28,56036,1,2,0:0:0:0:
180,205,56172,1,0,0:0:0:0:
334,117,56308,2,0,B|357:116|379:124|399:140|412:163|412:163|423:141|447:125|466:120,1,161.999995056153,8|8,0:0|0:0,0:0:0:0:
334,206,56717,1,2,0:0:0:0:
26,115,56854,5,2,0:0:0:0:
180,294,57127,1,0,0:0:0:0:
257,250,57263,1,0,0:0:0:0:
334,206,57399,1,8,0:0:0:0:
334,206,57672,2,0,B|292:218|292:218|248:220,1,80.9999975280763
26,204,57945,1,0,0:0:0:0:
26,204,58217,2,0,B|56:172|56:172|93:148,1,80.9999975280763,2|0,0:0|0:0,0:0:0:0:
334,28,58490,2,0,B|374:37|374:37|406:63,2,80.9999975280763,8|0|0,0:0|0:0|0:0,0:0:0:0:
411,162,58899,1,2,0:0:0:0:
103,71,59036,5,2,0:0:0:0:
257,161,59172,1,0,0:0:0:0:
103,71,59308,2,0,P|93:127|120:182,1,114.750002188683
167,316,59581,5,8,0:0:0:0:
257,161,59717,1,0,0:0:0:0:
167,316,59854,2,0,P|223:326|279:299,1,114.750002188683
334,206,60127,6,0,P|305:236|262:252,1,80.9999975280763
103,249,60399,1,2,0:0:0:0:
334,117,60672,5,8,0:0:0:0:
180,205,60808,1,8,0:0:0:0:
411,251,60945,1,8,0:0:0:0:
180,116,61081,1,8,0:0:0:0:
334,295,61217,5,2,0:0:0:0:
180,205,61490,1,0,0:0:0:0:
180,116,61627,1,0,0:0:0:0:
257,72,61763,2,0,L|323:34,1,67.5,8|0,0:0|0:0,0:0:0:0:
103,249,62036,6,0,P|92:195|111:151,1,101.250003862381
257,250,62308,6,0,P|268:287|225:371,1,135
180,294,62717,1,0,0:0:0:0:
334,206,62854,1,8,0:0:0:0:
334,206,63127,6,0,L|431:149,1,101.250003862381,0|2,0:0|0:0,0:0:0:0:
180,205,63399,5,2,0:0:0:0:
334,28,63672,1,0,0:0:0:0:
411,73,63809,1,0,0:0:0:0:
411,162,63945,2,0,P|386:190|351:204,1,67.5,8|0,0:0|0:0,0:0:0:0:
103,249,64217,2,0,P|126:276|162:292,1,67.5
334,206,64490,5,0,0:0:0:0:
180,294,64627,1,0,0:0:0:0:
334,117,64763,1,0,0:0:0:0:
180,205,64899,1,0,0:0:0:0:
334,28,65036,2,0,P|371:36|422:116,1,135,8|0,0:0|0:0,0:0:0:0:
421,112,65445,1,8,0:0:0:0:
180,116,65581,5,2,0:0:0:0:
257,339,65854,1,0,0:0:0:0:
334,295,65990,1,0,0:0:0:0:
334,206,66127,1,8,0:0:0:0:
334,206,66399,6,0,B|308:162|308:162|254:134,1,101.250003862381
26,115,66672,5,0,0:0:0:0:
26,204,66808,1,0,0:0:0:0:
103,249,66945,1,0,0:0:0:0:
180,205,67081,1,0,0:0:0:0:
257,161,67217,2,0,P|294:169|345:249,1,135,8|0,0:0|0:0,0:0:0:0:
257,250,67627,1,2,0:0:0:0:
345,68,67763,6,0,P|374:81|420:82,1,67.5
345,157,68036,2,0,P|316:144|270:143,1,67.5
180,205,68308,2,0,P|117:233|92:294,1,135,8|0,0:0|0:0,0:0:0:0:
257,250,68717,2,0,P|264:181|223:129,1,135
180,294,69127,2,0,P|203:321|239:337,1,67.5,2|0,0:0|0:0,0:0:0:0:
410,341,69399,5,8,0:0:0:0:
334,206,69536,1,0,0:0:0:0:
412,161,69672,1,8,0:0:0:0:
333,296,69808,1,8,0:0:0:0:
489,206,69945,5,4,0:0:0:0:
