osu file format v14

[General]
AudioFilename: audio.mp3
AudioLeadIn: 0
PreviewTime: 107578
Countdown: 0
SampleSet: Soft
StackLeniency: 0.3
Mode: 0
LetterboxInBreaks: 0
WidescreenStoryboard: 0

[Editor]
Bookmarks: 778,6378,19178,31978,44778,57578,70378,83178,95978,108778,121578,134378,147178,159978,172778,185578,198378,211178,223978,236778,249578,262378,275178,287978,302378
DistanceSpacing: 1.3
BeatDivisor: 4
GridSize: 32
TimelineZoom: 2

[Metadata]
Title:Gold In The Valley (feat. Elle Vee)
TitleUnicode:Gold In The Valley (feat. Elle Vee)
Artist:MitiS
ArtistUnicode:MitiS
Creator:Altai
Version:Collab Cherishment
Source:
Tags:elicz1 lies undeadphoneguy Electronic All I Have EP Born Records Future Bass Melodic Dubstep EDM Dance Music Pop English
BeatmapID:2679639
BeatmapSetID:1290914

[Difficulty]
HPDrainRate:6
CircleSize:4.7
OverallDifficulty:8.5
ApproachRate:9.3
SliderMultiplier:2.4
SliderTickRate:1

[Events]
//Background and Video events
0,0,"wenjun-lin-.jpg",0,0
//Break Periods
//Storyboard Layer 0 (Background)
//Storyboard Layer 1 (Fail)
//Storyboard Layer 2 (Pass)
//Storyboard Layer 3 (Foreground)
//Storyboard Layer 4 (Overlay)
//Storyboard Sound Samples

[TimingPoints]
-27,400,4,2,1,10,1,0
1573,-100,4,2,1,15,0,0
2373,-100,4,2,1,20,0,0
3173,-100,4,2,1,25,0,0
3973,-100,4,2,1,30,0,0
4773,-100,4,2,1,35,0,0
5573,-100,4,2,1,40,0,0
6273,-100,4,2,1,5,0,0
6373,-166.666666666667,4,2,1,30,0,0
7473,-166.666666666667,4,2,1,5,0,0
7573,-166.666666666667,4,2,1,30,0,0
9873,-166.666666666667,4,2,1,5,0,0
9973,-166.666666666667,4,2,1,30,0,0
20273,-166.666666666667,4,2,1,5,0,0
20373,-166.666666666667,4,2,1,30,0,0
22673,-166.666666666667,4,2,1,5,0,0
22773,-166.666666666667,4,2,1,30,0,0
30273,-166.666666666667,4,2,1,5,0,0
30373,-166.666666666667,4,2,1,30,0,0
31173,-200,4,2,1,25,0,0
31973,-117.647058823529,4,2,1,45,0,0
33173,-142.857142857143,4,2,1,45,0,0
34673,-142.857142857143,4,2,1,5,0,0
34773,-142.857142857143,4,2,1,45,0,0
35573,-117.647058823529,4,2,1,45,0,0
36573,-142.857142857143,4,2,1,45,0,0
38373,-117.647058823529,4,2,1,45,0,0
39973,-142.857142857143,4,2,1,45,0,0
41073,-142.857142857143,4,2,1,5,0,0
41173,-142.857142857143,4,2,1,45,0,0
41573,-117.647058823529,4,2,1,45,0,0
43173,-153.846153846154,4,2,1,45,0,0
43473,-153.846153846154,4,2,1,5,0,0
43573,-153.846153846154,4,2,1,45,0,0
44773,-117.647058823529,4,2,1,45,0,0
45973,-142.857142857143,4,2,1,45,0,0
47473,-142.857142857143,4,2,1,5,0,0
47573,-142.857142857143,4,2,1,45,0,0
49873,-142.857142857143,4,2,1,5,0,0
49973,-142.857142857143,4,2,1,45,0,0
51173,-117.647058823529,4,2,1,45,0,0
52773,-142.857142857143,4,2,1,45,0,0
53873,-142.857142857143,4,2,1,5,0,0
53973,-142.857142857143,4,2,1,45,0,0
55173,-166.666666666667,4,2,1,45,0,0
55973,-285.714285714286,4,2,1,50,0,0
57173,-125,4,2,1,55,0,0
57573,-133.333333333333,4,2,1,55,0,0
58673,-133.333333333333,4,2,1,5,0,0
58773,-133.333333333333,4,2,1,55,0,0
59473,-133.333333333333,4,2,1,5,0,0
59573,-133.333333333333,4,2,1,55,0,0
61573,-111.111111111111,4,2,1,55,0,0
61873,-133.333333333333,4,2,1,5,0,0
61973,-111.111111111111,4,2,1,55,0,0
62673,-133.333333333333,4,2,1,5,0,0
62773,-111.111111111111,4,2,1,55,0,0
63173,-133.333333333333,4,2,1,55,0,0
64773,-111.111111111111,4,2,1,55,0,0
65073,-133.333333333333,4,2,1,5,0,0
65173,-111.111111111111,4,2,1,55,0,0
65873,-133.333333333333,4,2,1,5,0,0
65973,-111.111111111111,4,2,1,55,0,0
67173,-133.333333333333,4,2,1,55,0,0
68773,-111.111111111111,4,2,1,55,0,0
69073,-133.333333333333,4,2,1,5,0,0
69173,-111.111111111111,4,2,1,55,0,0
69873,-133.333333333333,4,2,1,5,0,0
69973,-111.111111111111,4,2,1,55,0,0
70373,-125,4,2,1,55,0,0
71473,-133.333333333333,4,2,1,5,0,0
71573,-125,4,2,1,55,0,0
72273,-133.333333333333,4,2,1,5,0,0
72373,-125,4,2,1,55,0,0
74373,-105.263157894737,4,2,1,55,0,0
74673,-133.333333333333,4,2,1,5,0,0
74773,-105.263157894737,4,2,1,55,0,0
75473,-133.333333333333,4,2,1,5,0,0
75573,-105.263157894737,4,2,1,55,0,0
75973,-125,4,2,1,55,0,0
77573,-105.263157894737,4,2,1,55,0,0
77873,-133.333333333333,4,2,1,5,0,0
77973,-105.263157894737,4,2,1,55,0,0
78673,-133.333333333333,4,2,1,5,0,0
78773,-105.263157894737,4,2,1,55,0,0
79973,-125,4,2,1,55,0,0
83073,-125,4,2,1,5,0,0
83173,-133.333333333333,4,2,1,60,0,0
90273,-133.333333333333,4,2,1,5,0,0
90373,-117.647058823529,4,2,1,60,0,0
91473,-117.647058823529,4,2,1,5,0,0
91573,-117.647058823529,4,2,1,60,0,0
91873,-117.647058823529,4,2,1,5,0,0
91973,-117.647058823529,4,2,1,60,0,0
92773,-133.333333333333,4,2,1,60,0,0
94373,-117.647058823529,4,2,1,60,0,0
94873,-117.647058823529,4,2,1,5,0,0
94973,-117.647058823529,4,2,1,60,0,0
95973,-125,4,2,2,65,0,0
96673,-125,4,2,2,5,0,0
96773,-105.263157894737,4,2,2,65,0,0
97073,-105.263157894737,4,2,2,5,0,0
97173,-105.263157894737,4,2,2,65,0,0
97273,-105.263157894737,4,2,2,5,0,0
97373,-105.263157894737,4,2,2,65,0,0
97873,-105.263157894737,4,2,2,5,0,0
97973,-125,4,2,2,65,0,0
98273,-125,4,2,2,5,0,0
98373,-125,4,2,2,65,0,0
99873,-125,4,2,2,5,0,0
99973,-105.263157894737,4,2,2,65,0,0
100273,-105.263157894737,4,2,2,5,0,0
100373,-105.263157894737,4,2,2,65,0,0
100473,-105.263157894737,4,2,2,5,0,0
100573,-105.263157894737,4,2,2,65,0,0
101573,-125,4,2,2,65,0,0
101873,-125,4,2,2,5,0,0
101973,-125,4,2,2,65,0,0
102373,-125,4,2,2,70,0,0
103173,-105.263157894737,4,2,2,70,0,0
103473,-105.263157894737,4,2,2,5,0,0
103573,-105.263157894737,4,2,2,70,0,0
104273,-105.263157894737,4,2,2,5,0,0
104373,-105.263157894737,4,2,2,70,0,0
105573,-105.263157894737,4,2,2,75,0,0
108773,-50,4,2,1,85,0,1
109073,-50,4,2,1,5,0,1
109173,-50,4,2,1,85,0,1
109473,-50,4,2,1,5,0,1
109573,-52.6315789473684,4,2,1,85,0,1
109873,-50,4,2,1,5,0,1
109973,-55.5555555555556,4,2,1,85,0,1
110273,-50,4,2,1,5,0,1
110373,-50,4,2,1,85,0,1
111173,-52.6315789473684,4,2,1,85,0,1
111473,-50,4,2,1,5,0,1
111573,-55.5555555555556,4,2,1,85,0,1
111873,-50,4,2,1,5,0,1
111973,-50,4,2,1,85,0,1
112273,-50,4,2,1,5,0,1
112373,-50,4,2,1,85,0,1
112673,-50,4,2,1,5,0,1
112773,-52.6315789473684,4,2,1,85,0,1
113073,-50,4,2,1,5,0,1
113173,-55.5555555555556,4,2,1,85,0,1
113473,-50,4,2,1,5,0,1
113573,-55.5555555555556,4,2,1,85,0,1
113973,-80,4,2,1,85,0,1
114373,-52.6315789473684,4,2,1,85,0,1
114673,-50,4,2,1,5,0,1
114773,-55.5555555555556,4,2,1,85,0,1
115173,-50,4,2,1,85,0,1
115473,-50,4,2,1,5,0,1
115573,-50,4,2,1,85,0,1
115873,-50,4,2,1,5,0,1
115973,-52.6315789473684,4,2,1,85,0,1
116273,-50,4,2,1,5,0,1
116373,-55.5555555555556,4,2,1,85,0,1
116673,-50,4,2,1,5,0,1
116773,-55.5555555555556,4,2,1,85,0,1
117573,-52.6315789473684,4,2,1,85,0,1
117773,-50,4,2,1,5,0,1
117973,-55.5555555555556,4,2,1,85,0,1
118273,-50,4,2,1,5,0,1
118373,-50,4,2,1,85,0,1
118673,-50,4,2,1,5,0,1
118773,-50,4,2,1,85,0,1
119073,-50,4,2,1,5,0,1
119173,-52.6315789473684,4,2,1,85,0,1
119473,-50,4,2,1,5,0,1
119573,-55.5555555555556,4,2,1,85,0,1
119873,-50,4,2,1,5,0,1
119973,-133.333333333333,4,2,1,85,0,0
120073,-133.333333333333,4,2,1,65,0,0
120773,-133.333333333333,4,2,1,65,0,0
121173,-133.333333333333,4,2,1,75,0,0
121573,-50,4,2,1,85,0,1
121873,-50,4,2,1,5,0,1
121973,-50,4,2,1,85,0,1
122273,-50,4,2,1,5,0,1
122373,-52.6315789473684,4,2,1,85,0,1
122673,-50,4,2,1,5,0,1
122773,-55.5555555555556,4,2,1,85,0,1
123073,-50,4,2,1,5,0,1
123173,-55.5555555555556,4,2,1,85,0,1
123973,-52.6315789473684,4,2,1,85,0,1
124273,-50,4,2,1,5,0,1
124373,-55.5555555555556,4,2,1,85,0,1
124673,-50,4,2,1,5,0,1
124773,-50,4,2,1,85,0,1
125473,-50,4,2,1,5,0,1
125573,-52.6315789473684,4,2,1,85,0,1
125873,-50,4,2,1,5,0,1
125973,-55.5555555555556,4,2,1,85,0,1
126273,-50,4,2,1,5,0,1
126373,-55.5555555555556,4,2,1,85,0,1
126673,-50,4,2,1,5,0,1
126773,-80,4,2,1,85,0,1
127173,-52.6315789473684,4,2,1,85,0,1
127473,-50,4,2,1,5,0,1
127573,-55.5555555555556,4,2,1,85,0,1
127973,-50,4,2,1,85,0,1
128273,-50,4,2,1,5,0,1
128373,-50,4,2,1,85,0,1
128673,-50,4,2,1,5,0,1
128773,-52.6315789473684,4,2,1,85,0,1
129073,-50,4,2,1,5,0,1
129173,-55.5555555555556,4,2,1,85,0,1
129473,-50,4,2,1,5,0,1
129573,-55.5555555555556,4,2,1,85,0,1
130373,-52.6315789473684,4,2,1,85,0,1
130673,-50,4,2,1,5,0,1
130773,-55.5555555555556,4,2,1,85,0,1
131073,-50,4,2,1,5,0,1
131173,-250,4,2,1,75,0,0
131473,-250,4,2,1,5,0,0
131573,-133.333333333333,4,2,1,75,0,0
131873,-133.333333333333,4,2,1,5,0,0
131973,-95.2380952380952,4,2,1,75,0,0
132273,-95.2380952380952,4,2,1,5,0,0
132373,-71.4285714285714,4,2,1,75,0,0
132673,-71.4285714285714,4,2,1,5,0,0
132773,-133.333333333333,4,2,1,80,0,0
134373,-80,4,2,1,85,0,1
134673,-80,4,2,1,5,0,1
134773,-58.8235294117647,4,2,1,85,0,1
135123,-58.8235294117647,4,2,1,5,0,1
135173,-58.8235294117647,4,2,1,85,0,1
136723,-58.8235294117647,4,2,1,5,0,1
136773,-58.8235294117647,4,2,1,85,0,1
137973,-55.5555555555556,4,2,1,85,0,1
138273,-55.5555555555556,4,2,1,5,0,1
138373,-55.5555555555556,4,2,1,85,0,1
138673,-55.5555555555556,4,2,1,5,0,1
138773,-83.3333333333333,4,2,1,85,0,1
139573,-58.8235294117647,4,2,1,85,0,1
139873,-58.8235294117647,4,2,1,5,0,1
139973,-55.5555555555556,4,2,1,85,0,1
140273,-55.5555555555556,4,2,1,5,0,1
140373,-55.5555555555556,4,2,1,85,0,1
140773,-80,4,2,1,85,0,1
141073,-80,4,2,1,5,0,1
141173,-58.8235294117647,4,2,1,85,0,1
141523,-58.8235294117647,4,2,1,5,0,1
141573,-58.8235294117647,4,2,1,85,0,1
143123,-58.8235294117647,4,2,1,5,0,1
143173,-58.8235294117647,4,2,1,85,0,1
144373,-55.5555555555556,4,2,1,85,0,1
144673,-55.5555555555556,4,2,1,5,0,1
144773,-55.5555555555556,4,2,1,85,0,1
145073,-55.5555555555556,4,2,1,5,0,1
145173,-80,4,2,1,85,0,1
145573,-400,4,2,1,85,0,0
146273,-400,4,2,1,5,0,0
146373,-100,4,2,1,85,0,0
147173,-80,4,2,1,85,0,1
147473,-80,4,2,1,5,0,1
147573,-58.8235294117647,4,2,1,85,0,1
147923,-58.8235294117647,4,2,1,5,0,1
147973,-58.8235294117647,4,2,1,85,0,1
149523,-58.8235294117647,4,2,1,5,0,1
149573,-58.8235294117647,4,2,1,85,0,1
150773,-55.5555555555556,4,2,1,85,0,1
151073,-55.5555555555556,4,2,1,5,0,1
151173,-55.5555555555556,4,2,1,85,0,1
151473,-55.5555555555556,4,2,1,5,0,1
151573,-83.3333333333333,4,2,1,85,0,1
152373,-58.8235294117647,4,2,1,85,0,1
152673,-58.8235294117647,4,2,1,5,0,1
152773,-55.5555555555556,4,2,1,85,0,1
153073,-55.5555555555556,4,2,1,5,0,1
153173,-55.5555555555556,4,2,1,85,0,1
153573,-80,4,2,1,85,0,1
153873,-80,4,2,1,5,0,1
153973,-58.8235294117647,4,2,1,85,0,1
154323,-58.8235294117647,4,2,1,5,0,1
154373,-58.8235294117647,4,2,1,85,0,1
155923,-58.8235294117647,4,2,1,5,0,1
155973,-58.8235294117647,4,2,1,85,0,1
156773,-250,4,2,1,75,0,0
157073,-250,4,2,1,5,0,0
157173,-133.333333333333,4,2,1,75,0,0
157473,-133.333333333333,4,2,1,5,0,0
157573,-95.2380952380952,4,2,1,75,0,0
157873,-95.2380952380952,4,2,1,5,0,0
157973,-71.4285714285714,4,2,1,75,0,0
158273,-71.4285714285714,4,2,1,5,0,0
158373,-71.4285714285714,4,2,1,80,0,0
159973,-149.253731343284,4,2,1,65,0,0
160073,-149.253731343284,4,2,1,30,0,0
172773,-149.253731343284,4,2,1,35,0,0
179873,-149.253731343284,4,2,1,5,0,0
179973,-149.253731343284,4,2,1,35,0,0
181473,-149.253731343284,4,2,1,5,0,0
181573,-149.253731343284,4,2,1,35,0,0
183073,-149.253731343284,4,2,1,5,0,0
183173,-149.253731343284,4,2,1,35,0,0
184673,-149.253731343284,4,2,1,5,0,0
184773,-149.253731343284,4,2,1,35,0,0
185573,-117.647058823529,4,2,1,35,0,0
186673,-117.647058823529,4,2,1,5,0,0
186773,-117.647058823529,4,2,1,35,0,0
188673,-117.647058823529,4,2,1,5,0,0
188773,-117.647058823529,4,2,1,35,0,0
190273,-117.647058823529,4,2,1,5,0,0
190373,-117.647058823529,4,2,1,35,0,0
199473,-117.647058823529,4,2,1,5,0,0
199573,-117.647058823529,4,2,1,35,0,0
200673,-117.647058823529,4,2,1,5,0,0
200773,-117.647058823529,4,2,1,35,0,0
201873,-117.647058823529,4,2,1,5,0,0
201973,-117.647058823529,4,2,1,35,0,0
205073,-117.647058823529,4,2,1,5,0,0
205173,-117.647058823529,4,2,1,35,0,0
205873,-117.647058823529,4,2,1,5,0,0
205973,-117.647058823529,4,2,1,35,0,0
206673,-117.647058823529,4,2,1,5,0,0
206773,-117.647058823529,4,2,1,35,0,0
208773,-166.666666666667,4,2,1,45,0,0
209573,-285.714285714286,4,2,1,50,0,0
210773,-125,4,2,1,55,0,0
211173,-111.111111111111,4,2,1,55,0,0
211973,-100,4,2,1,55,0,0
212273,-100,4,2,1,5,0,0
212373,-100,4,2,1,55,0,0
213073,-100,4,2,1,5,0,0
213173,-100,4,2,1,55,0,0
213573,-111.111111111111,4,2,1,55,0,0
215173,-100,4,2,1,55,0,0
215473,-100,4,2,1,5,0,0
215573,-100,4,2,1,55,0,0
216273,-100,4,2,1,5,0,0
216373,-100,4,2,1,55,0,0
216773,-111.111111111111,4,2,1,55,0,0
218373,-100,4,2,1,55,0,0
218673,-100,4,2,1,5,0,0
218773,-100,4,2,1,55,0,0
219473,-100,4,2,1,5,0,0
219573,-100,4,2,1,55,0,0
220773,-111.111111111111,4,2,1,55,0,0
222373,-100,4,2,1,55,0,0
222673,-100,4,2,1,5,0,0
222773,-100,4,2,1,55,0,0
223473,-100,4,2,1,5,0,0
223573,-100,4,2,1,55,0,0
224773,-95.2380952380952,4,2,1,55,0,0
225073,-95.2380952380952,4,2,1,5,0,0
225173,-95.2380952380952,4,2,1,55,0,0
225873,-95.2380952380952,4,2,1,5,0,0
225973,-95.2380952380952,4,2,1,55,0,0
226373,-105.263157894737,4,2,1,55,0,0
227973,-95.2380952380952,4,2,1,55,0,0
228273,-95.2380952380952,4,2,1,5,0,0
228373,-95.2380952380952,4,2,1,55,0,0
229073,-95.2380952380952,4,2,1,5,0,0
229173,-95.2380952380952,4,2,1,55,0,0
229573,-105.263157894737,4,2,1,55,0,0
231173,-95.2380952380952,4,2,1,55,0,0
231473,-95.2380952380952,4,2,1,5,0,0
231573,-95.2380952380952,4,2,1,55,0,0
232273,-95.2380952380952,4,2,1,5,0,0
232373,-95.2380952380952,4,2,1,55,0,0
233573,-111.111111111111,4,2,1,55,0,0
236673,-111.111111111111,4,2,1,5,0,0
236773,-133.333333333333,4,2,1,60,0,0
249573,-111.111111111111,4,2,2,65,0,0
250373,-95.2380952380954,4,2,2,65,0,0
251573,-111.111111111111,4,2,2,65,0,0
253573,-95.2380952380954,4,2,2,65,0,0
255173,-111.111111111111,4,2,2,65,0,0
255973,-111.111111111111,4,2,2,70,0,0
256773,-95.2380952380954,4,2,2,70,0,0
259173,-95.2380952380954,4,2,2,90,0,0
262373,-200,4,2,1,60,0,0
262773,-166.666666666667,4,2,1,60,0,0
263573,-125,4,2,1,65,0,0
263973,-100,4,2,1,70,0,0
264373,-80,4,2,1,75,0,0
264773,-100,4,2,1,80,0,0
265573,-50,4,2,1,85,0,1
265873,-50,4,2,1,5,0,1
265973,-55.5555555555556,4,2,1,85,0,1
266273,-55.5555555555556,4,2,1,5,0,1
266373,-52.6315789473684,4,2,1,85,0,1
266673,-52.6315789473684,4,2,1,5,0,1
266773,-83.3333333333333,4,2,1,85,0,1
267573,-58.8235294117647,4,2,1,85,0,1
267873,-58.8235294117647,4,2,1,5,0,1
267973,-52.6315789473684,4,2,1,85,0,1
268273,-52.6315789473684,4,2,1,5,0,1
268373,-52.6315789473684,4,2,1,85,0,1
268573,-55.5555555555556,4,2,1,85,0,1
268773,-66.6666666666667,4,2,1,85,0,1
269073,-66.6666666666667,4,2,1,5,0,1
269173,-54.054054054054,4,2,1,85,0,1
269523,-54.054054054054,4,2,1,5,0,1
269573,-54.054054054054,4,2,1,85,0,1
271123,-54.054054054054,4,2,1,5,0,1
271173,-54.054054054054,4,2,1,85,0,1
272373,-55.5555555555556,4,2,1,85,0,1
272673,-55.5555555555556,4,2,1,5,0,1
272773,-55.5555555555556,4,2,1,85,0,1
273073,-55.5555555555556,4,2,1,5,0,1
273173,-80,4,2,1,85,0,1
273573,-400,4,2,1,85,0,0
274373,-100,4,2,1,85,0,0
275173,-80,4,2,1,85,0,1
275473,-80,4,2,1,5,0,1
275573,-58.8235294117647,4,2,1,85,0,1
275923,-58.8235294117647,4,2,1,5,0,1
275973,-58.8235294117647,4,2,1,85,0,1
277523,-58.8235294117647,4,2,1,5,0,1
277573,-58.8235294117647,4,2,1,85,0,1
278373,-50,4,2,1,85,0,1
278673,-50,4,2,1,5,0,1
278773,-50,4,2,1,85,0,1
279073,-55.5555555555556,4,2,1,5,0,1
279173,-52.6315789473684,4,2,1,85,0,1
279473,-52.6315789473684,4,2,1,5,0,1
279573,-83.3333333333333,4,2,1,85,0,1
280373,-58.8235294117647,4,2,1,85,0,1
280673,-58.8235294117647,4,2,1,5,0,1
280773,-52.6315789473684,4,2,1,85,0,1
281073,-52.6315789473684,4,2,1,5,0,1
281173,-52.6315789473684,4,2,1,85,0,1
281373,-55.5555555555556,4,2,1,85,0,1
281573,-66.6666666666667,4,2,1,85,0,1
281873,-66.6666666666667,4,2,1,5,0,1
281973,-54.054054054054,4,2,1,85,0,1
282323,-54.054054054054,4,2,1,5,0,1
282373,-54.054054054054,4,2,1,85,0,1
283123,-54.054054054054,4,2,1,5,0,1
283173,-54.054054054054,4,2,1,85,0,1
285173,-55.5555555555556,4,2,1,85,0,1
285473,-55.5555555555556,4,2,1,5,0,1
285573,-55.5555555555556,4,2,1,85,0,1
285873,-55.5555555555556,4,2,1,5,0,1
285973,-80,4,2,1,85,0,1
286373,-400,4,2,1,85,0,0
287073,-400,4,2,1,5,0,0
287173,-100,4,2,1,60,0,0
287573,-133.333333333333,4,2,1,60,0,0
287973,-133.333333333333,4,2,1,55,0,0
288073,-166.666666666667,4,2,1,40,0,0
289573,-166.666666666667,4,2,1,40,0,0
291173,-133.333333333333,4,2,1,40,0,0
292773,-166.666666666667,4,2,1,40,0,0
294373,-133.333333333333,4,2,1,40,0,0
295973,-166.666666666667,4,2,1,40,0,0
297573,-133.333333333333,4,2,1,40,0,0
299173,-133.333333333333,4,2,1,35,0,0
299273,-166.666666666667,4,2,1,30,0,0
299773,-166.666666666667,4,2,1,25,0,0
300373,-166.666666666667,4,2,1,20,0,0
300973,-166.666666666667,4,2,1,15,0,0
301573,-166.666666666667,4,2,1,10,0,0
302373,-166.666666666667,4,2,1,5,0,0

[Colours]
Combo1 : 252,224,67
Combo2 : 232,232,232
Combo3 : 254,71,71
Combo4 : 253,77,121

[HitObjects]
256,192,373,12,0,6273,0:0:0:0:
215,162,6373,5,0,0:0:0:0:
257,361,6773,6,0,P|274:327|310:316,1,71.9999978027344,2|0,0:2|0:0,0:0:0:0:
435,296,7173,2,0,B|402:294|387:269|401:266|373:240|346:244,1,107.999996704102,2|0,0:2|0:0,0:0:0:0:
339,251,7573,1,2,0:0:0:0:
386,154,7773,2,0,P|423:145|461:140,1,71.9999978027344,2|2,0:0|0:0,0:0:0:0:
257,362,8773,37,2,0:0:0:0:
167,323,8973,2,0,P|169:260|237:269,1,143.999995605469,2|0,0:0|0:0,0:0:0:0:
215,162,9573,6,0,B|182:160|167:135|181:132|153:106|126:110,1,107.999996704102,2|0,0:0|0:0,0:0:0:0:
119,116,9973,2,0,B|178:134|213:86|187:64|218:4|286:20,1,215.999993408203,2|0,0:0|0:0,0:0:0:0:
344,101,10773,1,2,0:0:0:0:
286,20,10973,2,0,P|314:91|337:234,1,215.999993408203,2|0,0:0|0:0,0:0:0:0:
257,362,11973,37,2,0:0:0:0:
347,323,12173,2,0,P|345:260|277:269,1,143.999995605469,2|0,0:0|0:0,0:0:0:0:
215,162,12773,6,0,B|296:186|348:118|308:92|355:15|444:41,1,287.999991210938,2|0,0:2|0:0,0:0:0:0:
482,225,13973,1,2,0:0:0:0:
428,156,14173,2,0,P|465:147|503:142,1,71.9999978027344,2|2,0:0|0:0,0:0:0:0:
257,362,15173,37,2,0:0:0:0:
221,284,15373,2,0,P|269:235|293:284,1,143.999995605469,2|0,0:0|0:0,0:0:0:0:
391,372,15973,6,0,P|404:299|448:237,2,143.999995605469,2|2|2,0:0|0:3|0:3,0:0:0:0:
351,200,17173,1,2,0:0:0:0:
293,283,17373,2,0,P|254:268|218:268,1,71.9999978027344,2|0,0:0|0:0,0:0:0:0:
224,267,19173,37,0,0:0:0:0:
205,65,19573,22,0,P|181:99|134:99,1,71.9999978027344,2|0,0:0|0:0,0:0:0:0:
20,68,19973,2,0,P|62:102|77:175,1,107.999996704102,2|0,0:0|0:0,0:0:0:0:
70,160,20373,1,2,0:0:0:0:
37,285,20573,2,0,B|74:276|65:310|113:296,1,71.9999978027344,2|2,0:0|0:0,0:0:0:0:
270,103,21573,21,2,0:0:0:0:
324,21,21773,2,0,P|386:21|360:85,1,143.999995605469,2|0,0:0|0:0,0:0:0:0:
445,168,22373,22,0,P|408:221|404:273,1,107.999996704102,2|0,0:0|0:0,0:0:0:0:
407,273,22773,2,0,B|354:254|300:296|331:327|266:373|216:342,1,215.999993408203,2|0,0:0|0:0,0:0:0:0:
227,240,23573,1,2,0:0:0:0:
215,334,23773,2,0,P|204:285|177:249,1,71.9999978027344,2|2,0:0|0:0,0:0:0:0:
83,46,24773,21,2,0:0:0:0:
91,145,24973,2,0,P|17:163|23:118,1,143.999995605469,2|0,0:0|0:0,0:0:0:0:
165,202,25573,22,0,B|248:182|301:245|252:283|326:358|410:323,1,287.999991210938,2|0,0:2|0:0,0:0:0:0:
425,154,26773,1,2,0:0:0:0:
379,239,26973,2,0,P|417:240|480:255,1,71.9999978027344,2|0,0:0|0:0,0:0:0:0:
188,321,27973,21,2,0:0:0:0:
88,308,28173,2,0,P|49:359|115:376,1,143.999995605469,2|0,0:0|0:0,0:0:0:0:
132,207,28773,2,0,P|112:135|63:77,2,143.999995605469,2|2|2,0:0|0:3|0:3,0:0:0:0:
241,40,29973,22,0,P|200:74|186:146,1,107.999996704102,2|0,0:0|0:0,0:0:0:0:
194,139,30373,2,0,B|159:143|129:115|151:89|100:63|68:71,1,143.999995605469,2|0,0:0|0:0,0:0:0:0:
40,249,31173,22,0,P|24:285|18:327,1,60
107,309,31573,2,0,P|125:350|128:391,1,60
311,381,31973,6,0,B|353:370|360:337|360:337|318:282|346:200,2,204.000003890991,4|2|2,3:2|0:3|0:3,0:0:0:0:
192,292,33173,1,2,0:0:0:0:
261,324,33373,1,2,0:0:0:0:
184,280,33573,38,0,P|142:290|104:313,1,83.9999974365235,2|0,3:2|0:0,0:0:0:0:
12,184,33973,2,0,P|52:204|95:208,1,83.9999974365235,2|0,0:0|0:0,0:0:0:0:
205,105,34373,6,0,B|170:115|146:90|159:72|134:45|99:54,1,125.999996154785,2|0,0:2|0:0,0:0:0:0:
93,63,34773,2,0,P|136:52|171:18,1,83.9999974365235,2|0,0:0|0:0,0:0:0:0:
375,148,35173,37,0,3:0:0:0:
342,85,35573,2,0,B|341:72|341:72|378:47|399:9|399:9|409:51|435:94|435:94|429:107,1,204.000003890991,2|2,0:0|0:3,0:0:0:0:
494,241,36373,5,2,0:0:0:0:
498,369,36573,2,0,P|469:313|356:330,1,167.999994873047,2|0,0:0|0:0,0:0:0:0:
373,311,37173,38,0,B|394:337|471:320|469:220|373:176|266:235|323:307|272:337|213:319,1,335.999989746094,2|2,0:0|0:3,0:0:0:0:
11,365,38373,6,0,P|64:227|103:164,2,204.000003890991,2|2|0,3:2|0:3|0:3,0:0:0:0:
11,365,39573,1,0,0:0:0:0:
92,179,39973,38,0,P|76:132|41:108,1,83.9999974365235,2|0,3:2|0:0,0:0:0:0:
188,4,40373,2,0,P|168:49|164:99,1,83.9999974365235,2|0,0:0|0:0,0:0:0:0:
193,202,40773,2,0,P|241:156|294:179,1,125.999996154785,2|0,0:0|0:0,0:0:0:0:
291,184,41173,2,0,P|269:139|291:100,1,83.9999974365235,2|0,0:0|0:0,0:0:0:0:
509,45,41573,6,0,B|456:48|431:101|431:101|438:42|382:16,2,204.000003890991,0|2|2,3:2|0:3|0:3,0:0:0:0:
415,177,42773,1,0,0:0:0:0:
415,177,42973,1,0,0:0:0:0:
506,243,43173,38,0,P|448:263|433:324,1,116.999994644165,0|0,3:0|0:0,0:0:0:0:
431,323,43573,2,0,P|468:342|501:317,1,77.9999964294435
354,377,43973,2,0,P|335:299|268:234,1,155.999992858887
98,214,44773,22,0,B|147:222|196:183|161:145|218:112|264:120,2,204.000003890991,2|2|2,3:2|0:3|0:3,0:0:0:0:
93,53,45973,21,2,0:0:0:0:
22,17,46173,1,2,0:0:0:0:
105,49,46373,2,0,P|107:101|94:141,1,83.9999974365235,2|0,3:2|0:0,0:0:0:0:
269,77,46773,2,0,P|231:56|186:50,1,83.9999974365235,2|0,0:0|0:0,0:0:0:0:
186,210,47173,2,0,P|218:272|280:274,1,125.999996154785,2|0,0:0|0:0,0:0:0:0:
271,268,47573,2,0,P|231:292|213:325,1,83.9999974365235,2|0,0:0|0:0,0:0:0:0:
406,249,47973,21,0,3:0:0:0:
445,54,48373,1,2,0:3:0:0:
426,151,48773,1,2,0:3:0:0:
211,73,49173,21,2,0:0:0:0:
222,180,49373,2,0,B|168:190|108:147|154:109|85:74|42:94,1,209.999993591309,2|0,0:0|0:0,0:0:0:0:
44,103,49973,22,0,P|93:94|133:62,1,83.9999974365235,2|0,0:0|0:0,0:0:0:0:
248,12,50373,2,0,P|209:104|218:184,1,167.999994873047,2|0,0:0|0:0,0:0:0:0:
310,330,51173,22,0,B|343:321|361:285|361:285|398:305|442:311|497:296,2,204.000003890991,2|2|2,3:2|0:3|0:3,0:0:0:0:
59,241,52773,22,0,P|79:187|67:142,1,83.9999974365235,2|0,0:0|0:0,0:0:0:0:
248,175,53173,2,0,P|206:193|156:189,1,83.9999974365235,2|0,0:0|0:0,0:0:0:0:
95,30,53573,2,0,P|164:62|185:128,1,125.999996154785,2|0,0:0|0:0,0:0:0:0:
173,110,53973,2,0,P|200:83|249:70,1,83.9999974365235,2|0,0:0|0:0,0:0:0:0:
403,109,54373,21,2,3:2:0:0:
490,301,54773,1,2,0:3:0:0:
471,204,55173,22,0,B|404:196|372:237|405:278|332:320|284:297,1,215.999993408203,2|0,0:2|0:0,0:0:0:0:
206,221,55973,2,0,P|117:243|175:302,1,209.999993591309,2|0,0:0|0:0,0:0:0:0:
304,207,57173,22,0,P|311:159|339:109,1,96,2|0,0:0|0:0,1:0:0:0:
112,33,57573,5,4,3:2:0:0:
126,107,57773,1,0,0:0:0:0:
186,18,57973,1,0,0:0:0:0:
200,93,58173,1,0,0:0:0:0:
21,126,58373,38,0,P|87:141|147:183,1,135.000005149841,2|0,0:0|0:0,0:0:0:0:
152,177,58773,2,0,P|150:223|105:242,1,90.0000034332277
203,363,59173,6,0,P|233:286|268:294,1,135.000005149841,2|0,3:2|0:0,0:0:0:0:
279,288,59573,2,0,P|322:278|326:225,1,90.0000034332277
404,91,59973,38,0,P|357:100|303:118,1,90.0000034332277,2|0,0:0|0:0,0:0:0:0:
386,23,60373,2,0,P|337:33|284:49,1,90.0000034332277,2|0,0:0|0:0,0:0:0:0:
509,322,60773,5,0,3:0:0:0:
509,322,61173,1,0,0:0:0:0:
509,322,61573,38,0,P|474:263|379:289,1,161.999995056153,2|0,0:0|0:0,0:0:0:0:
376,274,61973,2,0,P|356:337|383:373,1,107.999996704102
263,288,62373,6,0,P|254:213|220:132,1,161.999995056153,2|0,3:2|0:0,0:0:0:0:
226,123,62773,2,0,P|282:106|306:149,1,107.999996704102
106,351,63173,38,0,P|153:360|207:378,1,90.0000034332277,2|0,0:0|0:0,0:0:0:0:
124,283,63573,2,0,P|173:293|226:309,1,90.0000034332277,2|0,0:0|0:0,0:0:0:0:
0,15,63973,5,0,3:0:0:0:
0,15,64373,1,0,0:0:0:0:
0,15,64773,38,0,B|43:-5|83:31|60:49|96:82|141:64,1,161.999995056153,2|0,0:2|0:0,0:0:0:0:
146,57,65173,2,0,P|73:79|56:111,1,107.999996704102
0,226,65573,6,0,P|73:244|96:329,1,161.999995056153,2|0,3:2|0:0,0:0:0:0:
89,326,65973,2,0,P|124:275|184:286,1,107.999996704102,2|0,0:0|0:0,0:0:0:0:
339,318,66373,2,0,P|304:369|244:358,1,107.999996704102,2|0,0:0|0:0,0:0:0:0:
228,219,66773,2,0,P|221:162|191:114,1,107.999996704102,2|0,0:0|0:0,0:0:0:0:
334,9,67173,38,0,P|311:42|314:91,1,90.0000034332277,0|0,3:0|0:0,0:0:0:0:
405,113,67573,2,0,P|428:80|425:31,1,90.0000034332277
470,187,67973,6,0,P|493:220|490:269,1,90.0000034332277
399,291,68373,2,0,P|376:258|379:209,1,90.0000034332277
257,364,68773,38,0,P|235:292|163:315,1,161.999995056153,2|0,3:2|0:0,0:0:0:0:
153,309,69173,2,0,P|117:261|145:219,1,107.999996704102,2|0,0:0|0:0,0:0:0:0:
2,83,69573,2,0,P|31:146|102:114,1,161.999995056153,2|0,3:2|0:0,0:0:0:0:
110,108,69973,2,0,P|158:97|170:40,1,107.999996704102,2|0,0:0|0:0,0:0:0:0:
343,98,70373,21,2,3:2:0:0:
417,193,70573,1,0,0:0:0:0:
428,108,70773,1,2,0:0:0:0:
333,183,70973,1,0,0:0:0:0:
465,285,71173,22,0,B|436:273|389:289|415:318|376:346|322:326,1,144,2|0,0:0|0:0,0:0:0:0:
334,320,71573,2,0,P|370:337|392:392,1,96
212,304,71973,22,0,P|159:276|150:189,1,144,2|0,3:2|0:0,0:0:0:0:
155,191,72373,2,0,P|94:223|53:204,1,96
146,75,72773,22,0,P|197:82|256:107,1,96,2|0,0:0|0:0,0:0:0:0:
166,0,73173,2,0,P|226:12|284:33,1,96,2|0,0:0|0:0,0:0:0:0:
322,366,73573,21,0,3:2:0:0:
322,366,73973,1,0,0:0:0:0:
322,366,74373,22,0,P|346:286|274:211,1,170.999995433807,2|0,0:0|0:0,0:0:0:0:
287,228,74773,2,0,P|210:241|181:282,1,113.999996955872
431,31,75173,22,0,P|400:111|392:212,1,170.999995433807,2|0,3:2|0:0,0:0:0:0:
401,206,75573,2,0,P|468:255|518:240,1,113.999996955872
309,112,75973,22,0,P|254:125|209:151,1,96,2|0,0:0|0:0,0:0:0:0:
293,37,76373,2,0,P|226:55|176:82,1,96,2|0,0:0|0:0,0:0:0:0:
47,373,76773,21,2,3:2:0:0:
47,373,77173,1,0,0:0:0:0:
47,373,77573,22,0,B|87:392|136:368|113:340|168:309|215:334,1,170.999995433807,2|0,0:0|0:0,0:0:0:0:
204,341,77973,2,0,P|191:266|221:234,1,113.999996955872
459,223,78373,22,0,P|435:300|354:312,1,170.999995433807,2|0,3:2|0:0,0:0:0:0:
357,300,78773,2,0,P|416:352|401:410,1,113.999996955872,2|0,0:0|0:0,0:0:0:0:
372,211,79173,2,0,P|369:148|387:85,1,113.999996955872,2|0,0:0|0:0,0:0:0:0:
463,51,79573,2,0,P|422:14|357:11,1,113.999996955872,2|2,0:0|0:0,0:0:0:0:
149,170,79973,22,0,P|193:180|249:152,1,96,0|2,3:0|0:0,0:0:0:0:
155,0,80373,2,0,P|172:30|187:90,1,96,2|0,0:0|0:0,0:0:0:0:
231,340,80773,22,0,P|183:342|143:317,1,96
238,163,81173,2,0,P|221:193|206:253,1,96
391,244,81573,21,0,3:0:0:0:
256,192,81673,12,0,83073,0:0:0:0:
162,119,83173,5,6,3:2:0:0:
293,197,83373,1,0,3:0:0:0:
291,188,83473,1,0,3:0:0:0:
220,248,83573,38,0,B|176:275|146:225|131:189|176:135|333:112|274:239|305:278|353:286|412:259,1,360.000013732911,2|0,1:2|0:0,0:0:0:0:
473,297,84473,5,0,3:0:0:0:
464,292,84573,1,0,3:0:0:0:
474,285,84673,1,0,3:0:0:0:
372,345,84773,38,0,B|365:335|365:335|421:314|440:247|440:247|444:318|494:357|494:357|485:366,1,270.000010299683,2|0,1:2|0:0,0:0:0:0:
258,57,85573,6,0,P|313:73|322:103,1,90.0000034332277,2|0,0:0|0:0,0:0:0:0:
255,190,85973,2,0,L|251:150,6,22.5000008583069,2|0|0|0|0|0|0,0:0|0:0|0:0|0:0|0:0|0:0|0:0,0:0:0:0:
243,279,86373,37,2,3:2:0:0:
244,265,86473,1,0,3:0:0:0:
257,267,86573,1,0,3:0:0:0:
255,280,86673,1,0,3:0:0:0:
177,363,86773,6,0,B|183:259|122:190|53:174|-11:209|-9:293|41:317|76:294,1,360.000013732911,0|0,1:0|0:0,0:0:0:0:
61,169,87673,37,0,3:0:0:0:
70,164,87773,1,0,3:0:0:0:
60,157,87873,1,0,3:0:0:0:
180,87,87973,6,0,B|162:64|162:64|179:-2,1,90.0000034332277,2|0,1:2|0:0,0:0:0:0:
332,87,88573,2,0,B|350:64|350:64|333:-2,1,90.0000034332277,0|0,1:2|0:0,0:0:0:0:
255,190,89173,2,0,L|259:150,6,22.5000008583069,2|0|0|0|0|0|0,1:2|0:0|0:0|0:0|0:0|0:0|0:0,0:0:0:0:
269,279,89573,37,2,3:2:0:0:
268,265,89673,1,0,3:0:0:0:
255,267,89773,1,0,3:0:0:0:
257,280,89873,1,0,3:0:0:0:
355,358,89973,6,0,P|405:291|449:298,1,135.000005149841,2|0,1:2|0:0,0:0:0:0:
449,306,90373,2,0,P|418:226|518:209,1,204.000003890991,2|0,0:0|0:0,0:0:0:0:
467,88,90873,37,0,3:0:0:0:
458,83,90973,1,0,3:0:0:0:
468,76,91073,1,0,3:0:0:0:
509,201,91173,6,0,P|423:220|362:265,1,153.000002918243,2|0,1:2|0:0,0:0:0:0:
268,265,91573,38,0,P|249:189|182:202,1,153.000002918243,2|0,0:0|0:0,0:0:0:0:
183,205,91973,2,0,P|130:179|151:118,1,102.000001945496,2|0,0:0|0:0,0:0:0:0:
253,35,92373,6,0,L|249:-7,6,25.5000004863739,2|0|0|0|0|0|0,0:0|0:0|0:0|0:0|0:0|0:0|0:0,0:0:0:0:
247,145,92773,37,2,3:2:0:0:
248,131,92873,1,0,3:0:0:0:
261,133,92973,1,2,3:2:0:0:
259,146,93073,1,0,3:0:0:0:
386,193,93173,6,0,B|420:208|466:165|429:89|361:117|334:134|334:134|326:62|257:38|202:74,1,360.000013732911,2|0,1:2|0:0,0:0:0:0:
118,142,94073,37,0,3:0:0:0:
127,137,94173,1,0,3:0:0:0:
117,130,94273,1,0,3:0:0:0:
146,285,94373,6,0,B|115:241|115:241|149:197,1,102.000001945496,2|0,1:2|0:0,0:0:0:0:
210,319,94773,2,0,P|213:347|215:370,1,51.0000009727478,2|0,0:0|0:0,0:0:0:0:
366,285,94973,2,0,B|397:241|397:241|363:197,1,102.000001945496,0|2,1:2|0:0,0:0:0:0:
255,36,95573,2,0,L|258:-8,6,25.5000004863739,2|0|0|0|0|0|0,1:2|0:0|0:0|0:0|0:0|0:0|0:0,0:0:0:0:
245,148,95973,37,10,3:2:0:0:
84,93,96173,1,0,3:0:0:0:
86,103,96273,1,0,3:0:0:0:
0,160,96373,22,0,P|72:129|117:183,1,144,10|0,1:2|0:0,0:0:0:0:
83,368,96773,22,0,P|152:341|251:337,1,170.999995433807,10|0,0:0|0:0,0:0:0:0:
254,346,97173,2,0,P|273:316|270:280,1,56.9999984779358,8|0,0:0|0:0,0:0:0:0:
257,136,97373,21,0,3:0:0:0:
267,134,97473,1,0,3:0:0:0:
334,60,97573,22,0,B|282:48|245:73|267:103|225:136|178:121,1,170.999995433807,10|0,1:2|0:0,0:0:0:0:
21,43,97973,22,0,P|27:120|6:189,1,144,8|0,0:0|0:0,0:0:0:0:
14,307,98373,22,0,P|72:293|109:192,1,144,10|0,0:0|0:0,0:0:0:0:
122,55,98773,2,0,L|108:28,6,24,10|0|0|0|0|0|0,0:0|0:0|0:0|0:0|0:0|0:0|0:0,0:0:0:0:
222,211,99173,21,8,3:2:0:0:
387,153,99373,1,0,3:0:0:0:
384,144,99473,1,0,3:0:0:0:
303,155,99573,22,0,P|359:110|345:16,1,144,8|0,1:2|0:0,0:0:0:0:
473,217,99973,22,0,B|425:205|388:242|412:265|366:304|319:284,1,170.999995433807,10|0,0:0|0:0,0:0:0:0:
323,279,100373,2,0,P|318:243|304:230,1,56.9999984779358,8|0,0:0|0:0,0:0:0:0:
210,291,100573,21,0,3:0:0:0:
200,296,100673,1,0,3:0:0:0:
254,374,100773,21,10,1:2:0:0:
138,343,100973,1,0,0:0:0:0:
95,109,101173,1,8,0:0:0:0:
216,131,101373,1,0,1:0:0:0:
18,258,101573,22,0,B|65:273|96:238|75:221|118:200|157:213,1,144,10|0,0:0|0:0,0:0:0:0:
288,310,101973,2,0,L|291:353,6,24,10|0|0|0|0|0|0,0:0|0:0|0:0|0:0|0:0|0:0|0:0,0:0:0:0:
277,169,102373,21,8,1:2:0:0:
387,184,102573,1,0,0:0:0:0:
152,62,102773,21,8,1:2:0:0:
134,213,102973,1,0,0:0:0:0:
468,14,103173,22,0,B|416:8|390:41|405:65|362:98|313:78,1,170.999995433807,10|0,1:2|0:0,0:0:0:0:
329,72,103573,2,0,P|371:87|391:155,1,113.999996955872,8|0,1:2|0:0,0:0:0:0:
34,359,103973,22,0,P|68:249|58:179,1,170.999995433807,10|0,1:2|0:0,0:0:0:0:
53,186,104373,2,0,P|110:161|179:182,1,113.999996955872,10|0,1:2|0:0,0:0:0:0:
445,384,104773,22,0,P|479:338|460:250,1,113.999996955872,10|0,1:2|0:0,0:0:0:0:
305,237,105173,2,0,P|271:283|290:371,1,113.999996955872,10|2,1:2|0:0,0:0:0:0:
483,175,105573,21,0,1:2:0:0:
216,231,105773,1,2,1:2:0:0:
325,29,105973,21,2,1:2:0:0:
380,305,106173,1,0,1:2:0:0:
510,65,106373,21,0,1:2:0:0:
156,126,106573,1,0,1:2:0:0:
185,338,106773,21,0,1:0:0:0:
203,248,106873,1,0,1:0:0:0:
189,355,106973,21,0,1:0:0:0:
216,231,107073,1,0,1:0:0:0:
116,152,108773,6,2,B|77:175|24:139|12:67|151:-28|222:112|159:180|241:193|285:174,1,360,6|0,1:2|0:0,0:1:0:0:
323,114,109173,2,0,B|367:123|407:73|395:1|234:-45|209:109|291:154|221:193|166:192,1,360,2|0,3:2|0:0,0:0:0:0:
279,352,109573,22,0,P|255:187|225:15,1,341.999990867615,10|0,3:2|0:0,0:0:0:0:
323,114,109973,2,0,B|368:146|351:227|299:255|246:202|187:224|167:298|204:339,1,323.999990112305,2|0,3:2|0:0,0:0:0:0:
315,287,110373,21,2,3:2:0:0:
32,154,110573,21,8,1:3:0:0:
475,221,110773,1,8,1:3:0:0:
475,221,111173,22,0,P|304:247|135:282,1,341.999990867615,10|0,3:2|0:0,0:0:0:0:
279,352,111573,2,0,B|316:311|296:237|237:215|184:268|134:232|113:163|156:119,1,323.999990112305,2|0,3:2|0:0,0:0:0:0:
386,72,111973,22,2,B|427:89|475:46|477:-26|326:-101|275:47|342:105|271:132|221:120,1,360,6|0,1:2|0:0,0:1:0:0:
381,164,112373,2,0,B|422:146|470:189|472:262|321:337|270:188|337:130|266:103|216:115,1,360,2|0,3:2|0:0,0:0:0:0:
201,338,112773,22,0,P|225:173|255:1,1,341.999990867615,10|0,3:2|0:0,0:0:0:0:
127,188,113173,2,0,B|114:133|141:110|217:105|244:93|270:80|335:83|357:52|345:0,1,323.999990112305,2|0,3:2|0:0,0:0:0:0:
175,30,113573,21,0,3:2:0:0:
496,366,113973,22,0,P|467:303|392:329,1,150,8|0,1:3|0:0,0:0:0:0:
0,314,114373,22,0,P|166:279|340:253,1,341.999990867615,10|0,3:2|0:0,0:0:0:0:
302,336,114773,1,2,3:2:0:0:
469,194,114973,2,0,B|495:245|495:245|457:287,1,107.999996704102,8|0,0:0|0:0,0:0:0:0:
196,159,115173,22,2,B|209:121|257:116|257:116|322:103|327:20|295:-2|231:4|207:70|257:116|257:116|277:130|306:139,1,360,6|0,1:2|0:0,0:1:0:0:
135,194,115573,2,0,B|148:232|196:237|196:237|261:250|266:333|234:355|170:349|146:283|196:237|196:237|216:223|245:214,1,360,2|0,3:2|0:0,0:0:0:0:
5,222,115973,22,0,P|171:187|345:161,1,341.999990867615,10|0,3:2|0:0,0:0:0:0:
137,114,116373,2,0,B|181:76|255:99|275:153|221:201|253:260|321:270|365:232,1,323.999990112305,2|0,3:2|0:0,0:0:0:0:
454,151,116773,21,2,3:2:0:0:
132,1,116973,21,8,1:3:0:0:
396,384,117173,1,8,1:3:0:0:
396,384,117573,22,0,P|422:213|457:44,1,341.999990867615,10|0,3:2|0:0,0:0:0:0:
508,257,117973,2,0,B|468:295|399:274|363:224|416:171|394:112|320:92|279:129,1,323.999990112305,2|0,3:2|0:0,0:0:0:0:
147,264,118373,22,2,B|185:277|190:325|190:325|203:390|286:395|308:363|302:299|236:275|190:325|190:325|176:345|167:374,1,360,6|0,1:2|0:0,0:1:0:0:
67,262,118773,2,0,B|67:248|61:228|61:228|41:163|-28:157|-61:212|-54:251|22:281|61:228|61:228|86:187|126:191,1,360,2|0,3:2|0:0,0:0:0:0:
164,40,119173,22,0,P|128:207|103:376,1,341.999990867615,10|0,3:2|0:0,0:0:0:0:
222,265,119573,2,0,B|233:216|211:185|146:188|120:175|93:163|17:158|-9:135|3:80,1,323.999990112305,2|0,3:2|0:0,0:0:0:0:
60,0,119973,38,0,P|71:46|80:92,1,90.0000034332277,2|0,1:2|0:0,0:0:0:0:
218,131,120373,2,0,P|228:76|239:33,1,90.0000034332277,2|0,0:0|0:0,0:0:0:0:
364,58,120773,5,2,3:2:0:0:
365,66,120873,1,0,3:0:0:0:
366,74,120973,1,0,3:0:0:0:
236,42,121173,37,2,1:2:0:0:
443,128,121373,1,0,1:0:0:0:
62,253,121573,22,2,B|25:223|-27:278|-14:329|57:362|100:351|147:338|113:200|235:223|279:281,1,360,6|0,1:2|0:0,0:1:0:0:
221,123,121973,2,0,P|180:281|343:342,1,360,2|0,3:2|0:0,0:0:0:0:
465,191,122373,6,0,P|241:168|116:139,1,341.999990867615,10|0,3:2|0:0,0:0:0:0:
187,297,122773,2,0,B|261:308|339:247|278:195|323:94|436:117,1,323.999990112305,2|0,3:2|0:0,0:0:0:0:
510,259,123173,37,2,3:2:0:0:
113,237,123373,1,8,1:3:0:0:
112,227,123473,1,0,3:0:0:0:
111,219,123573,1,8,1:3:0:0:
81,12,123773,1,0,3:0:0:0:
300,356,123973,6,0,P|339:190|406:31,1,341.999990867615,10|0,3:2|0:0,0:0:0:0:
416,220,124373,2,0,B|292:239|355:115|175:58|150:233|244:238|264:218,1,323.999990112305,2|0,3:2|0:0,0:0:0:0:
442,146,124773,37,2,1:1:0:0:
92,354,124973,1,0,3:0:0:0:
36,87,125173,6,0,B|137:43|226:118|155:182|250:243|347:193,1,360,2|0,3:2|0:0,0:0:0:0:
310,22,125573,2,0,P|269:181|258:362,1,341.999990867615,10|0,3:2|0:0,0:0:0:0:
448,145,125973,38,0,B|507:163|550:-3|408:6|396:166|560:139|504:275,1,323.999990112305,2|0,3:2|0:0,0:0:0:0:
303,282,126373,2,0,B|321:223|154:180|164:322|324:334|297:170|433:226,1,323.999990112305,2|0,3:2|0:0,0:0:0:0:
117,151,126773,6,0,P|145:88|210:109,1,150,0|0,1:2|0:0,0:0:0:0:
425,375,127173,38,0,P|386:208|371:38,1,341.999990867615,10|0,3:2|0:0,0:0:0:0:
450,10,127573,1,2,3:2:0:0:
293,75,127773,2,0,B|239:92|239:92|196:56,1,107.999996704102,8|0,3:2|0:0,0:0:0:0:
130,251,127973,6,2,B|147:293|212:337|340:257|219:198|301:129|391:145|418:188,1,360,6|0,1:2|0:0,0:1:0:0:
396,357,128373,2,0,B|368:388|276:388|208:306|337:269|225:168|153:200|129:239,1,360,2|0,3:2|0:0,0:0:0:0:
31,120,128773,38,0,P|225:104|378:73,1,341.999990867615,10|0,3:2|0:0,0:0:0:0:
228,20,129173,2,0,P|278:222|401:206,1,323.999990112305,2|0,3:2|0:0,0:0:0:0:
491,129,129573,5,0,3:0:0:0:
150,315,129773,1,8,1:3:0:0:
160,317,129873,1,0,3:0:0:0:
171,318,129973,1,8,1:3:0:0:
446,356,130173,1,0,3:0:0:0:
376,53,130373,38,0,P|322:226|296:416,1,341.999990867615,10|0,3:2|0:0,0:0:0:0:
468,214,130773,2,0,B|454:250|393:264|360:224|332:217|303:209|255:163|199:172|175:214,1,323.999990112305,2|0,3:2|0:0,0:0:0:0:
111,356,131173,22,0,P|152:359|193:369,1,72,10|0,3:2|0:0,0:0:0:0:
240,273,131573,22,0,P|244:197|226:133,1,135.000005149841,10|0,3:2|0:0,0:0:0:0:
8,132,131973,2,0,P|91:68|193:81,1,188.999994232178,10|0,3:2|0:0,0:0:0:0:
448,114,132373,2,0,P|290:31|239:94,1,251.999992309571,10|0,3:2|0:0,0:0:0:0:
216,185,132773,21,8,3:2:0:0:
316,198,132973,1,8,3:2:0:0:
157,270,133173,21,10,3:2:0:0:
125,140,133373,1,8,3:2:0:0:
286,128,133573,21,10,3:2:0:0:
224,355,133773,1,0,1:0:0:0:
33,230,133973,21,10,3:2:0:0:
334,335,134173,1,0,1:0:0:0:
475,10,134373,6,0,P|432:102|413:227,1,225,6|0,1:2|0:0,0:0:0:0:
420,221,134773,22,0,P|385:178|343:181,1,102.000001945496,2|0,3:2|0:0,0:0:0:0:
286,128,134973,2,0,P|207:119|195:182,1,153.000002918243,2|0,3:2|0:0,0:0:0:0:
203,185,135173,1,8,3:2:0:0:
224,355,135373,22,0,B|232:294|256:321|260:258,1,102.000001945496,2|0,3:2|0:0,0:0:0:0:
136,222,135573,2,0,B|163:276|129:264|152:321,1,102.000001945496,2|0,3:2|0:0,0:0:0:0:
88,379,135773,2,0,B|86:320|30:305|20:319|-35:289|-19:222,1,204.000003890991,2|0,3:2|3:0,0:0:0:0:
127,55,136373,22,0,P|91:79|103:130,1,102.000001945496,2|0,3:2|0:0,0:0:0:0:
192,176,136573,2,0,P|257:130|233:68,1,153.000002918243,2|0,3:2|0:0,0:0:0:0:
227,66,136773,1,8,0:0:0:0:
357,254,136973,22,0,P|368:202|402:170,1,102.000001945496,2|0,3:2|0:0,0:0:0:0:
301,27,137173,2,0,P|326:74|335:131,1,102.000001945496,2|0,3:2|0:0,0:0:0:0:
490,200,137373,2,0,P|443:158|391:164,1,102.000001945496,2|0,3:2|0:0,0:0:0:0:
266,353,137573,21,0,1:2:0:0:
266,353,137973,2,0,B|303:369|339:330|353:277|229:192|164:318|222:378|150:388|109:379,1,323.999990112305,2|0,3:2|0:0,0:0:0:0:
61,294,138373,2,0,P|222:319|397:348,1,323.999990112305,10|0,3:2|0:0,0:0:0:0:
443,304,138773,38,0,P|437:257|345:264,1,143.999995605469,0|0,3:0|0:0,0:0:0:0:
451,306,139173,2,0,P|445:255|359:237,1,143.999995605469,0|0,3:0|0:0,0:0:0:0:
268,137,139573,6,0,B|251:114|251:114|296:97|329:16|329:16|331:103|368:134|368:134|346:150,1,306.000005836487,2|0,1:2|0:0,0:0:0:0:
444,79,139973,2,0,P|322:126|245:299,1,323.999990112305,10|0,0:2|0:0,0:0:0:0:
186,348,140373,21,2,3:2:0:0:
184,338,140473,1,0,3:0:0:0:
323,368,140573,2,0,B|349:317|349:317|311:275,1,107.999996704102,8|0,0:0|0:0,0:0:0:0:
18,159,140773,22,0,P|92:235|208:234,1,225,6|0,1:2|0:0,0:0:0:0:
213,229,141173,22,0,P|170:194|173:152,1,102.000001945496,2|0,3:2|0:0,0:0:0:0:
361,88,141373,2,0,P|282:79|270:142,1,153.000002918243,2|0,3:2|0:0,0:0:0:0:
276,143,141573,1,8,3:2:0:0:
323,368,141773,22,0,B|315:307|291:334|287:271,1,102.000001945496,2|0,3:2|0:0,0:0:0:0:
384,166,141973,2,0,B|357:220|391:208|368:265,1,102.000001945496,2|0,3:2|0:0,0:0:0:0:
412,370,142173,2,0,P|449:289|521:194,1,204.000003890991,2|0,3:2|3:0,0:0:0:0:
500,39,142773,22,0,P|497:82|447:97,1,102.000001945496,2|0,3:2|0:0,0:0:0:0:
384,166,142973,2,0,P|304:158|294:92,1,153.000002918243,2|0,3:2|0:0,0:0:0:0:
298,88,143173,1,8,0:0:0:0:
75,125,143373,22,0,P|43:86|50:37,1,102.000001945496,2|0,3:2|0:0,0:0:0:0:
121,20,143573,2,0,P|153:59|146:108,1,102.000001945496,2|0,3:2|0:0,0:0:0:0:
29,182,143773,2,0,P|74:163|118:185,1,102.000001945496,2|0,3:2|0:0,0:0:0:0:
266,353,143973,21,0,1:2:0:0:
266,353,144373,2,0,B|263:313|229:291|229:291|308:261|378:311|339:341|404:379|464:363,1,323.999990112305,2|0,3:2|0:0,0:0:0:0:
493,260,144773,2,0,P|369:290|170:365,1,323.999990112305,10|0,0:0|0:0,0:0:0:0:
105,344,145173,22,0,P|74:288|155:268,1,150,2|0,3:2|0:0,0:0:0:0:
275,5,145573,38,0,P|253:62|248:106,1,105,6|0,1:2|0:0,0:0:0:0:
317,147,146373,6,0,B|335:122|335:122|326:90,1,60,10|0,0:0|0:0,0:0:0:0:
127,79,146573,1,0,1:0:0:0:
434,52,146773,37,10,0:0:0:0:
81,165,146973,1,8,0:0:0:0:
461,384,147173,22,0,P|418:292|399:167,1,225,6|0,1:2|0:0,0:0:0:0:
403,159,147573,6,0,P|356:142|312:166,1,102.000001945496,2|0,3:2|0:0,0:0:0:0:
263,271,147773,2,0,P|246:214|155:236,1,153.000002918243,2|0,3:2|0:0,0:0:0:0:
162,231,147973,1,8,3:2:0:0:
47,0,148173,38,0,P|44:50|28:102,1,102.000001945496,2|0,3:2|0:0,0:0:0:0:
160,127,148373,2,0,P|140:80|128:30,1,102.000001945496,2|0,3:2|0:0,0:0:0:0:
220,65,148573,2,0,P|288:40|432:21,1,204.000003890991,2|0,3:2|3:0,0:0:0:0:
476,278,149173,6,0,B|469:266|479:236|490:237|504:213|496:180,1,102.000001945496,2|0,3:2|0:0,0:0:0:0:
365,241,149373,2,0,B|367:283|384:308|399:299|426:327|431:372,1,153.000002918243,2|0,3:2|0:0,0:0:0:0:
427,384,149573,1,8,0:0:0:0:
208,257,149773,38,0,P|166:290|120:293,1,102.000001945496,2|0,3:2|0:0,0:0:0:0:
103,120,149973,2,0,P|128:167|137:224,1,102.000001945496,2|0,3:2|0:0,0:0:0:0:
44,318,150173,2,0,P|82:367|135:370,1,102.000001945496,2|0,3:2|0:0,0:0:0:0:
327,375,150373,5,0,1:2:0:0:
327,375,150773,2,0,B|386:299|355:212|289:262|234:176|287:97|367:101|390:137|386:163,1,323.999990112305,2|0,3:2|0:0,0:0:0:0:
420,241,151173,2,0,P|252:216|93:202,1,323.999990112305,10|0,3:2|0:0,0:0:0:0:
14,113,151573,6,0,P|85:106|155:88,1,143.999995605469,0|0,3:0|0:0,0:0:0:0:
12,102,151973,2,0,P|83:95|153:77,1,143.999995605469,0|0,3:0|0:0,0:0:0:0:
368,0,152373,22,0,B|370:57|419:68|419:68|332:61|280:145|308:214,1,306.000005836487,2|0,1:2|0:0,0:0:0:0:
393,159,152773,2,0,P|246:176|62:176,1,323.999990112305,10|0,0:0|0:0,0:0:0:0:
40,247,153173,5,2,3:2:0:0:
38,257,153273,1,0,3:0:0:0:
112,353,153373,2,0,B|153:317|153:317|204:331,1,107.999996704102,8|0,0:0|0:0,0:0:0:0:
402,364,153573,38,0,P|434:241|385:130,1,225,6|0,1:2|0:0,0:0:0:0:
393,146,153973,6,0,P|447:156|477:127,1,102.000001945496,2|0,3:2|0:0,0:0:0:0:
372,60,154173,2,0,P|304:77|266:14,1,153.000002918243,2|0,3:2|0:0,0:0:0:0:
274,6,154373,1,8,3:2:0:0:
354,266,154573,38,0,P|307:250|255:259,1,102.000001945496,2|0,3:2|0:0,0:0:0:0:
181,294,154773,2,0,P|174:247|197:195,1,102.000001945496,2|0,3:2|0:0,0:0:0:0:
301,332,154973,2,0,P|416:319|436:243,1,204.000003890991,2|0,3:2|3:0,0:0:0:0:
500,39,155573,6,0,P|497:82|447:97,1,102.000001945496,2|0,3:2|0:0,0:0:0:0:
384,166,155773,2,0,P|304:158|294:92,1,153.000002918243,2|0,3:2|0:0,0:0:0:0:
298,88,155973,1,8,0:0:0:0:
48,134,156173,38,0,P|102:150|160:152,1,102.000001945496,2|0,3:2|0:0,0:0:0:0:
248,226,156373,2,0,P|192:233|131:252,1,102.000001945496,2|0,3:2|0:0,0:0:0:0:
137,49,156573,2,0,P|154:94|157:148,1,102.000001945496,2|0,3:2|0:0,0:0:0:0:
121,351,156773,22,0,P|162:348|203:338,1,72,10|0,1:2|0:0,0:0:0:0:
280,384,157173,22,0,P|310:314|317:248,1,135.000005149841,10|0,3:2|0:0,0:0:0:0:
465,197,157573,2,0,P|382:133|280:146,1,188.999994232178,10|0,3:2|0:0,0:0:0:0:
200,0,157973,2,0,P|126:157|167:217,1,251.999992309571,10|0,3:2|0:0,0:0:0:0:
249,268,158373,21,8,3:2:0:0:
225,152,158573,1,8,3:2:0:0:
148,320,158773,21,8,3:2:0:0:
349,348,158973,1,8,3:2:0:0:
370,115,159173,21,8,3:2:0:0:
448,358,159373,1,0,1:0:0:0:
467,39,159573,21,10,3:2:0:0:
72,164,159773,1,0,1:0:0:0:
334,343,159973,38,0,B|315:377|271:378|241:342|256:297|282:281|322:262|368:277|368:277|326:245|323:203|347:155|397:178|427:137|407:85|376:38|321:50|303:77|296:101|296:101|266:84|214:71|183:130|196:194|255:213|263:195|304:200|316:230,1,803.999961968996,6|2,1:2|0:0,0:0:0:0:
19,268,162573,37,0,0:0:0:0:
85,281,162773,1,0,0:0:0:0:
17,257,162973,1,0,0:0:0:0:
18,363,163173,6,0,P|110:309|176:304,2,160.799992393799,2|2|2,0:0|0:0|0:0,0:0:0:0:
304,167,164773,38,0,B|257:164|245:121|245:121|245:166|196:185,1,160.799992393799,2|2,0:0|0:0,0:0:0:0:
264,241,165573,5,0,0:0:0:0:
264,241,165773,1,0,0:0:0:0:
201,183,165973,37,0,0:0:0:0:
310,98,166173,1,0,0:0:0:0:
125,7,166373,6,0,P|143:49|148:88,2,80.3999961968996,2|0|2,0:3|0:0|0:0,0:0:0:0:
79,172,167173,38,0,B|85:120|32:98|-35:127|-15:235|68:246,1,241.199988590699,2|0,0:0|0:0,0:0:0:0:
168,357,167973,6,0,B|123:392|57:346|52:254|202:140|305:300|227:388|314:420|380:424|447:391|454:305|412:255|344:271|334:305,1,562.799973378297,2|0,0:2|0:0,0:0:0:0:
497,293,169573,38,0,P|461:260|459:222,1,80.3999961968996,2|2,0:0|0:0,0:0:0:0:
404,179,169973,2,0,P|425:103|502:90,1,160.799992393799,2|2,0:0|0:0,0:0:0:0:
278,241,171173,6,0,P|262:153|228:89,1,160.799992393799,2|2,0:3|0:3,0:0:0:0:
16,100,171973,38,0,P|55:91|95:86,1,80.3999961968996,2|0,0:3|0:0,0:0:0:0:
13,29,172373,2,0,P|54:20|94:15,1,80.3999961968996,2|0,0:3|0:0,0:0:0:0:
283,12,172773,21,2,0:3:0:0:
244,207,173173,1,2,0:3:0:0:
263,110,173573,22,0,B|211:101|171:125|187:153|141:175|96:157,1,160.799992393799,2|2,0:0|0:0,0:0:0:0:
388,229,174373,22,0,P|385:132|340:57,2,160.799992393799,2|2|2,0:0|0:0|0:0,0:0:0:0:
249,357,175573,2,0,B|186:368|156:276|249:187|342:303|280:342|339:360|389:363|428:339,1,321.599984787598,2|2,0:0|0:3,0:0:0:0:
496,172,176773,21,2,0:0:0:0:
275,204,177173,2,0,B|283:179|283:179|227:153|195:78|195:78|192:159|153:207|153:207|172:226,1,321.599984787598,2|0,0:0|0:0,0:0:0:0:
10,61,178373,22,0,P|49:53|91:49,1,80.3999961968996
7,139,178772,2,0,P|45:130|86:124,1,80.3999961968996,2|0,0:3|0:0,0:0:0:0:
233,293,179173,22,0,B|309:317|378:237|314:216|390:141|480:174,1,281.399986689149,2|0,0:0|0:0,0:0:0:0:
468,178,179973,2,0,P|383:159|374:94,1,160.799992393799,2|0,0:0|0:0,0:0:0:0:
346,338,180773,22,0,B|269:343|211:300|256:255|218:222|155:192|104:227|111:283,1,281.399986689149,2|0,0:0|0:0,0:0:0:0:
120,261,181573,22,0,P|81:253|39:249,1,80.3999961968996,2|0,0:0|0:0,0:0:0:0:
123,339,181973,2,0,P|85:330|43:324,1,80.3999961968996
113,137,182373,22,0,B|38:159|14:-5|194:30|127:101|201:119|248:105,1,281.399986689149,2|0,0:0|0:0,0:0:0:0:
253,98,183173,2,0,P|308:56|352:122,1,160.799992393799,2|0,0:0|0:0,0:0:0:0:
234,317,183973,22,0,P|279:202|385:265,1,281.399986689149,2|0,0:0|0:0,0:0:0:0:
382,279,184773,22,0,P|421:271|463:267,1,80.3999961968996,2|0,0:0|0:0,0:0:0:0:
379,357,185172,2,0,P|417:348|458:342,1,80.3999961968996
512,99,185573,21,4,3:2:0:0:
329,189,185973,1,2,0:3:0:0:
458,6,186373,6,0,P|426:84|417:168,1,153.000002918243,2|0,0:0|0:0,0:0:0:0:
409,160,186773,2,0,P|383:117|330:105,1,102.000001945496,2|0,0:0|0:0,0:0:0:0:
97,48,187173,38,0,P|148:42|194:16,1,102.000001945496,2|0,3:2|0:0,0:0:0:0:
157,209,187573,2,0,P|126:167|80:140,1,102.000001945496,2|0,0:0|0:0,0:0:0:0:
266,76,187973,2,0,P|245:123|245:176,1,102.000001945496,2|0,0:0|0:0,0:0:0:0:
331,324,188373,6,0,P|303:254|229:273,1,153.000002918243,2|0,0:0|0:0,0:0:0:0:
226,259,188773,38,0,B|229:285|219:301|219:301|143:308|68:356,1,204.000003890991,2|2,3:0|0:3,0:0:0:0:
1,116,189573,6,0,P|21:157|31:216,1,102.000001945496,2|0,0:0|0:0,0:0:0:0:
157,209,189973,2,0,P|173:138|212:67,1,153.000002918243,2|0,0:0|0:0,0:0:0:0:
208,56,190373,2,0,B|271:31|312:84|279:100|328:152|379:129,1,204.000003890991,0|2,0:0|0:0,0:0:0:0:
498,337,191173,38,0,P|448:350|402:371,1,102.000001945496
473,271,191573,2,0,P|426:284|373:308,1,102.000001945496,2|0,0:3|0:0,0:0:0:0:
209,306,191973,6,0,B|235:336|210:379|163:397|103:327|155:262,1,204.000003890991,2|2,3:2|0:3,0:0:0:0:
61,70,192773,2,0,B|35:40|60:-3|107:-21|167:49|115:114,1,204.000003890991,2|0,0:2|0:0,0:0:0:0:
0,254,193573,38,0,P|91:205|193:205,1,204.000003890991,2|0,3:2|0:0,0:0:0:0:
345,15,194373,6,0,P|334:56|325:119,1,102.000001945496,2|0,0:0|0:0,0:0:0:0:
412,25,194773,2,0,P|401:66|392:129,1,102.000001945496
455,303,195173,38,0,B|472:277|496:273|496:273|441:262|387:303|391:355,1,204.000003890991,2|2,3:2|0:3,0:0:0:0:
255,113,195973,2,0,B|247:82|226:70|226:70|282:79|318:136|297:183,1,204.000003890991,2|0,0:2|0:0,0:0:0:0:
39,361,196773,6,0,B|102:386|143:333|110:317|159:265|210:288,1,204.000003890991,2|0,0:0|0:0,0:0:0:0:
88,59,197573,38,0,P|99:100|108:163,1,102.000001945496,2|0,0:0|0:0,0:0:0:0:
21,71,197973,2,0,P|32:112|41:175,1,102.000001945496
189,377,198373,21,4,3:2:0:0:
237,179,198773,1,2,0:3:0:0:
344,341,199039,21,2,0:0:0:0:
358,330,199173,22,0,P|282:292|199:277,1,153.000002918243,2|0,0:0|0:0,0:0:0:0:
206,285,199573,2,0,P|260:286|308:233,1,102.000001945496,2|0,0:0|0:0,0:0:0:0:
325,115,199973,22,0,P|369:130|403:188,1,102.000001945496,2|0,3:2|0:0,0:0:0:0:
228,142,200373,2,0,P|234:67|293:21,1,153.000002918243,2|0,0:0|0:0,0:0:0:0:
307,26,200773,2,0,B|146:126|180:-27|51:-1|11:79|55:120,1,306.000005836487
122,226,201573,22,0,P|59:197|33:260,1,153.000002918243,0|0,3:0|0:0,0:0:0:0:
43,270,201973,1,2,0:0:0:0:
193,354,202173,22,0,B|249:370|297:327|252:296|307:257|369:273,1,204.000003890991,2|0,0:0|0:0,0:0:0:0:
369,281,202773,2,0,P|329:239|338:201,1,102.000001945496,2|0,0:0|0:0,0:0:0:0:
476,89,203173,22,0,B|564:96|550:203|415:273|436:85|365:81|305:116,1,306.000005836487,2|0,0:0|0:0,0:0:0:0:
404,0,203973,2,0,P|364:149|340:300,1,306.000005836487,2|0,0:0|0:0,0:0:0:0:
102,120,204773,22,0,P|178:121|252:138,1,153.000002918243,2|0,3:3|0:0,0:0:0:0:
260,150,205173,2,0,P|244:102|260:55,1,102.000001945496,2|0,0:0|0:0,0:0:0:0:
394,251,205573,22,0,B|347:244|318:271|340:296|299:321|259:309,1,153.000002918243,2|0,0:0|0:0,0:0:0:0:
257,300,205973,2,0,P|312:322|320:370,1,102.000001945496,2|0,0:0|0:0,0:0:0:0:
109,384,206373,22,0,P|101:292|62:221,1,153.000002918243,2|0,3:2|0:0,0:0:0:0:
64,227,206773,2,0,P|121:188|163:212,1,102.000001945496,2|0,0:0|0:0,0:0:0:0:
340,356,207173,22,0,P|389:342|439:337,1,102.000001945496,2|0,0:0|0:0,0:0:0:0:
328,285,207573,2,0,P|377:272|428:267,1,102.000001945496,2|0,0:3|0:0,0:0:0:0:
476,60,207973,21,2,3:3:0:0:
511,268,208373,1,2,0:3:0:0:
498,158,208773,22,0,B|438:177|389:142|402:106|349:66|295:97,1,215.999993408203,2|0,0:2|0:0,0:0:0:0:
205,210,209573,2,0,P|105:246|145:293,1,209.999993591309,2|0,0:0|0:0,0:0:0:0:
293,268,210773,22,0,P|302:212|331:158,1,96,2|0,0:0|0:0,1:0:0:0:
512,88,211173,5,4,3:2:0:0:
495,0,211373,1,0,0:0:0:0:
424,105,211573,1,0,0:0:0:0:
407,16,211773,1,0,0:0:0:0:
475,193,211973,38,0,P|436:129|326:133,1,180,2|0,0:0|0:0,0:0:0:0:
333,137,212373,2,0,P|331:183|265:208,1,120
45,374,212773,6,0,P|60:294|143:308,1,180,2|0,3:2|0:0,0:0:0:0:
144,318,213173,2,0,P|187:308|196:238,1,120
9,140,213573,38,0,P|56:149|119:166,1,107.999996704102,2|0,0:0|0:0,0:0:0:0:
27,72,213973,2,0,P|76:82|135:98,1,107.999996704102,2|0,0:0|0:0,0:0:0:0:
425,360,214373,5,0,3:0:0:0:
496,336,214573,1,0,0:0:0:0:
425,360,214773,1,0,0:0:0:0:
425,360,215173,38,0,P|396:291|276:304,1,180,2|0,0:0|0:0,0:0:0:0:
294,295,215573,2,0,P|332:309|401:262,1,120
512,62,215973,6,0,P|413:87|337:116,1,180,2|0,3:2|0:0,0:0:0:0:
331,124,216373,2,0,P|377:93|408:149,1,120
112,346,216773,38,0,P|160:355|215:373,1,107.999996704102,2|0,0:0|0:0,0:0:0:0:
130,276,217173,2,0,P|180:286|234:302,1,107.999996704102,2|0,0:0|0:0,0:0:0:0:
51,41,217573,5,0,3:0:0:0:
33,114,217773,1,0,0:0:0:0:
51,41,217973,1,0,0:0:0:0:
51,41,218373,38,0,B|99:18|144:59|118:79|159:116|210:96,1,180,2|0,0:2|0:0,0:0:0:0:
215,89,218773,2,0,P|194:132|190:208,1,120
77,286,219173,6,0,P|64:195|33:109,1,180,2|0,3:2|0:0,0:0:0:0:
23,115,219573,2,0,P|34:181|79:183,1,120,2|0,0:0|0:0,0:0:0:0:
212,379,219973,2,0,P|214:315|167:292,1,120,2|0,0:0|0:0,0:0:0:0:
233,73,220373,2,0,P|209:127|204:192,1,120,2|0,0:0|0:0,0:0:0:0:
445,363,220773,38,0,B|458:340|484:324|484:324|467:298|468:271,1,107.999996704102,0|0,3:0|0:0,0:0:0:0:
373,253,221173,2,0,B|360:276|334:292|334:292|351:318|350:345,1,107.999996704102
472,52,221573,6,0,P|512:83|492:134,1,107.999996704102
413,153,221973,2,0,P|373:122|393:71,1,107.999996704102
161,22,222373,38,0,P|189:88|204:205,1,180,2|0,3:2|0:0,0:0:0:0:
192,203,222773,2,0,P|156:155|195:94,1,120,2|0,0:0|0:0,0:0:0:0:
369,336,223173,6,0,P|332:261|253:295,1,180,2|0,3:2|0:0,0:0:0:0:
257,302,223573,2,0,P|202:312|190:369,1,120,2|0,0:0|0:0,0:0:0:0:
471,271,223973,5,4,3:2:0:0:
396,167,224173,1,0,0:0:0:0:
485,182,224373,1,0,0:0:0:0:
382,256,224573,1,0,0:0:0:0:
268,79,224773,22,0,B|223:73|182:98|205:139|156:170|108:149,1,188.999994232178,2|0,0:0|0:0,0:0:0:0:
105,137,225173,2,0,P|148:150|152:228,1,125.999996154785
27,362,225573,22,0,P|116:325|221:335,1,188.999994232178,2|0,3:2|0:0,0:0:0:0:
216,340,225973,2,0,P|259:330|287:254,1,125.999996154785
111,115,226373,22,0,P|157:103|221:92,1,113.999996955872,2|0,0:0|0:0,0:0:0:0:
98,46,226773,2,0,P|146:34|214:22,1,113.999996955872,2|0,0:0|0:0,0:0:0:0:
453,81,227173,21,0,3:0:0:0:
467,8,227373,1,0,0:0:0:0:
453,81,227573,1,0,0:0:0:0:
453,81,227973,22,0,P|444:172|367:151,1,188.999994232178,2|0,0:0|0:0,0:0:0:0:
368,143,228373,2,0,P|306:159|300:97,1,125.999996154785
472,301,228773,22,0,P|373:273|288:259,1,188.999994232178,2|0,3:2|0:0,0:0:0:0:
277,268,229173,2,0,P|332:292|353:242,1,125.999996154785
82,334,229573,22,0,P|78:285|66:218,1,113.999996955872,2|0,0:0|0:0,0:0:0:0:
154,323,229973,2,0,P|150:272|138:205,1,113.999996955872,2|0,0:0|0:0,0:0:0:0:
83,10,230373,21,0,3:0:0:0:
10,28,230573,1,0,0:0:0:0:
83,10,230773,1,0,0:0:0:0:
83,10,231173,22,0,P|109:70|237:74,1,188.999994232178,2|0,0:2|0:0,0:0:0:0:
230,71,231573,2,0,P|164:89|185:159,1,125.999996154785
386,224,231973,22,0,B|332:208|289:251|320:268|275:320|217:297,1,188.999994232178,2|0,3:2|0:0,0:0:0:0:
220,290,232373,2,0,P|209:224|148:222,1,125.999996154785,2|0,0:0|0:0,0:0:0:0:
30,343,232773,2,0,P|97:346|163:371,1,125.999996154785,2|0,0:0|0:0,0:0:0:0:
88,136,233173,2,0,P|55:184|61:259,1,125.999996154785,2|2,0:0|0:0,0:0:0:0:
362,342,233573,22,0,P|413:311|469:318,1,107.999996704102,0|2,3:0|0:0,0:0:0:0:
418,197,233973,2,0,P|374:226|321:224,1,107.999996704102,2|0,0:0|0:0,0:0:0:0:
212,17,234373,22,0,P|263:72|248:122,1,107.999996704102
167,153,234773,2,0,P|116:98|131:48,1,107.999996704102
356,108,235173,21,0,3:0:0:0:
256,192,235273,12,0,236673,0:0:0:0:
165,181,236773,5,6,3:2:0:0:
182,109,236973,1,0,0:0:0:0:
22,298,237173,37,2,0:0:0:0:
26,310,237373,1,0,0:0:0:0:
92,242,237573,5,0,0:0:0:0:
76,240,237773,1,0,0:0:0:0:
100,336,237973,37,0,0:0:0:0:
112,317,238173,1,0,0:0:0:0:
8,150,238373,5,2,0:2:0:0:
21,147,238573,1,0,0:0:0:0:
90,130,238773,37,0,0:0:0:0:
103,127,238973,1,0,0:0:0:0:
236,194,239173,5,2,0:0:0:0:
165,181,239373,1,0,0:0:0:0:
261,55,239573,37,2,0:0:0:0:
190,42,239773,1,0,0:0:0:0:
289,239,239973,5,2,0:0:0:0:
297,242,240173,1,0,0:0:0:0:
341,185,240373,37,0,0:0:0:0:
348,194,240573,1,0,0:0:0:0:
417,162,240773,5,0,0:0:0:0:
418,177,240973,1,0,0:0:0:0:
499,185,241173,37,0,0:0:0:0:
487,206,241373,1,0,0:0:0:0:
512,373,241573,5,2,0:0:0:0:
496,378,241773,1,0,0:0:0:0:
454,304,241973,37,0,0:0:0:0:
442,320,242173,1,0,0:0:0:0:
364,263,242373,5,0,0:0:0:0:
364,296,242573,1,0,0:0:0:0:
207,361,242773,37,2,0:0:0:0:
216,289,242973,1,0,0:0:0:0:
121,150,243173,5,2,0:0:0:0:
123,160,243373,1,0,0:0:0:0:
4,179,243573,37,2,0:0:0:0:
6,189,243773,1,0,0:0:0:0:
225,83,243973,5,2,0:0:0:0:
237,8,244173,1,0,0:0:0:0:
312,20,244373,37,0,0:0:0:0:
300,95,244573,1,0,0:0:0:0:
487,206,244773,5,2,0:0:0:0:
481,140,244973,1,0,0:0:0:0:
377,222,245173,37,2,0:0:0:0:
437,249,245373,1,0,0:0:0:0:
419,119,245573,5,2,0:0:0:0:
364,157,245773,1,0,0:0:0:0:
206,337,245973,37,2,0:0:0:0:
197,248,246173,1,0,0:0:0:0:
10,103,246373,5,2,0:0:0:0:
126,149,246573,1,2,0:0:0:0:
199,47,246773,37,2,0:0:0:0:
197,60,246973,1,0,0:0:0:0:
276,86,247173,5,0,0:0:0:0:
259,102,247373,1,0,0:0:0:0:
320,167,247573,37,0,0:0:0:0:
292,174,247773,1,0,0:0:0:0:
199,348,247973,5,2,0:0:0:0:
197,362,248173,1,0,0:0:0:0:
135,264,248373,37,2,0:0:0:0:
142,284,248573,1,0,0:0:0:0:
54,144,248773,5,2,0:0:0:0:
110,185,248973,1,0,0:0:0:0:
0,46,249173,37,2,0:0:0:0:
125,4,249373,1,0,0:0:0:0:
29,237,249573,21,10,3:2:0:0:
225,251,249773,1,0,3:0:0:0:
223,261,249873,1,0,3:0:0:0:
153,358,249973,22,0,B|191:376|230:335|205:319|236:278|285:288,1,161.999995056153,10|0,1:2|0:0,0:0:0:0:
512,351,250373,22,0,P|478:266|474:167,1,188.999994232178,10|0,0:0|0:0,0:0:0:0:
483,161,250773,2,0,P|502:131|499:95,1,62.9999980773926,8|0,0:0|0:0,0:0:0:0:
305,131,250973,21,0,3:0:0:0:
315,129,251073,1,0,3:0:0:0:
383,73,251173,22,0,P|274:83|246:18,1,188.999994232178,10|0,1:2|0:0,0:0:0:0:
0,158,251573,22,0,P|76:158|164:192,1,161.999995056153,8|0,0:0|0:0,0:0:0:0:
305,282,251973,22,0,P|277:342|185:362,1,161.999995056153,10|0,0:0|0:0,0:0:0:0:
45,265,252373,2,0,L|35:294,6,26.9999991760254,10|0|0|0|0|0|0,0:0|0:0|0:0|0:0|0:0|0:0|0:0,0:0:0:0:
105,83,252773,21,8,3:2:0:0:
199,248,252973,1,0,3:0:0:0:
208,245,253073,1,0,3:0:0:0:
316,200,253173,22,0,P|263:202|229:305,1,161.999995056153,8|0,1:2|0:0,0:0:0:0:
495,368,253573,22,0,P|463:214|426:187,1,188.999994232178,10|0,0:0|0:0,0:0:0:0:
432,205,253973,2,0,P|445:248|460:255,1,62.9999980773926,8|0,0:0|0:0,0:0:0:0:
481,60,254173,21,0,3:0:0:0:
469,61,254273,1,0,3:0:0:0:
369,124,254373,21,10,1:2:0:0:
237,33,254573,1,0,0:0:0:0:
103,205,254773,1,8,0:0:0:0:
248,248,254973,1,0,1:0:0:0:
21,224,255173,22,0,B|70:208|102:245|80:262|126:284|167:271,1,161.999995056153,10|0,0:0|0:0,0:0:0:0:
325,212,255573,2,0,L|334:169,6,26.9999991760254,10|0|0|0|0|0|0,0:0|0:0|0:0|0:0|0:0|0:0|0:0,0:0:0:0:
288,381,255973,21,8,1:2:0:0:
178,366,256173,1,0,0:0:0:0:
108,165,256373,21,8,1:2:0:0:
268,114,256573,1,0,0:0:0:0:
494,382,256773,22,0,P|427:291|433:202,1,188.999994232178,10|0,1:2|0:0,0:0:0:0:
437,209,257173,2,0,P|421:253|349:274,1,125.999996154785,8|0,1:2|0:0,0:0:0:0:
160,13,257573,22,0,B|110:6|56:47|101:71|56:115|0:95,1,188.999994232178,10|0,1:2|0:0,0:0:0:0:
0,88,257973,2,0,P|71:79|109:133,1,125.999996154785,10|0,1:2|0:0,0:0:0:0:
71,384,258373,22,0,P|26:343|21:273,1,125.999996154785,10|0,1:2|0:0,0:0:0:0:
165,203,258773,2,0,P|209:243|214:313,1,125.999996154785,10|2,1:2|0:0,0:0:0:0:
52,177,259173,21,0,1:2:0:0:
172,384,259373,1,2,1:2:0:0:
360,230,259573,21,2,1:2:0:0:
71,299,259773,1,0,1:2:0:0:
411,360,259973,21,0,1:2:0:0:
493,22,260173,1,0,1:2:0:0:
304,116,260373,21,0,1:0:0:0:
208,57,260473,1,0,1:0:0:0:
227,136,260573,21,0,1:0:0:0:
284,39,260673,1,0,1:0:0:0:
256,384,262373,22,0,P|281:335|320:337,1,90,6|0,1:2|0:0,0:0:0:0:
323,327,262773,6,0,P|350:339|365:340,1,35.9999989013672,2|0,0:3|0:0,0:0:0:0:
454,247,262973,2,0,P|394:256|371:262,2,71.9999978027344,2|0|0,0:3|0:0|0:0,0:0:0:0:
321,190,263573,38,0,P|337:155|344:142,1,48,2|0,0:3|0:0,0:0:0:0:
239,50,263773,2,0,P|255:92|257:105,1,48,2|0,0:3|0:0,0:0:0:0:
200,206,263973,6,0,P|155:162|97:133,1,120,8|0,0:0|0:0,0:0:0:0:
1,361,264373,2,0,P|47:288|110:294,1,150,10|0,0:0|0:0,0:0:0:0:
281,368,264773,38,0,P|285:334|292:299,1,60,10|0,1:2|0:0,0:0:0:0:
200,206,264973,1,0,1:0:0:0:
408,180,265173,5,10,0:0:0:0:
102,290,265373,1,0,1:0:0:0:
243,30,265573,22,0,B|229:-13|284:-58|364:-27|362:79|280:155|237:62|175:142|203:217,1,360,6|0,1:2|0:0,0:0:0:0:
329,242,265973,2,0,B|363:156|289:80|235:157|146:90|168:12,1,323.999990112305,2|0,3:2|0:0,3:2:0:0:
56,161,266373,22,0,P|216:111|389:81,1,341.999990867615,8|0,3:2|0:0,0:0:0:0:
466,127,266773,38,0,P|526:80|482:24,1,143.999995605469,0|0,3:0|0:0,0:0:0:0:
470,135,267173,2,0,P|530:88|496:23,1,143.999995605469,0|0,3:0|0:0,0:0:0:0:
295,95,267573,6,0,B|291:108|291:108|338:138|364:219|364:219|366:132|403:90|403:90|387:81,1,306.000005836487,2|0,1:2|0:0,0:0:0:0:
281,20,267973,2,0,P|221:187|176:365,1,341.999990867615,10|0,3:2|0:0,0:0:0:0:
110,364,268373,21,2,3:2:0:0:
108,354,268473,1,0,3:0:0:0:
260,370,268573,2,0,B|276:315|276:315|232:280,1,107.999996704102,8|0,0:0|0:0,0:0:0:0:
27,153,268773,22,0,P|150:176|297:222,1,270.000010299683,6|0,1:2|0:0,0:0:0:0:
358,182,269173,22,0,P|341:124|304:74,1,110.999999576569,2|0,3:2|0:0,0:0:0:0:
475,33,269373,2,0,B|485:3|458:-20|418:-22|380:24|426:89,1,166.499999364853,2|0,3:2|0:0,0:0:0:0:
427,86,269573,1,8,3:2:0:0:
434,361,269773,22,0,B|441:301|476:325|496:270,1,110.999999576569,2|0,3:2|0:0,0:0:0:0:
358,182,269973,2,0,P|401:190|427:247,1,110.999999576569,2|0,3:2|0:0,0:0:0:0:
361,369,270173,2,0,B|365:292|297:269|289:306|224:295|215:227,1,221.999999153137,2|0,3:2|0:0,0:0:0:0:
433,174,270573,21,8,1:3:0:0:
16,81,270773,2,0,P|45:73|100:140,1,110.999999576569,8|0,1:3|0:0,0:0:0:0:
223,46,270973,2,0,B|233:16|206:-7|166:-9|128:37|174:102,1,166.499999364853,2|0,3:2|0:0,0:0:0:0:
176,99,271173,2,0,P|276:51|385:58,1,221.999999153137,8|0,3:2|0:0,0:0:0:0:
433,174,271573,22,0,P|390:210|396:264,1,110.999999576569,2|0,3:2|0:0,0:0:0:0:
512,364,271773,2,0,P|503:307|451:293,1,110.999999576569,2|0,3:2|0:0,0:0:0:0:
132,355,271973,21,0,1:2:0:0:
132,355,272373,2,0,B|129:315|95:293|95:293|174:263|244:313|205:343|270:381|330:365,1,323.999990112305,2|0,3:2|0:0,0:0:0:0:
359,262,272773,2,0,P|235:292|36:367,1,323.999990112305,10|0,0:0|0:0,0:0:0:0:
7,302,273173,22,0,P|-24:246|57:226,1,150,2|0,3:2|0:0,0:0:0:0:
303,60,273573,38,0,B|249:59|268:8|211:6,1,105,6|0,1:2|0:0,0:0:0:0:
197,73,274373,6,0,P|171:121|225:136,1,120,2|0,3:2|0:0,0:0:0:0:
421,103,274773,38,0,P|392:99|359:107,1,60,10|0,3:2|0:0,0:0:0:0:
38,213,274973,2,0,P|60:192|87:180,1,60,8|0,3:2|0:0,0:0:0:0:
332,384,275173,22,0,P|375:292|394:167,1,225,6|0,1:2|0:0,0:0:0:0:
380,177,275573,6,0,P|330:176|296:139,1,102.000001945496,2|0,3:2|0:0,0:0:0:0:
148,251,275773,2,0,P|197:283|253:208,1,153.000002918243,2|0,3:2|0:0,0:0:0:0:
251,216,275973,1,8,0:0:0:0:
33,27,276173,38,0,B|6:81|50:81|14:129,1,102.000001945496,2|0,3:2|0:0,0:0:0:0:
181,158,276373,2,0,B|135:124|172:98|138:62,1,102.000001945496,2|0,3:2|0:0,0:0:0:0:
76,170,276573,2,0,P|141:139|283:107,1,204.000003890991,2|0,3:2|3:0,0:0:0:0:
483,146,276973,5,8,1:3:0:0:
263,379,277173,2,0,B|272:316|239:281,1,102.000001945496,8|0,1:3|0:0,0:0:0:0:
31,372,277373,2,0,B|145:394|191:331,1,153.000002918243,2|0,3:2|0:0,0:0:0:0:
174,334,277573,1,8,0:0:0:0:
374,73,277773,38,0,P|381:125|361:167,1,102.000001945496,2|0,3:2|0:0,0:0:0:0:
477,248,277973,2,0,P|426:244|376:257,1,102.000001945496,2|0,3:2|0:0,0:0:0:0:
293,292,278173,2,0,P|331:341|384:344,1,102.000001945496,2|0,3:2|0:0,0:0:0:0:
122,77,278373,6,0,B|143:22|50:-8|-8:37|-9:140|53:222|129:109|155:221|132:268,1,360,0|0,1:2|0:0,0:0:0:0:
201,85,278773,2,0,B|188:27|286:13|336:69|320:170|243:240|187:116|142:222|156:272,1,360,2|0,3:2|0:0,0:0:0:0:
13,257,279173,38,0,P|173:206|346:176,1,341.999990867615,8|0,3:2|0:0,0:0:0:0:
465,323,279573,22,0,P|418:383|362:339,1,143.999995605469,0|0,3:0|0:0,0:0:0:0:
473,327,279973,2,0,P|426:387|361:353,1,143.999995605469,0|0,3:0|0:0,0:0:0:0:
507,75,280373,22,0,B|462:100|473:153|473:153|436:74|337:71|295:124,1,306.000005836487,2|0,1:2|0:0,0:0:0:0:
334,0,280773,2,0,P|385:164|415:333,1,341.999990867615,10|0,3:2|0:0,0:0:0:0:
267,327,281173,5,2,3:2:0:0:
269,317,281273,1,0,3:0:0:0:
374,240,281373,2,0,B|342:200|342:200|287:216,1,107.999996704102,8|0,0:0|0:0,0:0:0:0:
21,351,281573,38,0,P|44:228|90:81,1,270.000010299683,6|0,1:2|0:0,0:0:0:0:
386,114,281973,6,0,P|325:107|270:79,1,110.999999576569,2|0,3:2|0:0,0:0:0:0:
132,192,282173,2,0,P|183:219|219:130,1,166.499999364853,2|0,3:2|0:0,0:0:0:0:
216,136,282373,1,8,0:0:0:0:
264,336,282573,38,0,B|324:339|306:300|364:290,1,110.999999576569,2|0,3:2|0:0,0:0:0:0:
484,332,282773,2,0,B|423:296|481:285|413:222,1,110.999999576569,2|0,3:2|0:0,0:0:0:0:
343,181,282973,2,0,P|365:113|461:145,1,166.499999364853,2|0,3:2|0:0,0:0:0:0:
448,133,283173,6,0,B|389:137|332:111|358:63|308:25|247:35,1,221.999999153137,2|8,3:2|1:3,0:0:0:0:
100,354,283573,38,0,P|152:350|179:293,1,110.999999576569,8|0,1:3|0:0,0:0:0:0:
293,239,283773,2,0,P|213:222|203:183,1,110.999999576569,2|0,3:2|0:0,0:0:0:0:
47,146,283973,6,0,P|159:134|284:103,1,221.999999153137,8|0,3:2|0:0,0:0:0:0:
389,377,284373,38,0,P|398:317|422:274,1,110.999999576569,2|0,3:2|0:0,0:0:0:0:
311,340,284573,2,0,P|255:315|205:310,1,110.999999576569,2|0,3:2|0:0,0:0:0:0:
22,353,284773,5,2,1:2:0:0:
22,353,285173,38,0,B|2:259|98:228|117:248|136:266|254:229|216:119,1,323.999990112305,2|0,3:2|0:0,0:0:0:0:
112,4,285573,2,0,P|131:130|188:334,1,323.999990112305,10|0,3:2|0:0,0:0:0:0:
388,190,285973,6,0,P|444:159|464:240,1,150,2|0,3:2|0:0,0:0:0:0:
372,269,286373,6,0,B|318:261|333:223|279:222,1,105,6|0,1:2|0:0,0:0:0:0:
199,360,287173,22,0,P|253:352|272:294,1,120,2|0,0:0|0:0,0:0:0:0:
182,255,287573,22,0,P|175:220|158:192,2,45.0000017166138,2|2|2,0:3|0:3|0:3,0:0:0:0:
351,126,287973,6,0,B|401:138|438:110|415:82|464:48|514:65,2,180.000006866455,6|2|2,1:2|0:3|0:3,0:0:0:0:
351,126,289573,6,0,P|340:89|329:47,3,71.9999978027344,2|0|0|0,0:3|0:0|0:0|0:0,0:0:0:0:
276,168,290373,1,0,0:0:0:0:
205,18,290573,2,0,P|177:24|146:60,2,71.9999978027344
307,201,291173,38,0,P|275:123|235:189,2,180.000006866455,0|2|2,3:0|0:3|0:3,0:0:0:0:
307,201,292773,6,0,P|275:226|268:267,3,71.9999978027344,2|0|0|0,0:3|0:0|0:0|0:0,0:0:0:0:
410,279,293573,2,0,P|374:270|315:264,1,71.9999978027344
443,116,293973,1,2,0:3:0:0:
208,345,294373,38,0,P|153:278|68:297,2,180.000006866455,0|2|2,3:0|0:3|0:3,0:0:0:0:
208,345,295973,6,0,P|197:307|197:264,3,71.9999978027344,2|0|0|0,0:3|0:0|0:0|0:0,0:0:0:0:
273,377,296773,1,0,0:0:0:0:
339,265,296973,2,0,P|383:274|416:285,2,71.9999978027344
151,137,297573,38,0,B|246:140|208:56|307:58,2,180.000006866455,0|2|2,3:0|0:3|0:3,0:0:0:0:
496,368,299173,1,4,0:2:0:0:
256,192,299273,12,0,302373,0:0:0:0:
