osu file format v14

[General]
AudioFilename: audio.mp3
AudioLeadIn: 0
PreviewTime: -1
Countdown: 1
SampleSet: Normal
StackLeniency: 0.7
Mode: 2
LetterboxInBreaks: 0
WidescreenStoryboard: 0

[Editor]
Bookmarks: 738
DistanceSpacing: 0.8
BeatDivisor: 6
GridSize: 32
TimelineZoom: 1

[Metadata]
Title:Tribute
TitleUnicode:Tribute
Artist:MitiS & MaHi
ArtistUnicode:MitiS & MaHi
Creator:ponaar
Version:Forest
Source:
Tags:MitiS MaHi Tribute chillstep
BeatmapID:986616
BeatmapSetID:460649

[Difficulty]
HPDrainRate:6
CircleSize:4
OverallDifficulty:9.3
ApproachRate:9.3
SliderMultiplier:1.4
SliderTickRate:1

[Events]
//Background and Video events
0,0,"maxresdefault.jpg",0,0
//Break Periods
//Storyboard Layer 0 (Background)
//Storyboard Layer 1 (Fail)
//Storyboard Layer 2 (Pass)
//Storyboard Layer 3 (Foreground)
//Storyboard Sound Samples

[TimingPoints]
117335.754569548,344.827586206897,4,1,0,100,1,0

[HitObjects]
96,320,66306,5,0,0:0:0:0:
192,256,66988,1,0,0:0:0:0:
288,192,67670,1,0,0:0:0:0:
192,128,68352,1,0,0:0:0:0:
96,32,69034,1,0,0:0:0:0:
128,320,69715,2,0,L|128:224,1,70
419,321,70397,2,0,L|419:225,1,70
256,121,71079,2,0,L|256:25,1,70
416,256,71449,1,0,0:0:0:0:
463,289,71534,5,0,0:0:0:0:
416,320,71619,1,0,0:0:0:0:
96,320,71818,1,0,0:0:0:0:
224,224,72500,1,0,0:0:0:0:
352,128,73181,1,0,0:0:0:0:
480,32,73863,1,0,0:0:0:0:
96,160,74573,2,0,P|128:192|160:192,1,70
416,160,74914,2,0,P|392:200|352:224,1,70
320,288,75227,1,0,0:0:0:0:
160,160,75909,2,0,P|128:192|96:192,1,70
352,160,76278,6,0,P|392:200|416:192,1,70
416,256,76534,2,0,P|416:352|320:352,1,210
32,352,77272,1,0,0:0:0:0:
448,352,77613,1,0,0:0:0:0:
128,320,77954,5,0,0:0:0:0:
128,256,78125,1,0,0:0:0:0:
448,256,78352,1,0,0:0:0:0:
352,320,78693,5,0,0:0:0:0:
224,320,79034,1,0,0:0:0:0:
128,320,79375,5,0,0:0:0:0:
128,256,79546,1,0,0:0:0:0:
448,256,79715,1,0,0:0:0:0:
480,320,80056,5,0,0:0:0:0:
64,64,80397,1,0,0:0:0:0:
128,320,80738,5,0,0:0:0:0:
96,288,80909,1,0,0:0:0:0:
128,256,81078,1,0,0:0:0:0:
416,288,81250,2,0,P|416:224|384:192,1,93.3333333333333
32,320,81761,1,0,0:0:0:0:
288,320,82159,5,0,0:0:0:0:
256,288,82330,1,0,0:0:0:0:
448,256,82499,1,0,0:0:0:0:
64,288,82840,5,0,0:0:0:0:
32,256,83011,1,0,0:0:0:0:
64,224,83181,1,0,0:0:0:0:
32,192,83352,1,0,0:0:0:0:
64,160,83522,1,0,0:0:0:0:
448,288,83693,5,0,0:0:0:0:
480,256,83863,1,0,0:0:0:0:
416,256,84033,1,0,0:0:0:0:
448,224,84204,1,0,0:0:0:0:
416,192,84375,1,0,0:0:0:0:
480,192,84545,1,0,0:0:0:0:
96,288,84715,5,0,0:0:0:0:
160,224,84885,1,0,0:0:0:0:
32,224,85055,1,0,0:0:0:0:
96,160,85226,1,0,0:0:0:0:
32,96,85397,1,0,0:0:0:0:
160,96,85567,1,0,0:0:0:0:
384,320,85738,5,0,0:0:0:0:
480,224,85908,1,0,0:0:0:0:
288,224,86078,1,0,0:0:0:0:
384,160,86249,1,0,0:0:0:0:
224,96,86420,1,0,0:0:0:0:
512,96,86590,1,0,0:0:0:0:
128,256,86988,2,0,L|192:160,1,93.3333333333333
384,256,87329,2,0,L|320:160,1,93.3333333333333
128,256,87670,2,0,L|32:160,1,116.666666666667
384,256,88011,2,0,L|480:160,2,116.666666666667
0,320,88693,5,0,0:0:0:0:
