osu file format v14

[General]
AudioFilename: audio.mp3
AudioLeadIn: 0
PreviewTime: 61870
Countdown: 0
SampleSet: Soft
StackLeniency: 0.3
Mode: 0
LetterboxInBreaks: 0
WidescreenStoryboard: 0

[Editor]
Bookmarks: 12967,22763,32559,42355,52151,62559,72354,82150,91946,101742,111538,121334,131130,140926,150722,160518,170314,170467,170620,170773,170849,171002,171155,171309,171462,171615,171768,171921,172150,172303,172380,172533,172686,172839,172992,173145,173298,173451,173528,173681,173834,173987,174140,174217,174370,174523,174676,174829,174905,175059,175212,175365,175518,175671,175824,175977,176130,176206,176360,176589,176742,176895,177048,177201,177354,177507,177584,177661,191130,200926,208885
DistanceSpacing: 1.2
BeatDivisor: 4
GridSize: 32
TimelineZoom: 3.499999

[Metadata]
Title:Yoru o Koeru Ashioto
TitleUnicode:夜を越える足音
Artist:Mitei no Hanashi
ArtistUnicode:ミテイノハナシ
Creator:Ascended
Version:Journey
Source:ピーチボーイリバーサイド
Tags:wo footsteps beyond the night arronchu1207 AirinCat Haruto Haruto_Aizawa Kyouren gokugohan12468 KittyAdventure jrock j-rock japanese peach boy riverside anime ed ending Aru.
BeatmapID:4134924
BeatmapSetID:1990332

[Difficulty]
HPDrainRate:6
CircleSize:4.2
OverallDifficulty:9
ApproachRate:9.3
SliderMultiplier:2
SliderTickRate:1

[Events]
//Background and Video events
0,0,"there are no good backgrounds.jpg",0,0
//Break Periods
2,170514,177107
//Storyboard Layer 0 (Background)
//Storyboard Layer 1 (Fail)
//Storyboard Layer 2 (Pass)
//Storyboard Layer 3 (Foreground)
//Storyboard Layer 4 (Overlay)
//Storyboard Sound Samples

[TimingPoints]
1637,315.789473684211,4,2,1,40,1,0
1637,-250,4,2,1,40,0,0
4163,-333.333333333333,4,2,1,40,0,0
5426,-250,4,2,1,40,0,0
11742,-250,4,2,1,60,0,0
11743,306.122448979592,4,2,1,60,1,0
12661,-500,4,2,1,60,0,0
12890,-500,4,2,1,5,0,0
12967,-111.111111111111,4,2,1,70,0,0
13196,-111.111111111111,4,2,1,5,0,0
13273,-111.111111111111,4,2,1,70,0,0
15645,-111.111111111111,4,2,1,5,0,0
15722,-111.111111111111,4,2,1,70,0,0
18094,-111.111111111111,4,2,1,5,0,0
18171,-111.111111111111,4,2,1,70,0,0
20543,-111.111111111111,4,2,1,5,0,0
20620,-111.111111111111,4,2,1,70,0,0
21845,-166.666666666667,4,2,1,70,0,0
22763,-166.666666666667,4,2,1,50,0,0
23987,-142.857142857143,4,2,1,50,0,0
24906,-166.666666666667,4,2,1,50,0,0
26436,-142.857142857143,4,2,1,50,0,0
27355,-166.666666666667,4,2,1,50,0,0
27814,-142.857142857143,4,2,1,50,0,0
28885,-125,4,2,1,50,0,0
30110,-142.857142857143,4,2,1,50,0,0
30339,-142.857142857143,4,2,1,5,0,0
30416,-142.857142857143,4,2,1,50,0,0
31334,-200,4,2,1,50,0,0
32253,-133.333333333333,4,2,1,50,0,0
32559,-133.333333333333,4,2,1,60,0,0
42355,-133.333333333333,4,2,1,55,0,0
42967,-200,4,2,1,55,0,0
45722,-133.333333333333,4,2,1,55,0,0
45951,-133.333333333333,4,2,1,5,0,0
46028,-133.333333333333,4,2,1,55,0,0
47865,-200,4,2,1,55,0,0
50161,-133.333333333333,4,2,1,55,0,0
50926,-100,4,2,1,55,0,0
51155,-100,4,2,1,5,0,0
51232,-100,4,2,1,55,0,0
51614,-100,4,2,1,5,0,0
51691,-100,4,2,1,55,0,0
52074,-100,4,2,1,5,0,0
52151,-166.666666666667,4,2,1,50,0,0
56130,-133.333333333333,4,2,1,50,0,0
56359,-133.333333333333,4,2,1,5,0,0
56436,-133.333333333333,4,2,1,55,0,0
57049,-111.111111111111,4,2,1,60,0,0
57278,-111.111111111111,4,2,1,5,0,0
57355,-111.111111111111,4,2,1,60,0,0
57508,-133.333333333333,4,2,1,60,0,0
59191,-166.666666666667,4,2,1,60,0,0
59420,-166.666666666667,4,2,1,5,0,0
59498,-111.111111111111,4,2,1,70,0,0
60033,-111.111111111111,4,2,1,5,0,0
60416,-111.111111111111,4,2,1,70,0,0
60492,-111.111111111111,4,2,1,5,0,0
60722,-111.111111111111,4,2,1,70,0,0
60798,-111.111111111111,4,2,1,5,0,0
60875,-111.111111111111,4,2,1,70,0,0
60951,-111.111111111111,4,2,1,5,0,0
61028,-66.6666666666667,4,2,1,70,0,0
61104,-66.6666666666667,4,2,1,5,0,0
61181,-66.6666666666667,4,2,1,70,0,0
61257,-66.6666666666667,4,2,1,5,0,0
61334,-66.6666666666667,4,2,1,60,0,0
61947,-66.6666666666667,4,2,1,65,0,0
62253,-200,4,2,1,70,0,0
62482,-200,4,2,1,5,0,0
62559,306.122448979592,4,2,1,80,1,1
62865,-83.3333333333333,4,2,1,80,0,1
63094,-83.3333333333333,4,2,1,5,0,1
63171,-133.333333333333,4,2,1,80,0,1
63783,-125,4,2,1,80,0,1
64089,-83.3333333333333,4,2,1,80,0,1
64318,-83.3333333333333,4,2,1,5,0,1
64395,-111.111111111111,4,2,1,80,0,1
64701,-100,4,2,1,80,0,1
65926,-83.3333333333333,4,2,1,80,0,1
66155,-83.3333333333333,4,2,1,5,0,1
66232,-100,4,2,1,80,0,1
66844,-90.9090909090909,4,2,1,80,0,1
67073,-90.9090909090909,4,2,1,5,0,1
67150,-100,4,2,1,80,0,1
68375,-90.9090909090909,4,2,1,80,0,1
68681,-83.3333333333333,4,2,1,80,0,1
68910,-83.3333333333333,4,2,1,5,0,1
68987,-100,4,2,1,80,0,1
72048,-83.3333333333333,4,2,1,80,0,1
72277,-83.3333333333333,4,2,1,5,0,1
72354,-83.3333333333333,4,2,1,80,0,1
72583,-83.3333333333333,4,2,1,5,0,1
72661,-125,4,2,1,80,0,1
72967,-100,4,2,1,80,0,1
73196,-100,4,2,1,5,0,1
73273,-125,4,2,1,80,0,1
73885,-83.3333333333333,4,2,1,80,0,1
74497,-100,4,2,1,80,0,1
75032,-100,4,2,1,5,0,1
75110,-100,4,2,1,80,0,1
75186,-100,4,2,1,5,0,1
75263,-100,4,2,1,80,0,1
75416,-83.3333333333333,4,2,1,80,0,1
75645,-83.3333333333333,4,2,1,5,0,1
75722,-125,4,2,1,80,0,1
76257,-125,4,2,1,5,0,1
76334,-125,4,2,1,80,0,1
77022,-125,4,2,1,5,0,1
77099,-83.3333333333333,4,2,1,80,0,1
77559,-100,4,2,1,80,0,1
78094,-100,4,2,1,5,0,1
78171,-100,4,2,1,80,0,1
78706,-100,4,2,1,5,0,1
78783,-125,4,2,1,80,0,1
79089,-100,4,2,1,80,0,1
79395,-125,4,2,1,80,0,1
82073,-125,4,2,1,5,0,1
82150,-111.111111111111,4,2,1,70,0,0
82379,-111.111111111111,4,2,1,5,0,0
82456,-111.111111111111,4,2,1,70,0,0
84828,-111.111111111111,4,2,1,5,0,0
84905,-111.111111111111,4,2,1,70,0,0
87277,-111.111111111111,4,2,1,5,0,0
87354,-111.111111111111,4,2,1,70,0,0
89726,-111.111111111111,4,2,1,5,0,0
89803,-111.111111111111,4,2,1,70,0,0
89956,-76.9230769230769,4,2,1,70,0,0
90185,-76.9230769230769,4,2,1,5,0,0
90262,-76.9230769230769,4,2,1,70,0,0
90416,-100,4,2,1,70,0,0
90492,-100,4,2,1,5,0,0
90722,-100,4,2,1,70,0,0
90798,-100,4,2,1,5,0,0
90875,-100,4,2,1,70,0,0
91946,-100,4,2,1,50,0,0
92559,-166.666666666667,4,2,1,50,0,0
93171,-133.333333333333,4,2,1,50,0,0
95620,-166.666666666667,4,2,1,50,0,0
98069,-133.333333333333,4,2,1,50,0,0
99369,-133.333333333333,4,2,1,5,0,0
99446,-133.333333333333,4,2,1,50,0,0
99981,-133.333333333333,4,2,1,5,0,0
100058,-133.333333333333,4,2,1,50,0,0
101512,-133.333333333333,4,2,1,5,0,0
101589,-133.333333333333,4,2,1,50,0,0
101665,-133.333333333333,4,2,1,5,0,0
101742,-133.333333333333,4,2,1,60,0,0
102890,-133.333333333333,4,2,1,5,0,0
102967,-133.333333333333,4,2,1,60,0,0
103808,-133.333333333333,4,2,1,5,0,0
103885,-133.333333333333,4,2,1,60,0,0
105339,-133.333333333333,4,2,1,5,0,0
105416,-133.333333333333,4,2,1,60,0,0
107788,-133.333333333333,4,2,1,5,0,0
107865,-133.333333333333,4,2,1,60,0,0
108706,-133.333333333333,4,2,1,5,0,0
108783,-133.333333333333,4,2,1,60,0,0
110236,-133.333333333333,4,2,1,5,0,0
110314,-133.333333333333,4,2,1,60,0,0
111232,-100,4,2,1,60,0,0
111461,-100,4,2,1,5,0,0
111538,-133.333333333333,4,2,1,55,0,0
114216,-133.333333333333,4,2,1,5,0,0
114293,-133.333333333333,4,2,1,55,0,0
116206,-133.333333333333,4,2,1,5,0,0
116436,-133.333333333333,4,2,1,60,0,0
116895,-111.111111111111,4,2,1,60,0,0
117661,-133.333333333333,4,2,1,60,0,0
118273,-111.111111111111,4,2,1,60,0,0
118579,-133.333333333333,4,2,1,60,0,0
118808,-133.333333333333,4,2,1,5,0,0
118885,-111.111111111111,4,2,1,70,0,0
118961,-111.111111111111,4,2,1,5,0,0
119344,-111.111111111111,4,2,1,70,0,0
119420,-111.111111111111,4,2,1,5,0,0
119803,-111.111111111111,4,2,1,70,0,0
119879,-111.111111111111,4,2,1,5,0,0
120110,-66.6666666666667,4,2,1,70,0,0
120186,-66.6666666666667,4,2,1,5,0,0
120263,-66.6666666666667,4,2,1,70,0,0
120339,-66.6666666666667,4,2,1,5,0,0
120416,-66.6666666666667,4,2,1,70,0,0
120492,-66.6666666666667,4,2,1,5,0,0
120569,-66.6666666666667,4,2,1,70,0,0
120645,-66.6666666666667,4,2,1,5,0,0
120722,-66.6666666666667,4,2,1,60,0,0
121028,-200,4,2,1,60,0,0
121257,-200,4,2,1,5,0,0
121332,-200,4,2,1,80,0,1
121334,-100,4,2,1,80,0,1
121640,-83.3333333333333,4,2,1,80,0,1
121869,-83.3333333333333,4,2,1,5,0,1
121946,-83.3333333333333,4,2,1,80,0,1
122405,-125,4,2,1,80,0,1
122865,-83.3333333333333,4,2,1,80,0,1
123477,-100,4,2,1,80,0,1
123706,-100,4,2,1,5,0,1
123783,-100,4,2,1,80,0,1
124701,-83.3333333333333,4,2,1,80,0,1
124930,-83.3333333333333,4,2,1,5,0,1
125007,-100,4,2,1,80,0,1
125620,-90.9090909090909,4,2,1,80,0,1
125849,-90.9090909090909,4,2,1,5,0,1
125926,-100,4,2,1,80,0,1
127150,-90.9090909090909,4,2,1,80,0,1
127456,-83.3333333333333,4,2,1,80,0,1
127685,-83.3333333333333,4,2,1,5,0,1
127763,-125,4,2,1,80,0,1
130824,-83.3333333333333,4,2,1,80,0,1
131053,-83.3333333333333,4,2,1,5,0,1
131130,-83.3333333333333,4,2,1,80,0,1
131359,-83.3333333333333,4,2,1,5,0,1
131436,-125,4,2,1,80,0,1
131971,-125,4,2,1,5,0,1
132048,-100,4,2,1,80,0,1
132124,-100,4,2,1,5,0,1
132201,-100,4,2,1,80,0,1
132354,-125,4,2,1,80,0,1
132661,-83.3333333333333,4,2,1,80,0,1
133273,-100,4,2,1,80,0,1
133502,-100,4,2,1,5,0,1
133579,-125,4,2,1,80,0,1
134420,-125,4,2,1,5,0,1
134497,-125,4,2,1,80,0,1
135032,-125,4,2,1,5,0,1
135110,-83.3333333333333,4,2,1,80,0,1
136028,-100,4,2,1,80,0,1
136257,-100,4,2,1,5,0,1
136334,-125,4,2,1,80,0,1
137559,-100,4,2,1,80,0,1
137788,-100,4,2,1,5,0,1
137865,-125,4,2,1,80,0,1
140620,-83.3333333333333,4,2,1,80,0,1
140849,-83.3333333333333,4,2,1,5,0,1
140926,-100,4,2,1,65,0,0
142763,-125,4,2,1,65,0,0
143069,-100,4,2,1,65,0,0
144089,-100,4,2,1,5,0,0
144191,-100,4,2,1,65,0,0
147583,-100,4,2,1,5,0,0
147661,-100,4,2,1,65,0,0
150416,-83.3333333333333,4,2,1,65,0,0
150645,-83.3333333333333,4,2,1,5,0,0
150722,-100,4,2,1,65,0,0
154191,-100,4,2,1,5,0,0
154293,-100,4,2,1,65,0,0
154777,-100,4,2,1,5,0,0
154854,-100,4,2,1,65,0,0
155543,-100,4,2,1,5,0,0
155620,-100,4,2,1,65,0,0
159140,-166.666666666667,4,2,1,65,0,0
160518,-166.666666666667,4,2,1,45,0,0
161436,-500,4,2,1,45,0,0
167559,-200,4,2,1,45,0,0
168783,-285.714285714286,4,2,1,45,0,0
177661,-285.714285714286,4,2,1,65,0,0
178196,-285.714285714286,4,2,1,5,0,0
178273,-166.666666666667,4,2,1,65,0,0
178808,-166.666666666667,4,2,1,5,0,0
178885,-83.3333333333333,4,2,1,65,0,0
178961,-83.3333333333333,4,2,1,5,0,0
179038,-83.3333333333333,4,2,1,65,0,0
179114,-83.3333333333333,4,2,1,5,0,0
179191,-83.3333333333333,4,2,1,65,0,0
179267,-83.3333333333333,4,2,1,5,0,0
179344,-83.3333333333333,4,2,1,65,0,0
179420,-83.3333333333333,4,2,1,5,0,0
179497,-500,4,2,1,65,0,0
181487,-200,4,2,1,50,0,0
181946,-66.6666666666667,4,2,1,80,0,1
182175,-66.6666666666667,4,2,1,5,0,1
182252,-100,4,2,1,80,0,1
183706,-100,4,2,1,5,0,1
183783,-100,4,2,1,80,0,1
184930,-100,4,2,1,5,0,1
185007,-100,4,2,1,80,0,1
185543,-100,4,2,1,5,0,1
185620,-100,4,2,1,80,0,1
186461,-100,4,2,1,5,0,1
186538,-100,4,2,1,80,0,1
187456,-83.3333333333333,4,2,1,80,0,1
187685,-83.3333333333333,4,2,1,5,0,1
187763,-100,4,2,1,80,0,1
190824,-83.3333333333333,4,2,1,80,0,1
191053,-83.3333333333333,4,2,1,5,0,1
191130,-83.3333333333333,4,2,1,80,0,1
191359,-83.3333333333333,4,2,1,5,0,1
191436,-83.3333333333333,4,2,1,80,0,1
191742,-100,4,2,1,80,0,1
191971,-100,4,2,1,5,0,1
192048,-100,4,2,1,80,0,1
192661,-76.9230769230769,4,2,1,80,0,1
193273,-100,4,2,1,80,0,1
193502,-100,4,2,1,5,0,1
193579,-100,4,2,1,80,0,1
194191,-125,4,2,1,80,0,1
194420,-125,4,2,1,5,0,1
194497,-100,4,2,1,80,0,1
195110,-76.9230769230769,4,2,1,80,0,1
195339,-76.9230769230769,4,2,1,5,0,1
195416,-76.9230769230769,4,2,1,80,0,1
196028,-83.3333333333333,4,2,1,80,0,1
196257,-83.3333333333333,4,2,1,5,0,1
196334,-111.111111111111,4,2,1,80,0,1
196640,-100,4,2,1,80,0,1
197252,-83.3333333333333,4,2,1,80,0,1
197481,-83.3333333333333,4,2,1,5,0,1
197559,-83.3333333333333,4,2,1,80,0,1
197865,-100,4,2,1,80,0,1
198400,-100,4,2,1,5,0,1
198477,-100,4,2,1,80,0,1
204599,-100,4,2,1,70,0,0
205824,-83.3333333333333,4,2,1,70,0,0
206053,-83.3333333333333,4,2,1,5,0,0
206130,-83.3333333333333,4,2,1,70,0,0
206512,-83.3333333333333,4,2,1,5,0,0
206589,-83.3333333333333,4,2,1,70,0,0
206971,-83.3333333333333,4,2,1,5,0,0
207048,-83.3333333333333,4,2,1,70,0,0
207430,-83.3333333333333,4,2,1,5,0,0
207507,-83.3333333333333,4,2,1,70,0,0
207737,-83.3333333333333,4,2,1,5,0,0
207814,-83.3333333333333,4,2,1,70,0,0
207890,-83.3333333333333,4,2,1,5,0,0
207967,-83.3333333333333,4,2,1,70,0,0
208043,-83.3333333333333,4,2,1,5,0,0
208120,-333.333333333333,4,2,1,70,0,1
208885,-166.666666666667,4,2,99,30,0,0

[Colours]
Combo1 : 236,183,83
Combo2 : 183,183,255

[HitObjects]
512,384,1637,6,0,P|456:313|387:318,1,160,2|0,2:0|2:0,2:0:0:0:
101,241,2742,5,0,2:0:0:0:
44,324,2900,2,0,P|126:334|187:285,1,160,2|0,2:0|2:0,2:0:0:0:
464,43,4163,6,0,P|434:41|403:36,1,59.9999981689454,2|0,2:0|2:0,2:0:0:0:
465,212,4637,2,0,P|435:214|404:219,1,59.9999981689454,2|0,2:0|2:0,2:0:0:0:
272,157,5110,5,0,2:0:0:0:
272,157,5268,1,0,2:0:0:0:
272,157,5426,2,0,B|347:166|344:116|426:126,1,160,2|2,2:0|2:0,2:0:0:0:
198,94,6689,6,0,L|212:16,1,80,2|0,2:0|2:0,2:0:0:0:
102,69,7321,1,2,2:0:0:0:
102,69,7479,2,0,L|116:147,1,80,0|2,2:0|2:0,2:0:0:0:
173,222,7952,6,0,P|108:176|30:179,1,160,2|2,2:0|2:0,2:0:0:0:
276,280,8900,5,0,2:0:0:0:
276,280,9058,1,0,2:0:0:0:
276,280,9215,2,0,P|269:241|262:202,1,80,2|0,2:0|2:0,2:0:0:0:
186,309,9847,2,0,P|147:302|108:295,1,80,0|0,2:0|2:0,2:0:0:0:
258,366,10479,6,0,B|373:379|368:303|493:318,1,240,2|0,2:0|2:0,2:0:0:0:
488,317,11742,5,2,2:0:0:0:
488,317,12049,1,2,2:0:0:0:
488,317,12355,5,8,2:3:0:0:
512,256,12431,5,8,2:3:0:0:
472,209,12508,5,4,2:3:0:0:
414,220,12584,5,8,2:3:0:0:
389,277,12661,6,0,L|396:311,1,30,4|0,1:2|2:0,2:0:0:0:
329,361,12967,6,0,P|286:326|187:335,1,134.999995880127,6|0,1:2|2:0,2:0:0:0:
119,288,13273,2,0,P|129:335|133:387,1,89.9999972534181,10|0,2:0|2:0,2:0:0:0:
298,139,13579,2,0,P|288:92|284:40,1,89.9999972534181,2|0,2:0|1:0,2:0:0:0:
56,186,13885,6,0,B|100:158|159:176|159:176|188:209|228:209,1,179.999994506836,10|0,2:0|1:0,2:0:0:0:
415,161,14345,1,0,2:0:0:0:
352,321,14498,2,0,B|344:273|344:273|354:217,1,89.9999972534181,10|0,2:0|2:0,2:0:0:0:
487,366,14804,2,0,B|495:318|495:318|485:262,1,89.9999972534181,2|0,2:0|1:0,2:0:0:0:
265,372,15110,1,8,2:0:0:0:
265,372,15416,6,0,P|200:356|127:345,1,134.999995880127,2|0,1:2|2:0,2:0:0:0:
46,366,15722,2,0,P|33:318|49:276,1,89.9999972534181,10|0,2:0|2:0,2:0:0:0:
177,45,16028,2,0,L|191:134,1,89.9999972534181,2|0,2:0|1:0,2:0:0:0:
340,255,16334,6,0,P|381:213|509:218,1,179.999994506836,10|0,2:0|1:0,2:0:0:0:
435,294,16794,1,0,2:0:0:0:
287,106,16947,2,0,P|299:62|305:5,1,89.9999972534181,10|0,2:0|2:0,2:0:0:0:
386,130,17253,2,0,P|391:85|403:42,1,89.9999972534181,2|0,2:0|1:0,2:0:0:0:
211,172,17559,1,8,2:0:0:0:
211,172,17865,6,0,P|147:178|68:192,1,134.999995880127,6|0,1:2|2:0,2:0:0:0:
5,96,18171,2,0,P|44:87|98:102,1,89.9999972534181,10|0,2:0|2:0,2:0:0:0:
172,275,18477,2,0,P|164:319|160:364,1,89.9999972534181,2|0,2:0|1:0,2:0:0:0:
351,181,18783,6,0,P|373:115|325:20,1,179.999994506836,10|0,2:0|1:0,2:0:0:0:
277,111,19243,1,0,2:0:0:0:
408,258,19396,6,0,P|452:249|497:243,1,89.9999972534181,10|0,2:0|2:0,2:0:0:0:
424,353,19702,2,0,P|468:347|512:338,1,89.9999972534181,2|0,2:0|1:0,2:0:0:0:
331,318,20008,1,8,2:0:0:0:
331,318,20314,6,0,P|290:273|208:277,1,134.999995880127,14|0,2:0|2:0,2:0:0:0:
146,317,20620,1,0,1:0:0:0:
23,193,20773,2,0,P|36:248|41:297,1,89.9999972534181,14|0,2:0|2:0,2:0:0:0:
183,67,21079,1,0,1:0:0:0:
183,67,21232,2,0,P|128:80|79:85,1,89.9999972534181,14|0,2:0|2:0,2:0:0:0:
381,136,21538,2,0,P|436:123|485:118,1,89.9999972534181,2|0,1:2|2:0,2:0:0:0:
287,14,21845,6,0,B|287:49|299:76|299:76|281:99|274:133|274:133|283:158|284:193,1,179.999994506836,6|0,2:0|2:0,2:0:0:0:
231,255,22380,1,0,2:0:0:0:
223,262,22457,2,0,P|193:266|165:256,1,59.9999981689454,0|0,2:0|2:0,2:0:0:0:
353,384,22763,6,0,P|318:331|317:262,1,119.999996337891,2|0,1:2|1:0,2:0:0:0:
436,206,23222,2,0,L|424:269,1,59.9999981689454,2|0,2:0|1:0,2:0:0:0:
357,115,23528,1,2,2:0:0:0:
357,115,23681,2,0,P|387:110|420:103,1,59.9999981689454,2|0,1:2|2:0,2:0:0:0:
283,185,23987,2,0,B|211:185|224:144|149:145,2,139.999995727539,2|2|2,1:2|1:2|1:2,2:0:0:0:
283,185,24906,2,0,P|252:189|220:197,1,59.9999981689454,2|0,1:2|2:0,2:0:0:0:
103,384,25212,5,2,1:2:0:0:
121,304,25365,1,2,2:0:0:0:
139,225,25518,1,2,1:2:0:0:
198,363,25671,5,2,2:0:0:0:
198,363,25824,2,0,P|228:359|256:369,1,59.9999981689454,2|0,1:2|2:0,2:0:0:0:
57,246,26130,2,0,P|27:250|-1:240,1,59.9999981689454,2|0,1:2|2:0,2:0:0:0:
152,145,26436,6,0,L|129:5,2,139.999995727539,2|2|0,1:2|1:2|1:0,2:0:0:0:
222,195,27355,2,0,P|236:159|233:128,1,59.9999981689454,2|0,1:2|2:0,2:0:0:0:
222,56,27661,5,2,1:2:0:0:
134,227,27814,2,0,P|99:231|64:238,1,69.9999978637696,2|0,2:0|1:0,2:0:0:0:
281,334,28120,1,2,2:0:0:0:
281,334,28273,2,0,P|316:338|351:345,1,69.9999978637696,2|0,1:2|2:0,2:0:0:0:
193,347,28579,6,0,P|191:312|204:280,1,69.9999978637696,2|0,1:2|2:0,2:0:0:0:
397,165,28885,6,0,P|366:230|281:234,2,160,2|2|0,1:2|1:2|1:0,2:0:0:0:
397,165,29804,1,2,1:2:0:0:
308,8,30110,6,0,L|325:120,1,104.999996795654,2|0,1:2|2:0,2:0:0:0:
397,165,30416,2,0,P|410:129|409:88,1,69.9999978637696,2|0,1:2|2:0,2:0:0:0:
397,11,30722,5,2,1:2:0:0:
252,164,30875,1,2,2:0:0:0:
252,164,30952,1,2,2:0:0:0:
252,164,31028,2,0,P|220:149|186:141,1,69.9999978637696,2|0,1:2|2:0,2:0:0:0:
138,48,31334,6,0,B|38:-1|38:-1|81:131,1,250,12|2,2:0|2:0,2:0:0:0:
42,204,32253,2,0,P|13:184|0:139,1,75,2|0,2:0|2:0,2:0:0:0:
138,295,32559,5,6,1:2:0:0:
226,311,32712,1,2,2:0:0:0:
314,328,32865,1,10,2:0:0:0:
392,283,33018,5,8,2:3:0:0:
397,277,33095,1,8,2:3:0:0:
402,272,33171,2,0,P|398:232|391:196,1,75.0000028610231,8|2,2:3|1:2,2:0:0:0:
507,74,33477,2,0,L|496:148,1,75.0000028610231,10|2,2:0|2:0,2:0:0:0:
413,26,33707,1,2,2:0:0:0:
407,30,33783,6,0,P|345:20|270:70,1,150.000005722046,2|10,1:2|2:0,2:0:0:0:
133,177,34243,1,8,2:3:0:0:
126,174,34319,1,8,2:3:0:0:
133,170,34396,1,8,2:3:0:0:
203,238,34549,5,0,1:0:0:0:
38,192,34702,1,10,2:0:0:0:
187,93,34855,1,2,2:0:0:0:
121,295,35008,6,0,P|115:350|108:378,1,75.0000028610231,2|0,1:2|1:0,2:0:0:0:
277,248,35314,2,0,P|222:242|194:235,1,75.0000028610231,10|8,2:0|2:3,2:0:0:0:
339,312,35544,1,8,2:3:0:0:
347,307,35620,2,0,P|383:299|421:296,1,75.0000028610231,8|0,2:3|1:0,2:0:0:0:
467,143,35926,2,0,P|469:180|477:216,1,75.0000028610231,10|0,2:0|2:0,2:0:0:0:
367,88,36232,5,2,1:2:0:0:
303,29,36385,1,0,1:0:0:0:
385,3,36538,1,8,2:0:0:0:
183,154,36691,5,8,2:3:0:0:
186,160,36768,1,8,2:3:0:0:
190,155,36845,1,8,2:3:0:0:
119,224,36998,5,2,1:2:0:0:
272,199,37151,2,0,P|313:209|348:213,1,75.0000028610231,10|0,2:0|2:0,2:0:0:0:
174,380,37457,6,0,P|142:352|21:360,1,150.000005722046,2|8,1:2|2:0,2:0:0:0:
212,266,37916,1,8,2:3:0:0:
219,270,37993,1,8,2:3:0:0:
221,262,38069,2,0,P|217:217|206:179,1,75.0000028610231,8|0,2:3|1:0,2:0:0:0:
28,70,38375,1,8,2:0:0:0:
184,42,38528,1,2,2:0:0:0:
100,10,38681,6,0,L|113:101,1,75.0000028610231,0|2,1:0|2:0,2:0:0:0:
209,188,38987,1,8,2:0:0:0:
323,119,39140,1,8,2:3:0:0:
332,113,39217,1,8,2:3:0:0:
343,111,39294,2,0,P|379:118|417:130,1,75.0000028610231,8|0,2:3|1:0,2:0:0:0:
512,0,39600,2,0,L|425:22,1,75.0000028610231,10|0,2:0|2:0,2:0:0:0:
341,208,39906,6,0,B|324:288|356:267|336:366,1,150.000005722046,2|10,1:2|2:0,2:0:0:0:
187,315,40365,1,8,2:3:0:0:
192,308,40441,1,8,2:3:0:0:
195,315,40518,1,8,2:3:0:0:
116,371,40671,5,0,1:0:0:0:
4,266,40824,2,0,P|51:257|82:250,1,75.0000028610231,10|2,2:0|2:0,2:0:0:0:
233,164,41130,5,8,2:0:0:0:
144,42,41283,1,0,1:0:0:0:
221,5,41436,5,0,1:0:0:0:
88,257,41589,1,12,2:0:0:0:
98,262,41896,6,0,L|53:256,1,37.5000014305115,0|0,1:0|1:0,2:0:0:0:
218,369,42049,1,12,2:0:0:0:
231,362,42355,5,6,1:2:0:0:
434,252,42508,1,2,1:2:0:0:
257,117,42661,1,2,1:2:0:0:
328,244,42814,1,10,2:0:0:0:
337,238,42967,2,0,P|345:188|355:139,1,100,2|10,2:0|2:0,2:0:0:0:
10,94,43579,5,2,1:2:0:0:
43,228,43732,1,2,1:2:0:0:
178,195,43885,1,2,1:2:0:0:
144,59,44038,1,10,2:0:0:0:
144,59,44345,1,0,1:0:0:0:
95,143,44498,1,10,2:0:0:0:
95,143,44804,5,2,1:2:0:0:
236,89,44957,1,2,1:2:0:0:
333,207,45110,1,2,1:2:0:0:
249,335,45263,1,10,2:0:0:0:
245,331,45416,2,0,P|240:306|236:281,1,50,2|0,2:0|1:0,2:0:0:0:
425,332,45722,2,0,P|388:301|321:297,1,112.500004291535,10|0,2:0|2:0,2:0:0:0:
325,295,46028,5,2,1:2:0:0:
146,238,46181,1,2,1:2:0:0:
337,120,46334,1,2,1:2:0:0:
160,325,46487,2,0,L|9:291,1,150.000005722046,10|0,2:0|1:0,2:0:0:0:
13,292,46947,1,10,2:0:0:0:
135,26,47253,5,2,1:2:0:0:
337,120,47406,1,2,1:2:0:0:
153,230,47559,1,2,1:2:0:0:
234,123,47712,1,10,2:0:0:0:
240,130,47865,2,0,P|248:180|257:241,1,100,2|8,2:0|2:0,2:0:0:0:
477,376,48477,5,2,1:2:0:0:
511,240,48630,1,2,1:2:0:0:
376,207,48783,1,2,1:2:0:0:
343,341,48936,1,10,2:0:0:0:
343,341,49243,1,0,1:0:0:0:
427,293,49396,1,10,2:0:0:0:
427,293,49702,5,2,1:2:0:0:
244,344,49855,1,2,1:2:0:0:
138,185,50008,1,2,1:2:0:0:
256,35,50161,2,0,P|270:109|283:182,1,150.000005722046,10|0,2:0|1:0,2:0:0:0:
360,235,50620,2,0,P|373:202|371:160,1,75.0000028610231,10|2,2:0|2:0,2:0:0:0:
177,104,50926,6,0,P|103:104|52:156,1,150,10|0,2:0|2:0,2:0:0:0:
52,155,51232,1,0,2:0:0:0:
277,271,51385,6,0,P|349:262|407:308,1,150,10|0,2:0|2:0,2:0:0:0:
406,307,51691,1,0,2:0:0:0:
272,374,51845,6,0,B|197:368|211:316|124:314,1,150.000005722046,10|0,2:0|2:0,2:0:0:0:
88,240,52151,6,0,P|98:199|100:169,1,59.9999981689454,4|0,2:0|2:0,2:0:0:0:
6,28,52457,2,0,L|20:87,1,59.9999981689454,2|0,2:3|2:0,2:0:0:0:
105,39,52763,2,0,L|163:25,1,59.9999981689454,2|0,2:3|2:0,2:0:0:0:
296,96,53069,2,0,L|237:82,1,59.9999981689454,2|0,2:3|2:0,2:0:0:0:
372,37,53375,6,0,P|411:29|477:70,2,119.999996337891,2|2|2,2:3|2:3|2:3,2:0:0:0:
245,184,54217,1,0,2:0:0:0:
245,184,54294,2,0,L|255:256,1,59.9999981689454,2|0,2:3|2:0,2:0:0:0:
323,297,54600,5,2,2:3:0:0:
390,234,54906,5,2,2:3:0:0:
488,311,55212,5,2,2:3:0:0:
395,227,55518,5,2,2:3:0:0:
357,149,55671,1,0,2:0:0:0:
416,84,55824,2,0,L|478:96,1,59.9999981689454,2|0,2:3|2:0,2:0:0:0:
316,11,56130,2,0,P|267:1|212:25,1,112.500004291535,2|0,2:3|2:0,2:0:0:0:
136,97,56436,1,12,2:3:0:0:
135,90,56512,1,12,2:3:0:0:
134,83,56589,1,12,2:3:0:0:
132,75,56665,1,12,2:3:0:0:
131,68,56742,1,6,2:0:0:0:
131,68,57049,6,0,P|118:144|111:212,1,134.999995880127,6|0,1:2|2:0,2:0:0:0:
111,201,57355,1,2,1:2:0:0:
71,292,57508,6,0,P|30:294|-4:272,1,75.0000028610231,10|0,2:0|2:0,2:0:0:0:
223,359,57814,1,2,1:2:0:0:
141,366,57967,2,0,P|173:348|210:351,1,75.0000028610231,10|0,2:0|2:0,2:0:0:0:
416,252,58273,6,0,P|467:264|494:269,1,75.0000028610231,0|0,1:0|2:0,2:0:0:0:
295,153,58579,1,2,1:2:0:0:
277,67,58732,1,8,2:0:0:0:
295,153,58885,6,0,P|283:204|278:231,1,75.0000028610231,2|0,2:0|1:0,2:0:0:0:
67,134,59191,2,0,P|81:73|87:42,1,89.9999972534181,10|0,2:0|2:0,2:0:0:0:
2,212,59498,6,0,P|33:179|164:179,1,179.999994506836,10|0,2:0|2:0,2:0:0:0:
240,306,59957,6,0,L|234:261,1,44.999998626709,8|0,2:0|2:0,2:0:0:0:
408,42,60416,6,0,L|402:87,1,44.999998626709,8|0,2:0|2:0,2:0:0:0:
163,81,60722,6,0,L|117:88,1,44.999998626709,10|0,2:0|2:0,2:0:0:0:
38,147,60875,2,0,P|20:148|38:128,1,44.999998626709,8|0,2:0|2:0,2:0:0:0:
118,207,61028,2,0,P|127:257|122:292,1,75.0000028610231,8|0,2:0|2:0,2:0:0:0:
199,338,61181,2,0,B|265:326|265:326|282:332,1,75.0000028610231,8|0,2:0|2:0,2:0:0:0:
352,384,61334,5,2,2:0:0:0:
353,377,61487,1,2,2:0:0:0:
354,370,61640,1,2,2:0:0:0:
355,363,61794,1,2,2:0:0:0:
423,310,61947,5,14,2:3:0:0:
424,303,62023,1,12,2:3:0:0:
425,296,62100,1,12,2:3:0:0:
426,289,62176,1,12,2:3:0:0:
402,264,62253,6,0,P|395:228|392:190,1,75,4|0,1:2|2:0,2:0:0:0:
489,109,62559,6,0,L|477:208,1,100,4|0,1:0|1:0,2:0:0:0:
231,25,62865,6,0,P|287:94|379:77,1,179.999994506836,8|0,2:0|2:0,2:0:0:0:
382,65,63171,2,0,L|429:58,2,37.5000014305115,2|2|0,2:0|2:0|1:0,2:0:0:0:
319,11,63477,5,8,2:0:0:0:
267,177,63630,1,2,2:0:0:0:
264,184,63706,1,2,2:0:0:0:
262,192,63783,2,0,L|271:271,1,80,0|0,1:0|1:0,2:0:0:0:
9,258,64089,6,0,L|195:291,1,179.999994506836,10|0,2:0|2:0,2:0:0:0:
247,357,64395,2,0,P|205:381|159:379,1,89.9999972534181,2|2,2:0|1:2,2:0:0:0:
354,250,64701,2,0,P|405:250|448:277,1,100,8|2,2:0|2:0,2:0:0:0:
456,286,64931,1,2,2:0:0:0:
448,293,65007,1,2,1:2:0:0:
371,352,65161,5,0,1:0:0:0:
426,145,65314,1,10,2:0:0:0:
227,100,65467,2,0,P|177:108|127:113,1,100,2|0,2:0|2:0,2:0:0:0:
277,13,65773,1,2,1:2:0:0:
82,194,65926,6,0,P|37:118|66:37,1,179.999994506836,8|0,2:0|2:0,2:0:0:0:
49,22,66232,2,0,P|21:18|-5:13,2,50,2|2|0,1:2|2:0|1:0,2:0:0:0:
180,192,66538,2,0,P|174:243|168:293,1,100,8|0,2:0|2:0,2:0:0:0:
263,252,66844,6,0,B|333:260|344:210|425:220,1,165.000005035401,2|0,2:0|2:0,2:0:0:0:
512,259,67150,2,0,L|500:157,1,100,10|2,2:0|2:0,2:0:0:0:
319,134,67456,6,0,P|370:130|417:115,1,100,6|0,1:2|1:0,2:0:0:0:
358,329,67763,2,0,P|409:333|456:348,1,100,10|0,2:0|2:0,2:0:0:0:
168,291,68069,5,2,2:0:0:0:
421,219,68222,1,0,1:0:0:0:
249,72,68375,2,0,P|228:125|235:181,1,110.000003356934,10|2,2:0|2:0,2:0:0:0:
216,376,68604,1,2,2:0:0:0:
224,383,68681,6,0,P|147:305|80:326,1,179.999994506836,2|0,1:2|2:0,2:0:0:0:
15,383,68987,2,0,P|9:333|2:283,1,100,8|0,2:0|2:0,2:0:0:0:
120,0,69293,5,2,2:0:0:0:
182,114,69446,1,2,1:2:0:0:
64,180,69599,1,10,2:0:0:0:
0,62,69752,1,2,1:2:0:0:
92,95,69905,5,12,2:0:0:0:
101,89,70059,1,0,1:0:0:0:
280,142,70212,5,10,2:0:0:0:
234,343,70365,1,0,1:0:0:0:
151,207,70518,5,10,2:0:0:0:
351,318,70671,1,0,1:0:0:0:
78,364,70824,5,10,2:0:0:0:
441,229,70977,1,2,1:2:0:0:
281,40,71130,5,10,2:0:0:0:
230,255,71283,1,0,1:0:0:0:
459,319,71436,1,8,2:0:0:0:
507,97,71589,1,0,1:0:0:0:
362,183,71742,5,10,2:0:0:0:
273,135,71895,1,2,1:2:0:0:
268,145,71972,1,0,1:0:0:0:
262,141,72048,2,0,B|169:118|169:118|150:160|101:163,1,179.999994506836,4|0,1:2|2:0,2:0:0:0:
41,69,72354,6,0,P|21:11|47:66,1,179.999994506836,4|0,1:0|2:0,2:0:0:0:
94,155,72661,2,0,B|99:161|99:161|88:233,1,80,8|0,2:0|2:0,2:0:0:0:
219,367,72967,6,0,P|250:327|368:327,1,150,2|0,1:2|2:0,2:0:0:0:
491,262,73273,2,0,P|453:260|409:246,1,80,8|2,2:0|2:0,2:0:0:0:
318,115,73502,1,2,2:0:0:0:
332,106,73579,2,0,B|337:123|337:123|345:188,1,80,0|0,1:0|2:0,2:0:0:0:
85,141,73885,6,0,B|33:18|33:18|138:71,1,239.999992675781,10|0,2:0|1:0,2:0:0:0:
182,151,74344,1,0,2:0:0:0:
48,336,74497,2,0,B|41:284|41:284|51:235,1,100,10|0,2:0|2:0,2:0:0:0:
194,144,74803,6,0,L|356:169,1,150,2|0,1:2|2:0,2:0:0:0:
399,284,75110,2,0,B|396:270|396:270|402:222,1,50,10|0,2:0|2:0,2:0:0:0:
455,130,75263,1,2,2:0:0:0:
461,110,75339,1,2,2:0:0:0:
452,94,75416,6,0,P|387:79|351:185,1,179.999994506836,0|0,1:0|2:0,2:0:0:0:
280,319,75722,2,0,P|275:279|268:239,1,80,10|2,2:0|2:0,2:0:0:0:
18,83,76028,6,0,P|48:118|138:108,1,120,0|0,1:0|2:0,2:0:0:0:
184,62,76334,2,0,L|173:9,2,40,8|2|2,2:0|2:0|2:0,2:0:0:0:
341,166,76640,1,2,1:2:0:0:
260,213,76793,1,2,2:0:0:0:
360,289,76946,6,0,P|364:282|338:272,1,40,10|0,2:0|2:0,2:0:0:0:
274,332,77099,6,0,B|195:303|117:367|117:367|150:335|154:283,1,239.999992675781,6|2,2:0|2:0,2:0:0:0:
53,269,77482,1,2,2:0:0:0:
53,269,77559,2,0,P|32:301|60:275,1,100,10|0,2:0|2:0,2:0:0:0:
204,168,77865,5,2,1:2:0:0:
187,83,78018,2,0,L|176:27,1,50,2|0,1:2|2:0,2:0:0:0:
326,4,78171,5,8,2:0:0:0:
324,15,78324,1,2,2:0:0:0:
373,93,78477,6,0,P|436:101|510:30,1,150,0|0,1:0|2:0,2:0:0:0:
477,185,78783,2,0,P|467:241|469:271,1,80,10|0,2:0|2:0,2:0:0:0:
328,319,79089,6,0,P|286:279|229:289,1,100,2|2,1:2|2:0,2:0:0:0:
134,370,79319,1,2,2:0:0:0:
134,370,79395,2,0,B|143:374|143:374|214:363,1,80,10|2,2:0|2:0,2:0:0:0:
308,107,79701,5,10,2:0:0:0:
337,191,79854,1,0,1:0:0:0:
220,47,80007,5,10,2:0:0:0:
155,234,80161,1,0,1:0:0:0:
404,255,80314,5,10,2:0:0:0:
130,143,80467,1,0,1:0:0:0:
397,124,80620,5,10,2:0:0:0:
82,297,80773,1,0,1:0:0:0:
283,369,80926,5,10,2:0:0:0:
214,140,81079,1,0,1:0:0:0:
362,21,81232,5,10,2:0:0:0:
300,257,81385,1,2,1:2:0:0:
204,132,81538,5,10,2:0:0:0:
474,208,81691,1,2,1:2:0:0:
479,201,81768,1,0,1:0:0:0:
482,211,81844,2,0,P|501:146|477:82,1,120,6|0,2:0|2:0,2:0:0:0:
404,153,82150,6,0,L|380:287,1,134.999995880127,6|0,1:2|2:0,2:0:0:0:
487,372,82456,2,0,P|493:330|468:285,1,89.9999972534181,10|0,2:0|2:0,2:0:0:0:
317,360,82762,2,0,P|272:361|229:376,1,89.9999972534181,2|0,2:0|1:0,2:0:0:0:
100,232,83069,6,0,B|183:221|189:277|273:268,2,179.999994506836,10|0|10,2:0|1:0|2:0,2:0:0:0:
163,137,83834,1,2,2:0:0:0:
166,142,83911,1,2,2:0:0:0:
173,141,83987,2,0,P|215:155|260:157,1,89.9999972534181,2|0,2:0|1:0,2:0:0:0:
38,302,84293,1,8,2:0:0:0:
38,302,84599,6,0,P|9:265|16:179,1,134.999995880127,2|0,1:2|2:0,2:0:0:0:
73,117,84905,2,0,L|87:28,1,89.9999972534181,10|0,2:0|2:0,2:0:0:0:
180,235,85211,2,0,L|194:324,1,89.9999972534181,2|0,2:0|1:0,2:0:0:0:
483,200,85517,6,0,P|413:254|327:241,1,179.999994506836,10|0,2:0|1:0,2:0:0:0:
327,241,85977,1,0,2:0:0:0:
307,136,86130,2,0,P|349:150|394:152,1,89.9999972534181,10|0,2:0|2:0,2:0:0:0:
390,351,86436,2,0,P|432:336|477:334,1,89.9999972534181,2|0,2:0|1:0,2:0:0:0:
238,204,86742,5,8,2:0:0:0:
238,204,87048,6,0,L|214:71,1,134.999995880127,6|0,1:2|2:0,2:0:0:0:
145,16,87354,2,0,P|129:64|137:106,1,89.9999972534181,10|0,2:0|2:0,2:0:0:0:
286,121,87661,2,0,P|302:73|294:31,1,89.9999972534181,2|0,2:0|1:0,2:0:0:0:
6,184,87966,6,0,P|93:187|154:251,2,179.999994506836,10|0|10,2:0|1:0|2:0,2:0:0:0:
157,342,88732,1,2,2:0:0:0:
166,345,88809,1,2,2:0:0:0:
169,338,88885,2,0,P|211:323|256:321,1,89.9999972534181,2|0,2:0|1:0,2:0:0:0:
70,380,89191,5,8,2:0:0:0:
70,380,89497,6,0,B|19:337|19:337|55:268,1,134.999995880127,14|0,2:0|2:0,2:0:0:0:
51,276,89803,1,0,1:0:0:0:
254,58,89956,6,0,B|163:20|163:20|206:121,1,194.999991073609,14|0,2:0|2:0,2:0:0:0:
201,109,90262,1,0,1:0:0:0:
445,228,90416,6,0,L|501:238,1,50,14|0,2:0|2:0,2:0:0:0:
321,176,90722,6,0,L|370:167,1,50,10|0,2:0|2:0,2:0:0:0:
238,221,90875,1,0,1:0:0:0:
238,221,90951,1,0,1:0:0:0:
238,221,91028,2,0,L|41:186,1,200,6|8,2:0|2:0,2:0:0:0:
41,186,91487,1,2,2:0:0:0:
25,115,91640,1,2,2:0:0:0:
98,99,91793,1,2,2:0:0:0:
217,23,91946,5,6,2:0:0:0:
283,61,92099,1,2,1:2:0:0:
350,24,92252,1,2,1:2:0:0:
416,62,92405,1,2,1:2:0:0:
424,55,92559,6,0,P|459:45|490:41,1,59.9999981689454,2|0,2:3|2:0,2:0:0:0:
327,154,92865,1,2,2:0:0:0:
392,222,93018,1,8,2:3:0:0:
392,222,93094,1,8,2:3:0:0:
392,222,93171,6,0,P|395:270|378:305,1,75.0000028610231,8|0,2:3|1:0,2:0:0:0:
260,366,93477,1,2,1:2:0:0:
246,291,93630,1,2,1:2:0:0:
232,216,93783,1,2,2:3:0:0:
31,370,94089,5,2,2:0:0:0:
34,365,94242,1,2,2:0:0:0:
37,360,94395,2,0,P|32:313|25:283,1,75.0000028610231,2|0,1:2|1:0,2:0:0:0:
127,183,94701,2,0,P|132:230|139:260,1,75.0000028610231,2|0,1:2|1:0,2:0:0:0:
248,332,95007,5,2,2:3:0:0:
315,291,95161,1,2,2:0:0:0:
380,333,95314,1,2,2:0:0:0:
485,250,95467,1,8,2:3:0:0:
485,250,95543,1,8,2:3:0:0:
485,250,95620,6,0,P|491:288|494:320,1,59.9999981689454,8|2,2:3|1:2,2:0:0:0:
399,196,95926,2,0,P|402:166|407:136,1,59.9999981689454,2|2,1:2|1:2,2:0:0:0:
491,15,96232,5,2,2:3:0:0:
494,24,96385,1,2,1:2:0:0:
321,97,96538,5,10,2:0:0:0:
318,88,96691,1,2,2:0:0:0:
221,27,96844,5,6,1:2:0:0:
158,77,96997,1,2,1:2:0:0:
88,41,97150,1,2,1:2:0:0:
25,91,97303,1,2,1:2:0:0:
21,101,97456,6,0,P|24:144|31:171,1,59.9999981689454,2|0,2:3|2:0,2:0:0:0:
170,240,97763,1,2,2:0:0:0:
109,298,97916,1,8,2:3:0:0:
109,298,97992,1,8,2:3:0:0:
109,298,98069,6,0,P|70:288|34:284,1,75.0000028610231,8|0,2:3|1:0,2:0:0:0:
191,366,98375,1,2,1:2:0:0:
266,344,98528,1,2,1:2:0:0:
341,322,98681,1,2,2:3:0:0:
489,184,98987,6,0,P|477:227|479:278,1,75.0000028610231,6|0,2:0|2:0,2:0:0:0:
323,112,99293,6,0,L|378:100,1,37.5000014305115,6|0,1:2|2:0,2:0:0:0:
437,85,99446,1,0,1:0:0:0:
213,224,99905,6,0,L|268:236,1,37.5000014305115,6|0,1:2|2:0,2:0:0:0:
327,251,100058,1,0,1:0:0:0:
74,156,100518,5,10,2:0:0:0:
196,123,100671,1,2,1:2:0:0:
163,1,100824,1,0,1:0:0:0:
41,34,100977,1,6,2:0:0:0:
191,129,101283,5,10,2:0:0:0:
196,123,101436,2,0,L|247:113,1,37.5000014305115,2|0,1:2|2:0,2:0:0:0:
313,99,101589,2,0,L|364:89,1,37.5000014305115,10|0,2:0|2:0,2:0:0:0:
471,219,101742,5,6,1:2:0:0:
459,295,101895,1,2,2:0:0:0:
395,341,102048,1,10,2:0:0:0:
322,325,102201,1,2,2:0:0:0:
240,366,102354,6,0,P|228:335|229:291,1,75.0000028610231,2|0,1:2|2:0,2:0:0:0:
330,204,102661,2,0,L|313:315,1,112.500004291535,10|0,2:0|2:0,2:0:0:0:
322,325,102967,5,2,1:2:0:0:
149,252,103120,1,2,2:0:0:0:
299,178,103273,1,10,2:0:0:0:
208,124,103426,1,2,2:0:0:0:
244,39,103579,6,0,P|299:40|343:7,1,112.500004291535,0|0,1:0|2:0,2:0:0:0:
395,82,103885,2,0,P|434:87|470:93,1,75.0000028610231,10|0,2:0|2:0,2:0:0:0:
508,11,104191,5,2,1:2:0:0:
423,170,104344,1,2,2:0:0:0:
512,15,104497,1,10,2:0:0:0:
427,174,104650,1,2,2:0:0:0:
315,131,104803,6,0,P|278:137|240:142,1,75.0000028610231,2|0,1:2|2:0,2:0:0:0:
57,75,105110,2,0,P|112:73|156:106,1,112.500004291535,10|0,2:0|2:0,2:0:0:0:
167,189,105416,5,2,1:2:0:0:
228,60,105569,1,2,2:0:0:0:
79,169,105722,1,10,2:0:0:0:
270,244,105875,1,2,2:0:0:0:
180,202,106028,5,0,1:0:0:0:
194,286,106181,1,8,2:0:0:0:
208,370,106334,1,2,1:2:0:0:
198,368,106487,2,0,L|157:358,1,37.5000014305115,8|2,2:0|2:0,2:0:0:0:
270,244,106640,5,6,1:2:0:0:
342,260,106793,1,2,2:0:0:0:
406,214,106946,1,10,2:0:0:0:
418,138,107099,1,2,2:0:0:0:
318,62,107252,5,2,1:2:0:0:
314,167,107405,1,2,2:0:0:0:
314,167,107482,1,2,2:0:0:0:
314,167,107559,2,0,P|322:113|331:55,1,112.500004291535,8|0,2:0|2:0,2:0:0:0:
340,66,107865,5,2,1:2:0:0:
164,138,108018,1,2,2:0:0:0:
298,253,108171,1,10,2:0:0:0:
229,305,108324,1,2,2:0:0:0:
271,383,108477,6,0,P|315:350|370:351,1,112.500004291535,0|0,1:0|2:0,2:0:0:0:
446,384,108783,2,0,P|452:347|457:309,1,75.0000028610231,10|0,2:0|2:0,2:0:0:0:
378,262,109089,5,2,1:2:0:0:
244,95,109242,1,2,2:0:0:0:
382,266,109395,1,10,2:0:0:0:
248,99,109548,1,2,2:0:0:0:
316,46,109701,6,0,P|353:45|389:31,1,75.0000028610231,2|0,1:2|2:0,2:0:0:0:
487,143,110007,2,0,L|375:126,1,112.500004291535,10|0,2:0|2:0,2:0:0:0:
366,127,110314,5,10,2:0:0:0:
197,239,110467,1,2,1:2:0:0:
115,31,110620,1,2,1:2:0:0:
248,99,110773,5,10,2:0:0:0:
39,244,110926,1,2,1:2:0:0:
256,362,111079,1,2,1:2:0:0:
186,249,111232,6,0,L|163:101,1,150,6|0,2:0|2:0,2:0:0:0:
169,88,111538,6,0,P|115:120|24:95,1,150.000005722046,4|10,1:2|2:0,2:0:0:0:
97,30,111997,1,0,1:0:0:0:
271,149,112150,5,0,1:0:0:0:
267,160,112303,1,0,1:0:0:0:
84,238,112456,5,8,2:0:0:0:
80,227,112609,1,0,1:0:0:0:
177,256,112763,5,0,1:0:0:0:
156,341,112916,1,0,1:0:0:0:
9,168,113069,5,8,2:0:0:0:
30,83,113222,1,2,1:2:0:0:
284,312,113375,5,10,2:0:0:0:
70,370,113528,1,10,2:0:0:0:
294,316,113681,5,10,2:0:0:0:
60,363,113834,1,8,2:0:0:0:
169,241,113987,6,0,P|183:205|164:237,1,112.500004291535,6|0,2:0|2:0,2:0:0:0:
296,219,114293,1,10,2:0:0:0:
322,182,114370,1,0,1:0:0:0:
324,137,114446,1,0,1:0:0:0:
302,97,114523,1,0,1:0:0:0:
259,83,114599,5,10,2:0:0:0:
247,86,114676,1,0,1:0:0:0:
235,89,114752,1,0,1:0:0:0:
223,92,114829,1,0,1:0:0:0:
187,118,114905,5,10,2:0:0:0:
175,115,114982,1,0,1:0:0:0:
163,112,115058,1,2,1:2:0:0:
151,109,115135,1,0,1:0:0:0:
114,136,115212,5,10,2:0:0:0:
76,112,115288,1,0,1:0:0:0:
28,119,115365,1,0,1:0:0:0:
4,157,115441,1,0,1:0:0:0:
14,201,115518,5,8,2:0:0:0:
12,212,115594,1,0,1:0:0:0:
35,250,115671,1,0,1:0:0:0:
33,261,115747,1,0,1:0:0:0:
8,298,115824,5,12,2:3:0:0:
7,292,115900,1,12,2:3:0:0:
6,286,115977,1,12,2:3:0:0:
5,280,116053,1,12,2:3:0:0:
33,261,116130,6,0,L|78:274,1,37.5000014305115,6|0,2:0|2:0,2:0:0:0:
399,310,116436,6,0,B|319:298|328:355|251:341,1,150.000005722046,6|2,1:2|1:2,2:0:0:0:
406,316,116895,6,0,L|393:226,1,89.9999972534181,10|0,2:0|2:0,2:0:0:0:
279,119,117201,1,0,1:0:0:0:
292,30,117354,2,0,L|279:120,1,89.9999972534181,8|0,2:0|2:0,2:0:0:0:
82,226,117661,6,0,P|60:183|88:83,1,150.000005722046,0|2,1:0|1:2,2:0:0:0:
152,156,118120,1,8,2:0:0:0:
350,24,118273,2,0,P|293:38|254:42,1,89.9999972534181,2|0,2:0|1:0,2:0:0:0:
401,244,118579,2,0,P|473:226|523:221,1,112.500004291535,10|0,2:0|2:0,2:0:0:0:
433,146,118885,6,0,P|412:127|402:147,1,44.999998626709,8|0,2:0|2:0,2:0:0:0:
263,244,119344,6,0,B|260:250|260:250|268:293,1,44.999998626709,8|0,2:0|2:0,2:0:0:0:
98,350,119803,6,0,B|95:344|95:344|103:301,1,44.999998626709,8|0,2:0|2:0,2:0:0:0:
25,121,120110,6,0,B|88:112|88:112|105:118,1,75.0000028610231,8|0,2:0|2:0,2:0:0:0:
155,36,120263,2,0,B|165:39|165:39|228:30,1,75.0000028610231,8|0,2:0|2:0,2:0:0:0:
294,117,120416,2,0,P|332:118|365:160,1,75.0000028610231,8|0,2:0|2:0,2:0:0:0:
422,49,120569,2,0,P|460:48|493:6,1,75.0000028610231,8|0,2:0|2:0,2:0:0:0:
488,145,120722,5,10,2:0:0:0:
487,151,120798,1,8,2:3:0:0:
486,157,120875,1,12,2:3:0:0:
485,163,120951,1,12,2:3:0:0:
485,169,121028,2,0,P|491:215|496:258,1,75,4|0,1:2|2:0,2:0:0:0:
384,317,121334,6,0,L|396:215,1,100,4|0,1:0|1:0,2:0:0:0:
147,384,121640,2,0,P|195:311|282:302,1,179.999994506836,8|0,2:0|2:0,2:0:0:0:
294,320,121946,1,2,2:0:0:0:
106,236,122099,1,0,1:0:0:0:
261,110,122252,1,8,2:0:0:0:
216,219,122405,6,0,L|208:178,2,40,2|2|0,2:0|2:0|1:0,2:0:0:0:
209,226,122712,1,0,1:0:0:0:
33,87,122865,2,0,P|67:133|125:130,1,119.999996337891,10|0,2:0|2:0,2:0:0:0:
248,6,123171,6,0,B|279:31|279:31|258:122,1,119.999996337891,0|2,2:0|1:2,2:0:0:0:
298,198,123400,1,2,2:0:0:0:
298,198,123477,2,0,P|352:148|440:153,1,150,8|0,2:0|2:0,2:0:0:0:
393,236,123783,5,2,1:2:0:0:
124,130,123936,1,0,1:0:0:0:
320,39,124089,1,10,2:0:0:0:
212,316,124242,2,0,P|161:307|109:302,1,100,2|0,2:0|2:0,2:0:0:0:
295,195,124548,1,2,1:2:0:0:
320,377,124701,6,0,L|299:198,1,179.999994506836,8|0,2:0|2:0,2:0:0:0:
228,134,125007,2,0,P|235:110|236:85,2,50,2|2|2,1:2|2:0|1:2,2:0:0:0:
393,236,125314,2,0,P|433:264|483:265,1,100,8|0,2:0|2:0,2:0:0:0:
211,218,125620,6,0,L|45:238,1,165.000005035401,2|0,2:0|2:0,2:0:0:0:
22,154,125926,2,0,P|71:155|112:183,1,100,10|2,2:0|2:0,2:0:0:0:
257,312,126232,5,6,1:2:0:0:
346,332,126385,1,0,1:0:0:0:
177,127,126538,5,10,2:0:0:0:
316,53,126691,1,0,2:0:0:0:
211,218,126844,5,2,2:0:0:0:
478,279,126997,1,0,1:0:0:0:
512,190,127150,2,0,P|458:187|412:215,1,110.000003356934,10|2,2:0|2:0,2:0:0:0:
353,322,127380,5,2,2:0:0:0:
346,332,127456,2,0,L|312:144,1,179.999994506836,2|0,1:2|2:0,2:0:0:0:
405,40,127763,2,0,L|395:121,1,80,8|0,2:0|2:0,2:0:0:0:
254,313,128069,5,2,2:0:0:0:
234,319,128222,1,2,1:2:0:0:
124,248,128375,5,10,2:0:0:0:
163,148,128528,1,2,1:2:0:0:
38,149,128681,5,12,2:0:0:0:
59,161,128835,1,0,1:0:0:0:
98,66,128988,5,10,2:0:0:0:
153,343,129141,1,0,1:0:0:0:
260,201,129294,5,10,2:0:0:0:
23,267,129447,1,0,1:0:0:0:
321,275,129600,5,10,2:0:0:0:
5,75,129753,1,2,1:2:0:0:
249,7,129906,5,10,2:0:0:0:
238,97,130059,1,0,1:0:0:0:
374,202,130212,5,8,2:0:0:0:
358,110,130365,1,0,1:0:0:0:
205,276,130518,5,10,2:0:0:0:
261,202,130671,1,2,1:2:0:0:
266,211,130748,1,0,1:0:0:0:
275,206,130824,2,0,B|336:221|336:221|365:266|365:266|431:285,1,179.999994506836,4|0,1:2|2:0,2:0:0:0:
452,143,131130,6,0,P|498:172|458:140,1,179.999994506836,4|0,1:0|2:0,2:0:0:0:
326,74,131436,2,0,L|420:56,1,80,8|0,2:0|2:0,2:0:0:0:
160,180,131742,6,0,P|125:154|30:160,1,120,2|0,1:2|2:0,2:0:0:0:
0,259,132048,2,0,P|27:256|52:249,1,50,8|0,2:0|2:0,2:0:0:0:
121,374,132201,1,2,2:0:0:0:
123,384,132278,1,2,2:0:0:0:
129,376,132354,6,0,L|146:287,1,80,0|0,1:0|2:0,2:0:0:0:
358,59,132661,2,0,B|272:20|272:20|312:174,1,239.999992675781,10|0,2:0|1:0,2:0:0:0:
387,210,133120,1,0,2:0:0:0:
241,375,133273,2,0,P|277:341|385:340,1,150,10|0,2:0|2:0,2:0:0:0:
233,267,133579,6,0,P|190:263|150:253,1,80,2|0,1:2|2:0,2:0:0:0:
0,357,133885,1,10,2:0:0:0:
46,72,134038,1,2,2:0:0:0:
54,66,134115,1,2,2:0:0:0:
56,76,134191,2,0,L|77:204,1,120,0|0,1:0|2:0,2:0:0:0:
165,93,134497,2,0,P|180:43|176:8,1,80,10|2,2:0|2:0,2:0:0:0:
398,169,134803,6,0,P|351:161|274:208,1,120,0|0,1:0|2:0,2:0:0:0:
253,278,135110,2,0,P|260:323|261:352,2,59.9999981689454,8|2|2,2:0|2:0|2:0,2:0:0:0:
360,297,135416,5,2,1:2:0:0:
161,326,135569,1,2,2:0:0:0:
360,297,135722,2,0,P|395:310|360:292,1,119.999996337891,10|2,2:0|2:0,2:0:0:0:
476,221,135951,1,2,2:0:0:0:
476,229,136028,6,0,P|418:234|333:174,1,150,4|0,1:2|2:0,2:0:0:0:
403,42,136334,2,0,P|411:81|414:133,1,80,10|0,2:0|2:0,2:0:0:0:
207,367,136640,2,0,P|199:328|196:276,1,80,2|2,1:2|1:2,2:0:0:0:
134,196,136870,1,2,2:0:0:0:
123,205,136946,2,0,B|100:211|100:211|25:195,1,80,10|2,2:0|2:0,2:0:0:0:
284,52,137252,5,0,1:0:0:0:
92,107,137405,1,2,2:0:0:0:
396,263,137559,6,0,P|354:221|259:226,1,150,10|0,2:0|2:0,2:0:0:0:
201,358,137865,6,0,B|193:284|193:284|187:277,1,80,2|0,1:2|2:0,2:0:0:0:
376,94,138171,2,0,B|372:98|372:98|364:172,1,80,10|2,2:0|2:0,2:0:0:0:
197,69,138477,5,10,2:0:0:0:
193,57,138630,1,0,1:0:0:0:
116,5,138783,5,10,2:0:0:0:
93,102,138936,1,0,1:0:0:0:
6,40,139089,5,10,2:0:0:0:
36,183,139242,1,0,1:0:0:0:
198,170,139395,5,10,2:0:0:0:
165,366,139548,1,0,1:0:0:0:
114,216,139701,5,10,2:0:0:0:
323,273,139854,1,0,1:0:0:0:
175,22,140007,5,10,2:0:0:0:
214,265,140161,1,2,1:2:0:0:
368,134,140314,5,10,2:0:0:0:
309,373,140467,1,2,1:2:0:0:
304,366,140543,1,0,1:0:0:0:
312,362,140620,2,0,B|350:251|350:251|287:272,1,179.999994506836,6|0,2:0|2:0,2:0:0:0:
206,308,140926,6,0,L|72:287,1,133.333333333333,6|2,1:2|2:0,2:0:0:0:
22,356,141232,2,0,P|-10:308|-5:260,1,100,10|2,2:0|2:0,2:0:0:0:
220,128,141538,6,0,P|228:179|236:231,1,100,2|0,2:0|1:0,2:0:0:0:
319,173,141844,1,10,2:0:0:0:
134,79,141997,1,2,2:0:0:0:
330,179,142150,6,0,P|388:180|442:121,1,133.333333333333,2|2,1:2|2:0,2:0:0:0:
359,98,142456,2,0,L|375:-4,1,100,10|2,2:0|2:0,2:0:0:0:
233,120,142763,2,0,P|224:91|242:114,1,80,2|0,2:0|1:0,2:0:0:0:
512,297,143069,6,0,B|455:303|446:263|381:271,1,133.333333333333,10|2,2:0|2:0,2:0:0:0:
322,325,143375,1,2,1:2:0:0:
57,223,143579,5,2,2:0:0:0:
109,159,143681,2,0,P|99:224|88:290,1,133.333333333333,10|2,2:0|2:0,2:0:0:0:
18,369,143987,2,0,L|7:303,1,66.6666666666667,2|0,2:0|2:0,2:0:0:0:
210,192,144191,5,2,2:0:0:0:
291,226,144293,2,0,P|243:272|178:275,1,133.333333333333,10|2,2:0|2:0,2:0:0:0:
140,361,144599,5,2,1:2:0:0:
372,176,144752,2,0,P|423:183|474:191,1,100,2|8,2:0|2:0,2:0:0:0:
178,20,145110,5,2,2:0:0:0:
188,8,145212,1,2,2:0:0:0:
200,103,145365,1,2,1:2:0:0:
210,192,145518,1,8,2:0:0:0:
435,92,145824,5,0,1:0:0:0:
71,294,146130,5,10,2:0:0:0:
233,356,146283,1,2,2:0:0:0:
146,379,146436,2,0,L|161:275,1,100,2|2,2:0|1:2,2:0:0:0:
90,206,146742,5,10,2:0:0:0:
90,206,146895,1,2,2:0:0:0:
51,380,147048,5,2,1:2:0:0:
243,270,147201,1,2,2:0:0:0:
314,333,147354,2,0,P|378:373|448:355,1,150,10|0,2:0|2:0,2:0:0:0:
502,286,147661,6,0,L|486:182,1,100,2|2,2:0|1:2,2:0:0:0:
273,91,147967,5,10,2:0:0:0:
258,179,148120,1,2,2:0:0:0:
212,21,148273,5,14,2:0:0:0:
319,243,148426,1,2,1:2:0:0:
375,66,148579,5,10,2:0:0:0:
152,181,148732,1,2,1:2:0:0:
225,341,148885,5,10,2:0:0:0:
258,179,149038,1,2,1:2:0:0:
419,213,149191,1,10,2:0:0:0:
386,374,149344,1,2,1:2:0:0:
188,258,149497,5,10,2:0:0:0:
342,168,149650,1,0,1:0:0:0:
163,99,149803,5,10,2:0:0:0:
408,294,149956,1,0,1:0:0:0:
131,384,150110,1,8,2:0:0:0:
297,271,150263,5,0,1:0:0:0:
287,277,150339,1,0,1:0:0:0:
282,266,150416,2,0,P|300:173|318:85,1,179.999994506836,6|0,2:0|2:0,2:0:0:0:
433,38,150722,6,0,P|478:38|434:30,1,133.333333333333,6|2,1:2|2:0,2:0:0:0:
405,140,151028,2,0,P|420:187|426:237,1,100,10|2,2:0|2:0,2:0:0:0:
260,348,151334,2,0,P|244:300|238:250,1,100,2|0,2:0|1:0,2:0:0:0:
300,180,151640,1,10,2:0:0:0:
120,249,151793,1,2,2:0:0:0:
307,171,151946,6,0,P|323:103|274:37,1,133.333333333333,2|2,1:2|2:0,2:0:0:0:
202,3,152252,2,0,P|186:97|182:112,1,100,10|2,2:0|2:0,2:0:0:0:
34,186,152559,2,0,B|6:141|6:141|63:168,1,100,2|0,2:0|1:0,2:0:0:0:
195,279,152865,2,0,P|136:265|72:301,1,133.333333333333,10|2,2:0|2:0,2:0:0:0:
148,358,153171,5,2,1:2:0:0:
386,194,153375,1,2,2:0:0:0:
324,132,153477,2,0,L|351:270,1,133.333333333333,10|2,2:0|2:0,2:0:0:0:
449,362,153783,2,0,P|478:324|462:240,1,133.333333333333,2|2,2:0|2:0,2:0:0:0:
343,359,154089,2,0,P|292:348|263:346,1,66.6666666666667,10|0,2:0|2:0,2:0:0:0:
135,227,154293,1,2,2:0:0:0:
83,300,154395,6,0,P|148:315|213:267,1,133.333333333333,2|2,1:2|2:0,2:0:0:0:
295,177,154701,2,0,L|287:233,1,50,10|0,2:0|2:0,2:0:0:0:
242,101,154854,1,2,1:2:0:0:
407,200,155007,5,10,2:0:0:0:
236,90,155161,1,0,1:0:0:0:
495,36,155314,2,0,P|434:19|355:88,1,150,8|0,2:0|2:0,2:0:0:0:
421,213,155620,6,0,P|433:153|443:109,1,100,12|0,2:0|1:0,2:0:0:0:
222,244,155926,1,0,1:0:0:0:
324,384,156079,2,0,P|312:324|302:280,1,100,12|0,2:0|1:0,2:0:0:0:
82,169,156385,1,0,1:0:0:0:
170,13,156538,2,0,P|159:61|149:110,1,100,10|0,2:0|2:0,2:0:0:0:
27,324,156844,6,0,P|3:285|12:223,1,100,14|0,2:0|1:0,2:0:0:0:
110,364,157150,1,2,1:2:0:0:
328,217,157303,2,0,P|352:178|343:116,1,100,12|0,2:0|1:0,2:0:0:0:
249,262,157610,1,0,1:0:0:0:
90,52,157763,5,10,2:0:0:0:
242,156,157916,1,2,2:0:0:0:
56,170,158069,5,10,2:0:0:0:
275,39,158222,1,0,1:0:0:0:
73,38,158375,5,10,2:0:0:0:
262,168,158528,1,0,1:0:0:0:
130,339,158681,5,10,2:0:0:0:
161,115,158834,1,0,1:0:0:0:
385,146,158987,1,10,2:0:0:0:
354,370,159140,6,0,B|314:356|272:315|197:252|217:144|351:210|320:311|256:367,1,359.999989013672,4|8,2:0|2:3,2:0:0:0:
243,374,160135,2,0,L|206:381,1,29.9999990844727,4|8,2:3|2:3,2:0:0:0:
383,240,160518,5,6,1:2:0:0:
383,240,160824,1,2,1:2:0:0:
383,240,161130,1,0,2:0:0:0:
219,117,161436,2,0,L|136:99,1,80,10|2,2:0|1:2,2:0:0:0:
140,100,162354,1,0,2:0:0:0:
60,137,162507,5,8,2:0:0:0:
268,46,162661,1,8,2:0:0:0:
348,97,162967,5,2,1:2:0:0:
348,97,163273,1,2,1:2:0:0:
348,97,163579,1,0,2:0:0:0:
249,201,163885,2,0,L|267:284,1,80,10|0,2:0|1:0,2:0:0:0:
265,279,164803,1,2,2:0:0:0:
202,344,164957,5,8,2:0:0:0:
333,186,165110,1,8,2:0:0:0:
156,226,165339,5,0,2:0:0:0:
156,226,165416,1,2,1:2:0:0:
66,246,165722,1,2,1:2:0:0:
66,246,166028,1,2,2:0:0:0:
285,367,166334,2,0,P|323:357|368:349,1,80,10|2,2:0|1:2,2:0:0:0:
363,349,167252,1,10,2:0:0:0:
314,178,167559,6,0,P|293:223|303:280,1,100,10|0,2:0|1:0,2:0:0:0:
452,381,168171,1,10,2:0:0:0:
166,304,168400,1,2,2:0:0:0:
166,304,168477,1,2,1:2:0:0:
377,238,168783,2,0,L|346:96,1,139.999995727539,10|8,2:0|2:3,2:0:0:0:
347,101,169701,1,4,2:3:0:0:
256,192,170314,5,6,2:0:0:0:
416,183,177661,6,0,P|386:143|309:143,1,122.499996261597,4|0,1:2|2:0,2:0:0:0:
235,80,178273,6,0,B|169:45|169:45|206:199,1,209.999993591309,4|0,1:2|2:0,2:0:0:0:
133,254,178885,6,0,P|99:268|65:265,1,59.9999981689454,8|0,2:0|2:0,2:0:0:0:
221,317,179038,2,0,B|212:368|212:368|215:385,1,59.9999981689454,8|0,2:0|2:0,2:0:0:0:
285,236,179191,2,0,P|319:250|353:247,1,59.9999981689454,8|0,2:0|2:0,2:0:0:0:
416,190,179344,2,0,B|407:139|407:139|408:130,1,59.9999981689454,12|0,2:0|2:0,2:0:0:0:
511,165,179497,6,0,L|489:330,1,160,0|0,2:0|2:0,2:0:0:0:
490,324,181487,2,0,L|497:359,2,25,8|8|8,2:3|2:3|2:3,2:0:0:0:
482,315,181946,6,0,P|430:370|490:324,1,225.000008583069,4|0,1:0|2:0,2:0:0:0:
331,375,182252,2,0,P|282:366|214:359,1,100,8|2,2:0|2:0,2:0:0:0:
114,280,182482,1,2,2:0:0:0:
114,280,182559,6,0,P|166:288|209:251,1,100,2|0,1:2|2:0,2:0:0:0:
348,45,182865,2,0,P|338:96|332:154,1,100,10|0,2:0|2:0,2:0:0:0:
146,200,183171,1,0,1:0:0:0:
221,14,183324,1,2,2:0:0:0:
0,114,183477,6,0,P|66:133|136:83,1,150,8|0,2:0|2:0,2:0:0:0:
221,14,183783,6,0,P|164:9|105:-6,1,100,2|0,1:2|2:0,2:0:0:0:
331,142,184089,1,10,2:0:0:0:
168,250,184242,2,0,P|217:239|267:236,1,100,2|0,2:0|1:0,2:0:0:0:
446,78,184548,1,2,2:0:0:0:
336,4,184701,2,0,P|311:53|339:151,1,150,8|0,2:0|2:0,2:0:0:0:
403,199,185007,6,0,P|434:186|456:184,2,50,2|2|2,1:2|2:0|2:0,2:0:0:0:
281,348,185314,6,0,B|193:353|224:310|115:320,1,150,8|0,2:0|2:0,2:0:0:0:
57,270,185620,2,0,B|42:316|42:316|59:380,1,100,2|2,1:2|2:0,2:0:0:0:
166,215,185849,1,2,2:0:0:0:
166,215,185926,2,0,P|161:160|150:103,1,100,10|2,2:0|2:0,2:0:0:0:
500,132,186232,6,0,P|452:181|354:174,1,150,6|0,1:2|2:0,2:0:0:0:
301,135,186538,5,10,2:0:0:0:
410,95,186691,1,2,2:0:0:0:
325,331,186844,5,2,1:2:0:0:
436,350,186997,1,2,2:0:0:0:
228,199,187150,2,0,P|174:212|122:218,1,100,10|2,2:0|2:0,2:0:0:0:
56,127,187380,5,2,2:0:0:0:
56,126,187456,2,0,P|5:161|63:139,1,179.999994506836,2|0,1:2|2:0,2:0:0:0:
163,99,187763,2,0,B|180:52|180:52|168:4,1,100,8|0,2:0|2:0,2:0:0:0:
86,46,188069,5,2,1:2:0:0:
78,44,188222,2,0,L|21:33,2,50,2|2|10,2:0|2:0|2:0,2:0:0:0:
163,99,188528,1,2,2:0:0:0:
22,236,188681,5,12,2:0:0:0:
18,219,188835,1,0,1:0:0:0:
104,187,188988,5,10,2:0:0:0:
67,355,189141,1,0,1:0:0:0:
228,298,189294,5,10,2:0:0:0:
22,236,189447,1,0,1:0:0:0:
337,166,189600,5,10,2:0:0:0:
130,275,189753,1,2,1:2:0:0:
296,53,189906,5,10,2:0:0:0:
512,107,190059,1,0,1:0:0:0:
458,323,190212,1,8,2:0:0:0:
242,269,190365,1,0,1:0:0:0:
418,19,190518,5,10,2:0:0:0:
178,164,190671,1,2,1:2:0:0:
169,160,190748,1,0,1:0:0:0:
163,168,190824,2,0,P|85:161|57:59,1,179.999994506836,4|0,1:2|2:0,2:0:0:0:
140,82,191130,6,0,L|107:268,1,179.999994506836,4|0,1:0|2:0,2:0:0:0:
56,334,191436,2,0,P|23:286|24:227,1,119.999996337891,8|0,2:0|2:0,2:0:0:0:
334,282,191742,6,0,P|275:240|199:250,1,150,2|0,1:2|2:0,2:0:0:0:
153,341,192048,2,0,P|202:331|252:324,1,100,8|2,2:0|2:0,2:0:0:0:
428,335,192278,1,2,2:0:0:0:
419,343,192354,2,0,B|410:326|410:326|432:245,1,100,0|0,1:0|2:0,2:0:0:0:
340,111,192661,6,0,B|247:55|247:55|290:219,1,259.999988098145,10|0,2:0|1:0,2:0:0:0:
381,33,193120,1,0,2:0:0:0:
184,160,193273,2,0,B|114:151|104:197|39:190,1,150,10|0,2:0|2:0,2:0:0:0:
17,64,193579,6,0,P|65:76|115:81,1,100,2|0,1:2|2:0,2:0:0:0:
265,294,193885,1,10,2:0:0:0:
32,381,194038,1,2,2:0:0:0:
30,375,194115,1,2,2:0:0:0:
22,382,194191,2,0,P|-9:328|9:265,1,120,0|0,1:0|2:0,2:0:0:0:
82,297,194497,2,0,P|130:285|180:280,1,100,10|2,2:0|2:0,2:0:0:0:
297,94,194803,5,2,1:2:0:0:
298,84,194879,1,2,2:0:0:0:
300,74,194956,1,2,2:0:0:0:
302,64,195032,1,2,2:0:0:0:
249,10,195110,2,0,L|284:205,1,194.999991073609,8|0,2:0|2:0,2:0:0:0:
285,217,195416,5,2,1:2:0:0:
128,154,195569,1,2,2:0:0:0:
246,375,195722,1,10,2:0:0:0:
479,252,195875,5,2,2:0:0:0:
479,252,195951,1,2,2:0:0:0:
479,252,196028,2,0,P|398:245|318:314,1,179.999994506836,4|0,1:2|2:0,2:0:0:0:
424,341,196334,2,0,P|470:346|514:357,1,89.9999972534181,10|0,2:0|2:0,2:0:0:0:
217,282,196640,2,0,L|20:316,1,200,2|10,1:2|2:0,2:0:0:0:
224,0,197099,5,2,2:0:0:0:
224,0,197176,1,2,2:0:0:0:
224,0,197252,2,0,B|272:38|272:38|240:164,1,179.999994506836,0|0,1:0|2:0,2:0:0:0:
250,159,197559,1,10,2:0:0:0:
166,79,197712,1,2,2:0:0:0:
317,227,197865,6,0,P|365:221|391:167,1,100,2|0,1:2|2:0,2:0:0:0:
100,232,198171,2,0,P|173:235|224:288,1,150,10|0,2:0|2:0,2:0:0:0:
227,298,198477,5,10,2:0:0:0:
135,328,198630,1,0,1:0:0:0:
250,159,198783,5,10,2:0:0:0:
306,353,198937,1,0,1:0:0:0:
52,302,199090,5,10,2:0:0:0:
306,233,199243,1,0,1:0:0:0:
126,141,199396,5,10,2:0:0:0:
388,271,199549,1,0,1:0:0:0:
227,298,199701,5,10,2:0:0:0:
182,54,199855,1,0,1:0:0:0:
147,363,200007,5,10,2:0:0:0:
268,13,200161,1,2,1:2:0:0:
25,132,200314,5,10,2:0:0:0:
388,271,200467,1,2,1:2:0:0:
394,263,200543,1,0,1:0:0:0:
399,268,200620,2,0,P|448:258|496:247,1,100,6|0,2:0|2:0,2:0:0:0:
287,101,200926,5,14,2:0:0:0:
374,132,201079,1,0,1:0:0:0:
199,98,201232,5,10,2:0:0:0:
333,17,201385,1,0,1:0:0:0:
157,202,201538,5,10,2:0:0:0:
160,17,201691,1,0,1:0:0:0:
203,291,201844,5,10,2:0:0:0:
26,92,201997,1,0,1:0:0:0:
324,74,202150,5,10,2:0:0:0:
258,375,202303,1,0,1:0:0:0:
323,64,202456,5,10,2:0:0:0:
260,384,202610,1,0,1:0:0:0:
200,32,202763,5,10,2:0:0:0:
407,245,202916,1,0,1:0:0:0:
417,251,202992,1,0,1:0:0:0:
407,256,203069,1,10,2:0:0:0:
124,342,203222,1,0,1:0:0:0:
14,191,203375,5,14,2:0:0:0:
280,259,203528,1,0,1:0:0:0:
6,195,203681,5,8,2:0:0:0:
290,254,203834,1,0,1:0:0:0:
169,168,203987,5,8,2:0:0:0:
439,96,204140,1,0,1:0:0:0:
274,33,204293,5,8,2:0:0:0:
512,196,204446,1,0,1:0:0:0:
253,344,204599,1,6,1:2:0:0:
92,192,205365,5,0,1:0:0:0:
90,182,205441,1,0,1:0:0:0:
99,185,205518,1,8,2:0:0:0:
99,185,205824,6,0,B|46:156|46:156|77:284,1,179.999994506836,6|0,1:2|2:0,2:0:0:0:
132,330,206130,1,8,2:0:0:0:
256,139,206283,6,0,B|272:12|272:12|260:48|221:55,1,179.999994506836,6|0,1:2|2:0,2:0:0:0:
160,80,206589,1,8,2:0:0:0:
326,227,206742,6,0,P|352:191|483:189,1,179.999994506836,6|0,1:2|2:0,2:0:0:0:
444,258,207048,1,8,2:0:0:0:
267,355,207201,6,0,B|174:361|193:306|89:317,1,179.999994506836,6|0,1:2|2:0,2:0:0:0:
27,265,207507,1,8,2:0:0:0:
103,153,207661,6,0,B|105:147|105:147|97:91,1,59.9999981689454,2|0,1:2|2:0,2:0:0:0:
208,59,207814,2,0,B|206:53|206:53|214:-3,1,59.9999981689454,2|0,1:2|2:0,2:0:0:0:
285,135,207967,2,0,P|316:148|355:145,1,59.9999981689454,2|0,1:2|2:0,2:0:0:0:
437,212,208120,6,0,P|486:220|436:217,1,149.999995422363,6|0,1:2|2:0,2:0:0:0:
