osu file format v14

[General]
AudioFilename: audio.mp3
AudioLeadIn: 0
PreviewTime: 61870
Countdown: 0
SampleSet: Soft
StackLeniency: 0.3
Mode: 0
LetterboxInBreaks: 0
WidescreenStoryboard: 1

[Editor]
Bookmarks: 12967,22763,32559,42355,52151,62559,72354,82150,91946,101742,111538,121334,131130,140926,150722,160518,170314,170467,170620,170773,170849,171002,171155,171309,171462,171615,171768,171921,172150,172303,172380,172533,172686,172839,172992,173145,173298,173451,173528,173681,173834,173987,174140,174217,174370,174523,174676,174829,174905,175059,175212,175365,175518,175671,175824,175977,176130,176206,176360,176589,176742,176895,177048,177201,177354,177507,177584,177661,191130,200926,208885
DistanceSpacing: 1.2
BeatDivisor: 4
GridSize: 16
TimelineZoom: 3.499999

[Metadata]
Title:Yoru o Koeru Ashioto
TitleUnicode:夜を越える足音
Artist:Mitei no Hanashi
ArtistUnicode:ミテイノハナシ
Creator:Ascended
Version:Hard
Source:ピーチボーイリバーサイド
Tags:wo footsteps beyond the night arronchu1207 AirinCat Haruto Haruto_Aizawa Kyouren gokugohan12468 KittyAdventure jrock j-rock japanese peach boy riverside anime ed ending Aru.
BeatmapID:4136138
BeatmapSetID:1990332

[Difficulty]
HPDrainRate:4.5
CircleSize:3.3
OverallDifficulty:6
ApproachRate:7.5
SliderMultiplier:1.3
SliderTickRate:1

[Events]
//Background and Video events
0,0,"there are no good backgrounds.jpg",0,0
//Break Periods
2,160718,169489
2,170514,176836
2,179697,180662
//Storyboard Layer 0 (Background)
//Storyboard Layer 1 (Fail)
//Storyboard Layer 2 (Pass)
//Storyboard Layer 3 (Foreground)
//Storyboard Layer 4 (Overlay)
//Storyboard Sound Samples

[TimingPoints]
1637,315.789473684211,4,2,1,40,1,0
11742,-100,4,2,1,60,0,0
11743,306.122448979592,4,2,1,60,1,0
12967,-100,4,2,1,70,0,0
13196,-100,4,2,1,5,0,0
13273,-100,4,2,1,70,0,0
15645,-100,4,2,1,5,0,0
15722,-100,4,2,1,70,0,0
18094,-100,4,2,1,5,0,0
18171,-100,4,2,1,70,0,0
20543,-100,4,2,1,5,0,0
20620,-100,4,2,1,70,0,0
21845,-133.333333333333,4,2,1,70,0,0
22763,-125,4,2,1,50,0,0
32559,-111.111111111111,4,2,1,60,0,0
42355,-111.111111111111,4,2,1,55,0,0
50926,-100,4,2,1,55,0,0
51155,-100,4,2,1,5,0,0
51232,-100,4,2,1,55,0,0
51614,-100,4,2,1,5,0,0
51691,-100,4,2,1,55,0,0
52151,-125,4,2,1,50,0,0
56436,-125,4,2,1,55,0,0
57049,-111.111111111111,4,2,1,60,0,0
59498,-100,4,2,1,70,0,0
61334,-133.333333333333,4,2,1,60,0,0
61947,-133.333333333333,4,2,1,65,0,0
62253,-133.333333333333,4,2,1,70,0,0
62559,306.122448979592,4,2,1,80,1,1
62559,-90.9090909090909,4,2,1,80,0,1
63094,-90.9090909090909,4,2,1,5,0,1
63171,-90.9090909090909,4,2,1,80,0,1
64931,-90.9090909090909,4,2,1,5,0,1
65007,-90.9090909090909,4,2,1,80,0,1
66155,-90.9090909090909,4,2,1,5,0,1
66232,-90.9090909090909,4,2,1,80,0,1
66767,-90.9090909090909,4,2,1,5,0,1
66844,-90.9090909090909,4,2,1,80,0,1
68604,-90.9090909090909,4,2,1,5,0,1
68681,-90.9090909090909,4,2,1,80,0,1
69216,-90.9090909090909,4,2,1,5,0,1
69293,-90.9090909090909,4,2,1,80,0,1
72583,-90.9090909090909,4,2,1,5,0,1
72661,-90.9090909090909,4,2,1,80,0,1
74726,-90.9090909090909,4,2,1,5,0,1
74803,-90.9090909090909,4,2,1,80,0,1
79319,-90.9090909090909,4,2,1,5,0,1
79395,-90.9090909090909,4,2,1,80,0,1
82150,-100,4,2,1,70,0,0
82379,-100,4,2,1,5,0,0
82456,-100,4,2,1,70,0,0
84828,-100,4,2,1,5,0,0
84905,-100,4,2,1,70,0,0
87277,-100,4,2,1,5,0,0
87354,-100,4,2,1,70,0,0
89726,-100,4,2,1,5,0,0
89803,-100,4,2,1,70,0,0
91946,-125,4,2,1,50,0,0
96767,-125,4,2,1,5,0,0
96844,-125,4,2,1,50,0,0
100671,-111.111111111111,4,2,1,50,0,0
101742,-111.111111111111,4,2,1,60,0,0
111538,-111.111111111111,4,2,1,55,0,0
116436,-111.111111111111,4,2,1,60,0,0
118885,-111.111111111111,4,2,1,70,0,0
120722,-111.111111111111,4,2,1,60,0,0
121334,-90.9090909090909,4,2,1,80,0,1
121869,-90.9090909090909,4,2,1,5,0,1
121946,-90.9090909090909,4,2,1,80,0,1
123705,-90.9090909090909,4,2,1,5,0,1
123782,-90.9090909090909,4,2,1,80,0,1
124930,-90.9090909090909,4,2,1,5,0,1
125007,-90.9090909090909,4,2,1,80,0,1
125542,-90.9090909090909,4,2,1,5,0,1
125619,-90.9090909090909,4,2,1,80,0,1
127380,-90.9090909090909,4,2,1,5,0,1
127456,-90.9090909090909,4,2,1,80,0,1
127991,-90.9090909090909,4,2,1,5,0,1
128068,-90.9090909090909,4,2,1,80,0,1
131359,-90.9090909090909,4,2,1,5,0,1
131436,-90.9090909090909,4,2,1,80,0,1
133501,-90.9090909090909,4,2,1,5,0,1
133578,-90.9090909090909,4,2,1,80,0,1
138093,-90.9090909090909,4,2,1,5,0,1
138170,-90.9090909090909,4,2,1,80,0,1
140926,-100,4,2,1,65,0,0
160518,-100,4,2,1,45,0,0
177661,-133.333333333333,4,2,1,65,0,0
181487,-133.333333333333,4,2,1,50,0,0
181946,-90.9090909090909,4,2,1,80,0,1
183705,-90.9090909090909,4,2,1,5,0,1
183782,-90.9090909090909,4,2,1,80,0,1
184930,-90.9090909090909,4,2,1,5,0,1
185007,-90.9090909090909,4,2,1,80,0,1
185542,-90.9090909090909,4,2,1,5,0,1
185619,-90.9090909090909,4,2,1,80,0,1
187380,-90.9090909090909,4,2,1,5,0,1
187456,-90.9090909090909,4,2,1,80,0,1
187991,-90.9090909090909,4,2,1,5,0,1
188068,-90.9090909090909,4,2,1,80,0,1
191359,-90.9090909090909,4,2,1,5,0,1
191436,-90.9090909090909,4,2,1,80,0,1
193501,-90.9090909090909,4,2,1,5,0,1
193579,-90.9090909090909,4,2,1,80,0,1
198094,-90.9090909090909,4,2,1,5,0,1
198171,-90.9090909090909,4,2,1,80,0,1
204599,-90.9090909090909,4,2,1,70,0,0
206053,-90.9090909090909,4,2,1,5,0,0
206130,-90.9090909090909,4,2,1,70,0,0
206971,-90.9090909090909,4,2,1,5,0,0
207048,-90.9090909090909,4,2,1,70,0,0
208120,-133.333333333333,4,2,1,70,0,1
208885,-133.333333333333,4,2,99,30,0,0

[Colours]
Combo1 : 236,183,83
Combo2 : 183,183,255

[HitObjects]
482,13,11742,5,2,2:0:0:0:
482,13,12049,1,2,2:0:0:0:
482,13,12355,2,0,L|487:47,3,32.5,8|8|4|8,2:3|2:3|2:3|2:3,2:0:0:0:
493,77,12661,1,4,1:2:0:0:
346,35,12967,6,0,P|298:45|277:92,1,97.5,6|0,1:2|2:0,2:0:0:0:
257,101,13273,2,0,P|263:132|268:165,1,65,10|0,2:0|2:0,2:0:0:0:
335,220,13579,2,0,P|329:251|325:284,1,65,2|0,2:0|1:0,2:0:0:0:
246,315,13885,2,0,B|177:302|185:349|117:338,2,130,10|0|10,2:0|1:0|2:0,2:0:0:0:
318,372,14651,1,0,2:0:0:0:
318,372,14804,2,0,P|349:367|382:361,1,65,2|0,2:0|1:0,2:0:0:0:
454,308,15110,1,8,2:0:0:0:
400,136,15416,6,0,P|349:144|297:152,1,97.5,2|0,1:2|2:0,2:0:0:0:
294,170,15722,2,0,P|260:164|226:159,1,65,10|0,2:0|2:0,2:0:0:0:
154,198,16028,2,0,P|148:166|143:133,1,65,2|0,2:0|1:0,2:0:0:0:
85,63,16334,2,0,P|46:112|57:174,2,130,10|0|10,2:0|1:0|2:0,2:0:0:0:
173,52,17100,1,0,2:0:0:0:
173,52,17253,1,2,2:0:0:0:
287,168,17559,1,8,2:0:0:0:
203,326,17865,6,0,P|251:332|299:340,1,97.5,6|0,1:2|2:0,2:0:0:0:
315,325,18171,2,0,P|347:319|379:315,1,65,10|0,2:0|2:0,2:0:0:0:
467,337,18477,2,0,P|463:304|456:272,1,65,2|0,2:0|1:0,2:0:0:0:
409,197,18783,2,0,P|417:132|430:68,2,130,10|0|10,2:0|1:0|2:0,2:0:0:0:
327,235,19549,1,0,2:0:0:0:
327,235,19702,2,0,P|295:230|262:224,1,65,2|0,2:0|1:0,2:0:0:0:
176,211,20008,1,8,2:0:0:0:
57,86,20314,6,0,P|97:51|144:51,1,97.5,14|0,2:0|2:0,2:0:0:0:
157,63,20620,1,0,1:0:0:0:
258,14,20773,2,0,P|246:77|237:142,1,130,14|0,2:0|1:0,2:0:0:0:
324,110,21232,1,14,2:0:0:0:
176,211,21538,1,2,1:2:0:0:
245,287,21691,1,0,2:0:0:0:
245,287,21768,1,0,2:0:0:0:
245,287,21845,2,0,B|378:264|378:264|345:264|322:241,1,195.00000743866,6|0,2:0|2:0,2:0:0:0:
153,312,22763,6,0,P|149:340|144:365,2,52,2|0|0,1:2|2:0|1:0,2:0:0:0:
62,328,23222,1,2,2:0:0:0:
62,328,23375,2,0,P|32:284|48:232,1,104,0|2,1:0|1:2,2:0:0:0:
130,194,23834,1,0,2:0:0:0:
130,194,23987,1,2,1:2:0:0:
286,243,24294,1,2,1:2:0:0:
430,174,24600,2,0,P|436:120|445:63,1,104,2|2,1:2|1:2,2:0:0:0:
298,24,25212,6,0,P|270:27|242:32,1,52,2|2,1:2|2:0,2:0:0:0:
202,106,25518,2,0,P|174:102|145:98,1,52,2|2,1:2|2:0,2:0:0:0:
65,64,25824,2,0,P|68:37|73:9,2,52,2|0|2,1:2|2:0|1:2,2:0:0:0:
22,148,26283,1,0,2:0:0:0:
22,148,26436,1,2,1:2:0:0:
178,197,26743,1,2,1:2:0:0:
321,127,27049,2,0,P|328:181|336:239,1,104,0|2,1:0|1:2,2:0:0:0:
469,314,27661,5,2,1:2:0:0:
469,314,27814,2,0,P|415:320|374:352,1,104,2|2,2:0|2:0,2:0:0:0:
300,310,28273,2,0,P|274:307|248:303,1,52,2|0,1:2|2:0,2:0:0:0:
167,349,28579,1,2,1:2:0:0:
29,280,28885,2,0,P|36:228|42:176,2,104,2|2|0,1:2|1:2|1:0,2:0:0:0:
167,210,29804,1,2,1:2:0:0:
317,268,30110,6,0,P|358:237|409:231,1,104,2|2,1:2|1:2,2:0:0:0:
493,87,30722,1,2,1:2:0:0:
493,87,30875,2,0,P|489:61|486:35,1,52,2|2,2:0|1:2,2:0:0:0:
406,76,31181,1,0,2:0:0:0:
406,76,31334,1,12,2:0:0:0:
256,370,32559,6,0,P|205:338|145:340,1,116.999996429443,6|10,1:2|2:0,2:0:0:0:
71,290,33018,1,8,2:3:0:0:
71,290,33095,1,8,2:3:0:0:
71,290,33171,2,0,P|75:260|78:230,1,58.4999982147217,8|2,2:3|1:2,2:0:0:0:
132,157,33477,2,0,P|127:127|124:98,1,58.4999982147217,10|2,2:0|2:0,2:0:0:0:
60,38,33783,1,2,1:2:0:0:
213,92,34089,1,10,2:0:0:0:
281,48,34243,2,0,P|281:33|284:18,2,29.2499991073609,8|8|8,2:3|2:3|2:3,2:0:0:0:
295,133,34549,1,0,1:0:0:0:
295,133,34702,1,10,2:0:0:0:
265,320,35008,6,0,P|322:327|363:369,1,116.999996429443,2|10,1:2|2:0,2:0:0:0:
451,330,35468,1,8,2:3:0:0:
451,330,35545,1,8,2:3:0:0:
451,330,35621,2,0,P|454:300|459:271,1,58.4999982147217,8|0,2:3|1:0,2:0:0:0:
397,215,35927,2,0,P|393:185|388:156,1,58.4999982147217,10|0,2:0|2:0,2:0:0:0:
436,77,36233,2,0,P|464:74|493:69,2,58.4999982147217,2|0|8,1:2|1:0|2:0,2:0:0:0:
358,42,36692,2,0,P|357:27|354:12,2,29.2499991073609,8|8|8,2:3|2:3|2:3,2:0:0:0:
309,114,36998,1,2,1:2:0:0:
309,114,37150,1,10,2:0:0:0:
147,84,37457,6,0,P|155:141|163:199,1,116.999996429443,2|8,1:2|2:0,2:0:0:0:
237,272,37916,1,8,2:3:0:0:
237,272,37993,1,8,2:3:0:0:
237,272,38069,2,0,P|233:301|229:330,2,58.4999982147217,8|0|8,2:3|1:0|2:0,2:0:0:0:
149,294,38528,2,0,P|119:296|90:301,1,58.4999982147217,2|0,2:0|1:0,2:0:0:0:
20,239,38834,2,0,P|23:209|27:180,1,58.4999982147217,2|8,2:0|2:0,2:0:0:0:
56,96,39140,2,0,P|41:93|26:92,2,29.2499991073609,8|8|8,2:3|2:3|2:3,2:0:0:0:
126,159,39446,1,0,1:0:0:0:
126,159,39599,1,10,2:0:0:0:
268,99,39906,6,0,P|326:92|367:50,1,116.999996429443,2|10,1:2|2:0,2:0:0:0:
437,129,40365,1,8,2:3:0:0:
437,129,40442,1,8,2:3:0:0:
437,129,40518,2,0,P|440:159|445:188,1,58.4999982147217,8|0,2:3|1:0,2:0:0:0:
374,241,40824,2,0,P|345:236|316:232,1,58.4999982147217,10|2,2:0|2:0,2:0:0:0:
233,186,41130,1,8,2:0:0:0:
233,186,41283,1,0,1:0:0:0:
149,224,41436,1,0,1:0:0:0:
149,224,41589,2,0,P|89:224|59:269,1,116.999996429443,12|0,2:0|1:0,2:0:0:0:
77,302,41972,1,0,1:0:0:0:
77,302,42049,1,12,2:0:0:0:
248,360,42355,6,0,P|251:330|256:298,2,58.4999982147217,6|2|2,1:2|1:2|1:2,2:0:0:0:
339,343,42814,1,10,2:0:0:0:
339,343,42967,2,0,P|346:291|316:232,1,116.999996429443,2|10,2:0|2:0,2:0:0:0:
187,139,43579,6,0,P|157:135|128:130,2,58.4999982147217,2|2|2,1:2|1:2|1:2,2:0:0:0:
249,69,44038,2,0,P|309:62|372:53,1,116.999996429443,10|0,2:0|1:0,2:0:0:0:
414,129,44498,1,10,2:0:0:0:
493,259,44804,6,0,P|488:288|485:317,2,58.4999982147217,2|2|2,1:2|1:2|1:2,2:0:0:0:
401,277,45263,1,10,2:0:0:0:
401,277,45416,2,0,P|336:257|312:217,1,116.999996429443,2|10,2:0|2:0,2:0:0:0:
151,303,46028,5,2,1:2:0:0:
151,303,46181,2,0,P|122:298|92:295,1,58.4999982147217,2|2,1:2|1:2,2:0:0:0:
103,208,46487,2,0,P|163:201|226:192,1,116.999996429443,10|0,2:0|1:0,2:0:0:0:
312,217,46947,1,10,2:0:0:0:
457,99,47253,6,0,P|460:68|464:37,2,58.4999982147217,2|2|2,1:2|1:2|1:2,2:0:0:0:
377,56,47712,1,10,2:0:0:0:
377,56,47865,2,0,P|325:50|267:79,1,116.999996429443,2|8,2:0|2:0,2:0:0:0:
98,139,48477,6,0,P|68:135|39:130,2,58.4999982147217,2|2|2,1:2|1:2|1:2,2:0:0:0:
172,69,48936,2,0,P|178:128|188:192,1,116.999996429443,10|0,2:0|1:0,2:0:0:0:
114,244,49396,1,10,2:0:0:0:
267,323,49702,5,2,1:2:0:0:
267,323,49855,2,0,P|269:294|274:265,1,58.4999982147217,2|2,1:2|1:2,2:0:0:0:
363,304,50161,2,0,P|369:241|343:191,1,116.999996429443,10|0,2:0|1:0,2:0:0:0:
250,178,50620,2,0,P|220:181|191:185,1,58.4999982147217,10|2,2:0|2:0,2:0:0:0:
123,261,50926,6,0,P|69:265|27:243,1,97.5,10|0,2:0|2:0,2:0:0:0:
18,236,51232,1,0,2:0:0:0:
95,166,51385,2,0,P|88:116|81:68,1,97.5,10|0,2:0|2:0,2:0:0:0:
79,52,51691,1,0,2:0:0:0:
166,97,51845,1,10,2:0:0:0:
218,276,52151,6,0,B|251:286|251:286|272:318|272:318|308:331,5,104,4|2|2|2|2|2,2:0|2:3|2:3|2:3|2:3|2:3,2:0:0:0:
456,369,53987,2,0,P|478:332|475:270,1,104,2|2,2:3|2:3,2:0:0:0:
370,156,54600,2,0,P|348:193|351:255,1,104,2|2,2:3|2:3,2:0:0:0:
302,328,55059,1,0,2:0:0:0:
301,328,55212,2,0,P|276:331|250:334,1,52,2|0,2:3|2:0,2:0:0:0:
163,369,55518,2,0,P|159:343|155:317,1,52,2|0,2:3|2:0,2:0:0:0:
144,230,55824,2,0,P|92:234|47:211,1,104,2|2,2:3|2:3,2:0:0:0:
127,82,56436,2,0,P|128:69|130:56,3,26,12|12|12|12,2:3|2:3|2:3|2:3,2:0:0:0:
116,27,56743,1,6,2:0:0:0:
259,96,57049,6,0,P|266:153|271:212,1,116.999996429443,6|2,1:2|1:2,2:0:0:0:
214,284,57508,1,10,2:0:0:0:
346,359,57814,1,2,1:2:0:0:
346,359,57967,2,0,P|351:301|359:243,1,116.999996429443,10|0,2:0|1:0,2:0:0:0:
417,100,58579,2,0,P|387:97|359:93,1,58.4999982147217,2|8,1:2|2:0,2:0:0:0:
287,27,58885,2,0,P|238:61|240:116,1,116.999996429443,2|10,2:0|2:0,2:0:0:0:
164,252,59498,6,0,B|23:271|23:271|48:263|72:237,2,195,10|8|8,2:0|2:0|2:0,2:0:0:0:
164,252,60722,5,10,2:0:0:0:
164,252,60875,1,8,2:0:0:0:
242,197,61028,1,8,2:0:0:0:
242,197,61181,1,8,2:0:0:0:
329,218,61334,2,0,L|384:228,3,48.750001859665,2|2|2|2,2:0|2:0|2:0|2:0,2:0:0:0:
421,152,61947,2,0,L|416:124,4,24.3750009298325,14|12|12|12|4,2:3|2:3|2:3|2:3|1:2,2:0:0:0:
493,289,62559,6,0,P|457:293|422:299,1,71.5000021820069,4|0,1:0|1:0,2:0:0:0:
375,370,62865,2,0,P|320:353|311:299,1,107.25000327301,8|0,2:0|2:0,2:0:0:0:
294,292,63171,2,0,P|258:284|223:279,1,71.5000021820069,2|0,2:0|1:0,2:0:0:0:
145,325,63477,1,8,2:0:0:0:
116,246,63630,5,2,2:0:0:0:
116,246,63706,1,2,2:0:0:0:
116,246,63783,2,0,P|112:207|104:169,1,71.5000021820069,0|0,1:0|1:0,2:0:0:0:
25,127,64089,2,0,P|78:137|158:88,1,143.000004364014,10|2,2:0|2:0,2:0:0:0:
230,23,64548,1,2,1:2:0:0:
230,23,64701,2,0,P|240:75|248:128,1,107.25000327301,8|0,2:0|2:0,2:0:0:0:
270,148,65007,6,0,P|262:184|257:221,2,71.5000021820069,2|0|10,1:2|1:0|2:0,2:0:0:0:
333,70,65467,2,0,P|368:64|402:57,1,71.5000021820069,2|0,2:0|2:0,2:0:0:0:
467,143,65773,1,2,1:2:0:0:
467,143,65926,2,0,P|408:157|391:203,1,107.25000327301,8|0,2:0|2:0,2:0:0:0:
360,219,66232,6,0,P|362:237|365:256,2,35.7500010910034,2|2|0,1:2|2:0|1:0,2:0:0:0:
458,252,66538,2,0,P|448:305|441:358,1,107.25000327301,8|0,2:0|2:0,2:0:0:0:
399,375,66844,2,0,P|362:368|324:363,1,71.5000021820069,2|0,2:0|1:0,2:0:0:0:
242,325,67150,1,10,2:0:0:0:
242,325,67303,1,2,2:0:0:0:
258,236,67456,6,0,P|264:199|270:162,1,71.5000021820069,6|0,1:2|1:0,2:0:0:0:
325,84,67763,2,0,P|319:47|313:11,1,71.5000021820069,10|0,2:0|2:0,2:0:0:0:
238,64,68069,1,2,2:0:0:0:
238,64,68222,1,0,1:0:0:0:
160,24,68375,2,0,P|92:35|70:71,1,107.25000327301,10|0,2:0|2:0,2:0:0:0:
49,79,68681,6,0,P|54:114|59:149,1,71.5000021820069,2|0,1:2|1:0,2:0:0:0:
103,222,68987,2,0,P|94:281|85:339,1,107.25000327301,8|0,2:0|2:0,2:0:0:0:
101,355,69293,1,2,2:0:0:0:
193,350,69446,1,2,1:2:0:0:
193,350,69599,2,0,P|228:343|264:339,1,71.5000021820069,10|2,2:0|1:2,2:0:0:0:
367,379,69905,5,12,2:0:0:0:
276,215,70212,1,10,2:0:0:0:
276,215,70365,1,0,1:0:0:0:
198,165,70518,2,0,P|203:129|208:94,1,71.5000021820069,10|0,2:0|1:0,2:0:0:0:
289,40,70824,2,0,P|294:75|298:110,1,71.5000021820069,10|2,2:0|1:2,2:0:0:0:
388,66,71130,5,10,2:0:0:0:
388,66,71283,1,0,1:0:0:0:
435,137,71436,2,0,P|471:143|506:148,1,71.5000021820069,8|0,2:0|1:0,2:0:0:0:
459,228,71742,1,10,2:0:0:0:
494,318,71895,1,2,1:2:0:0:
494,318,71972,1,0,1:0:0:0:
494,318,72048,1,4,1:2:0:0:
325,353,72354,6,0,P|269:317|229:320,1,107.25000327301,4|0,1:0|2:0,2:0:0:0:
209,300,72661,2,0,P|204:264|199:229,1,71.5000021820069,8|0,2:0|2:0,2:0:0:0:
295,219,72967,2,0,P|306:147|315:76,1,143.000004364014,2|8,1:2|2:0,2:0:0:0:
237,20,73426,5,2,2:0:0:0:
237,20,73502,1,2,2:0:0:0:
237,20,73579,2,0,P|201:26|166:31,1,71.5000021820069,0|0,1:0|2:0,2:0:0:0:
79,12,73885,2,0,P|29:60|42:137,1,143.000004364014,10|0,2:0|1:0,2:0:0:0:
60,219,74344,1,0,2:0:0:0:
60,219,74497,2,0,P|113:226|166:234,1,107.25000327301,10|0,2:0|2:0,2:0:0:0:
179,266,74803,6,0,P|250:255|321:246,1,143.000004364014,2|10,1:2|2:0,2:0:0:0:
397,309,75263,1,2,2:0:0:0:
397,309,75339,1,2,2:0:0:0:
397,309,75416,2,0,P|446:262|437:185,1,143.000004364014,0|10,1:0|2:0,2:0:0:0:
358,164,75875,1,2,2:0:0:0:
320,246,76028,6,0,P|309:175|298:104,1,143.000004364014,0|8,1:0|2:0,2:0:0:0:
167,242,76640,2,0,P|131:246|96:252,1,71.5000021820069,2|2,1:2|2:0,2:0:0:0:
28,193,76946,2,0,P|23:157|18:122,1,71.5000021820069,10|2,2:0|2:0,2:0:0:0:
53,37,77252,5,4,1:2:0:0:
205,149,77559,1,10,2:0:0:0:
344,27,77865,1,2,1:2:0:0:
344,27,78018,2,0,P|379:22|415:16,1,71.5000021820069,2|8,1:2|2:0,2:0:0:0:
486,104,78324,5,2,2:0:0:0:
486,104,78477,2,0,P|419:125|394:192,1,143.000004364014,0|10,1:0|2:0,2:0:0:0:
423,356,79089,2,0,P|369:347|315:339,1,107.25000327301,2|0,1:2|2:0,2:0:0:0:
294,320,79395,2,0,P|258:314|223:308,1,71.5000021820069,10|2,2:0|2:0,2:0:0:0:
147,378,79701,5,10,2:0:0:0:
147,378,79854,1,0,1:0:0:0:
110,293,80007,1,10,2:0:0:0:
110,293,80160,1,0,1:0:0:0:
13,320,80314,2,0,P|18:283|23:248,1,71.5000021820069,10|0,2:0|1:0,2:0:0:0:
83,179,80620,2,0,P|77:143|72:108,1,71.5000021820069,10|0,2:0|1:0,2:0:0:0:
121,22,80926,6,0,P|85:16|50:11,2,71.5000021820069,10|0|10,2:0|1:0|2:0,2:0:0:0:
169,111,81385,2,0,P|204:105|240:100,1,71.5000021820069,2|10,1:2|2:0,2:0:0:0:
317,49,81691,1,2,1:2:0:0:
317,49,81768,1,0,1:0:0:0:
317,49,81844,1,6,2:0:0:0:
212,189,82150,6,0,P|220:240|228:293,1,97.5,6|0,1:2|2:0,2:0:0:0:
230,307,82456,2,0,P|261:301|294:296,1,65,10|0,2:0|2:0,2:0:0:0:
374,345,82762,2,0,P|378:312|384:280,1,65,2|0,2:0|1:0,2:0:0:0:
445,208,83069,2,0,P|478:263|470:328,2,130,10|0|10,2:0|1:0|2:0,2:0:0:0:
356,189,83834,1,2,2:0:0:0:
356,189,83987,2,0,P|324:184|292:178,1,65,2|0,2:0|1:0,2:0:0:0:
215,226,84293,1,8,2:0:0:0:
74,299,84599,6,0,P|65:248|58:196,1,97.5,2|0,1:2|2:0,2:0:0:0:
40,188,84905,2,0,P|47:154|51:120,1,65,10|0,2:0|2:0,2:0:0:0:
33,30,85211,2,0,P|65:35|98:41,1,65,2|0,2:0|1:0,2:0:0:0:
172,97,85517,2,0,P|233:108|283:69,2,130,10|0|10,2:0|1:0|2:0,2:0:0:0:
143,181,86283,1,0,2:0:0:0:
143,181,86436,1,2,2:0:0:0:
250,287,86742,1,8,2:0:0:0:
336,162,87048,6,0,P|389:159|424:198,1,97.5,6|0,1:2|2:0,2:0:0:0:
439,198,87354,2,0,P|434:230|429:262,1,65,10|0,2:0|2:0,2:0:0:0:
480,344,87660,2,0,P|448:348|415:355,1,65,2|0,2:0|1:0,2:0:0:0:
334,320,87967,2,0,P|260:329|217:375,2,130,10|0|10,2:0|1:0|2:0,2:0:0:0:
287,239,88732,1,2,2:0:0:0:
287,239,88885,2,0,P|255:234|222:228,1,65,2|0,2:0|1:0,2:0:0:0:
152,294,89191,1,8,2:0:0:0:
273,145,89497,6,0,P|266:97|256:50,1,97.5,14|0,2:0|2:0,2:0:0:0:
250,31,89803,1,0,1:0:0:0:
157,13,89956,2,0,P|105:26|84:99,1,130,14|0,2:0|1:0,2:0:0:0:
148,150,90416,1,14,2:0:0:0:
61,298,90721,1,10,2:0:0:0:
152,294,90874,1,0,1:0:0:0:
152,294,90951,1,0,1:0:0:0:
152,294,91028,2,0,P|218:303|285:316,1,130,6|8,2:0|2:0,2:0:0:0:
370,304,91487,2,0,P|364:337|358:371,2,65,2|2|2,2:0|2:0|2:0,2:0:0:0:
312,228,91946,6,0,P|307:202|302:176,3,52,6|2|2|2,2:0|1:2|1:2|1:2,2:0:0:0:
400,186,92559,2,0,P|408:136|382:92,1,104,2|2,2:3|2:0,2:0:0:0:
305,41,93018,1,8,2:3:0:0:
305,41,93094,1,8,2:3:0:0:
305,41,93171,2,0,P|273:47|249:50,1,52,8|0,2:3|1:0,2:0:0:0:
174,97,93477,2,0,P|142:91|118:88,1,52,2|2,1:2|1:2,2:0:0:0:
22,52,93783,2,0,P|31:103|39:154,1,104,2|2,2:3|2:0,2:0:0:0:
206,280,94395,6,0,P|200:312|197:336,1,52,2|0,1:2|1:0,2:0:0:0:
116,365,94701,2,0,P|84:359|60:356,1,52,2|0,1:2|1:0,2:0:0:0:
51,265,95007,2,0,P|25:267|0:270,2,52,2|2|2,2:3|2:0|2:0,2:0:0:0:
124,194,95467,1,8,2:3:0:0:
124,194,95543,1,8,2:3:0:0:
124,194,95620,2,0,P|149:190|175:185,1,52,8|2,2:3|1:2,2:0:0:0:
266,199,95926,2,0,P|291:195|317:190,1,52,2|2,1:2|1:2,2:0:0:0:
387,133,96232,1,2,2:3:0:0:
492,304,96538,2,0,P|452:302|414:322,1,78,10|0,2:0|2:0,2:0:0:0:
389,333,96844,6,0,P|392:358|397:384,3,52,6|2|2|2,1:2|1:2|1:2|1:2,2:0:0:0:
298,365,97456,2,0,P|248:340|244:295,1,104,2|2,2:3|2:0,2:0:0:0:
313,227,97916,1,8,2:3:0:0:
313,227,97992,1,8,2:3:0:0:
313,227,98069,2,0,P|307:195|304:171,1,52,8|0,2:3|1:0,2:0:0:0:
257,96,98375,2,0,P|263:64|266:40,1,52,2|2,1:2|1:2,2:0:0:0:
349,1,98681,2,0,P|400:8|451:18,1,104,2|6,2:3|2:0,2:0:0:0:
493,214,99293,5,6,1:2:0:0:
493,214,99446,1,0,1:0:0:0:
260,374,99905,1,6,1:2:0:0:
260,374,100058,1,0,1:0:0:0:
19,214,100518,1,10,2:0:0:0:
19,214,100671,2,0,P|52:209|81:205,1,58.4999982147217,2|0,1:2|1:0,2:0:0:0:
140,277,100977,2,0,P|169:227|160:162,1,116.999996429443,6|10,2:0|2:0,2:0:0:0:
90,115,101436,2,0,P|85:82|81:53,1,58.4999982147217,2|10,1:2|2:0,2:0:0:0:
163,22,101742,6,0,P|196:17|224:13,1,58.4999982147217,6|2,1:2|2:0,2:0:0:0:
303,45,102048,2,0,P|298:78|294:106,1,58.4999982147217,10|2,2:0|2:0,2:0:0:0:
376,141,102354,2,0,P|442:131|500:123,1,116.999996429443,2|10,1:2|2:0,2:0:0:0:
285,209,102967,6,0,P|290:242|294:270,1,58.4999982147217,2|2,1:2|2:0,2:0:0:0:
379,308,103273,2,0,P|374:341|370:369,1,58.4999982147217,10|2,2:0|2:0,2:0:0:0:
277,365,103579,2,0,P|228:342|202:282,1,116.999996429443,0|10,1:0|2:0,2:0:0:0:
392,220,104191,6,0,P|397:187|401:158,1,58.4999982147217,2|2,1:2|2:0,2:0:0:0:
482,109,104497,2,0,P|477:76|473:47,1,58.4999982147217,10|2,2:0|2:0,2:0:0:0:
384,26,104803,2,0,P|326:17|268:9,1,116.999996429443,2|10,1:2|2:0,2:0:0:0:
90,94,105416,5,2,1:2:0:0:
90,94,105569,1,2,2:0:0:0:
152,159,105722,2,0,P|156:187|160:216,1,58.4999982147217,10|2,2:0|2:0,2:0:0:0:
74,267,106028,1,0,1:0:0:0:
74,267,106181,1,8,2:0:0:0:
74,267,106334,2,0,P|69:295|65:324,1,58.4999982147217,2|8,1:2|2:0,2:0:0:0:
166,312,106640,6,0,P|199:307|227:303,1,58.4999982147217,6|2,1:2|2:0,2:0:0:0:
313,318,106946,2,0,P|308:289|304:260,1,58.4999982147217,10|2,2:0|2:0,2:0:0:0:
246,192,107252,2,0,P|256:126|264:68,1,116.999996429443,2|8,1:2|2:0,2:0:0:0:
447,5,107865,6,0,P|452:38|456:66,1,58.4999982147217,2|2,1:2|2:0,2:0:0:0:
512,131,108171,2,0,P|507:164|503:192,1,58.4999982147217,10|2,2:0|2:0,2:0:0:0:
489,275,108477,2,0,P|429:296|416:343,1,116.999996429443,0|10,1:0|2:0,2:0:0:0:
225,290,109089,5,2,1:2:0:0:
225,290,109242,1,2,2:0:0:0:
225,290,109395,2,0,P|192:295|163:299,1,58.4999982147217,10|2,2:0|2:0,2:0:0:0:
87,355,109701,2,0,P|78:297|70:239,1,116.999996429443,2|10,1:2|2:0,2:0:0:0:
31,54,110314,6,0,P|62:69|90:69,1,58.4999982147217,10|2,2:0|1:2,2:0:0:0:
145,129,110620,1,2,1:2:0:0:
225,94,110773,2,0,L|234:31,2,58.4999982147217,10|2|2,2:0|1:2|1:2,2:0:0:0:
213,180,111232,1,6,2:0:0:0:
325,372,111538,6,0,P|382:357|445:348,1,116.999996429443,4|10,1:2|2:0,2:0:0:0:
512,177,112150,2,0,P|504:148|499:116,1,58.4999982147217,0|0,1:0|1:0,2:0:0:0:
416,69,112456,2,0,P|408:97|403:129,1,58.4999982147217,8|0,2:0|1:0,2:0:0:0:
324,177,112763,2,0,P|316:148|311:116,1,58.4999982147217,0|0,1:0|1:0,2:0:0:0:
228,69,113069,2,0,P|220:97|215:129,1,58.4999982147217,8|2,2:0|1:2,2:0:0:0:
133,179,113375,1,10,2:0:0:0:
133,179,113528,1,10,2:0:0:0:
57,138,113681,1,10,2:0:0:0:
57,138,113834,1,8,2:0:0:0:
57,138,113987,1,6,2:0:0:0:
18,301,114293,6,0,P|32:303|46:307,3,29.2499991073609,10|0|0|0,2:0|1:0|1:0|1:0,2:0:0:0:
73,329,114599,2,0,P|87:331|101:335,3,29.2499991073609,10|0|0|0,2:0|1:0|1:0|1:0,2:0:0:0:
133,320,114905,2,0,P|147:322|161:326,3,29.2499991073609,10|0|2|0,2:0|1:0|1:2|1:0,2:0:0:0:
187,351,115212,2,0,P|201:353|215:357,3,29.2499991073609,10|0|0|0,2:0|1:0|1:0|1:0,2:0:0:0:
248,344,115518,2,0,P|250:329|254:315,3,29.2499991073609,8|0|0|0,2:0|1:0|1:0|1:0,2:0:0:0:
244,281,115824,1,12,2:3:0:0:
244,281,115900,1,12,2:3:0:0:
244,281,115977,2,0,L|233:221,1,58.4999982147217,12|6,2:3|2:0,2:0:0:0:
317,37,116436,6,0,P|387:51|408:103,1,116.999996429443,6|2,1:2|1:2,2:0:0:0:
492,132,116895,2,0,P|479:192|469:251,1,116.999996429443,10|0,2:0|1:0,2:0:0:0:
478,341,117354,2,0,P|421:342|387:297,1,116.999996429443,8|0,2:0|1:0,2:0:0:0:
236,233,117967,1,2,1:2:0:0:
236,233,118120,1,8,2:0:0:0:
236,233,118273,2,0,P|207:237|178:244,2,58.4999982147217,2|0|10,2:0|1:0|2:0,2:0:0:0:
364,125,118885,6,0,B|385:9|385:9|326:-1,2,175.499994644165,8|8|8,2:0|2:0|2:0,2:0:0:0:
364,125,120110,5,8,2:0:0:0:
364,125,120262,1,8,2:0:0:0:
278,76,120415,1,8,2:0:0:0:
278,76,120568,1,8,2:0:0:0:
197,28,120722,1,10,2:0:0:0:
196,29,120875,2,0,L|201:0,2,29.2499991073609,12|12|4,2:3|2:3|1:2,2:0:0:0:
108,172,121334,6,0,P|101:207|97:242,1,71.5000021820069,4|0,1:0|1:0,2:0:0:0:
123,330,121640,2,0,P|171:308|187:259,1,107.25000327301,8|0,2:0|2:0,2:0:0:0:
209,243,121946,2,0,P|244:248|279:255,1,71.5000021820069,2|0,2:0|1:0,2:0:0:0:
342,321,122252,1,8,2:0:0:0:
426,294,122405,5,2,2:0:0:0:
426,294,122481,1,2,2:0:0:0:
426,294,122558,2,0,P|422:255|414:217,1,71.5000021820069,0|0,1:0|1:0,2:0:0:0:
494,188,122865,2,0,P|422:181|352:167,1,143.000004364014,10|0,2:0|2:0,2:0:0:0:
335,76,123323,1,2,1:2:0:0:
335,76,123476,2,0,P|279:77|242:128,1,107.25000327301,8|0,2:0|2:0,2:0:0:0:
229,125,123782,6,0,P|193:117|156:112,2,71.5000021820069,2|0|10,1:2|1:0|2:0,2:0:0:0:
257,204,124242,2,0,P|251:239|244:273,1,71.5000021820069,2|0,2:0|2:0,2:0:0:0:
183,337,124548,1,2,1:2:0:0:
183,337,124701,2,0,P|125:343|72:353,1,107.25000327301,8|0,2:0|2:0,2:0:0:0:
51,342,125007,6,0,P|33:344|14:347,2,35.7500010910034,2|2|2,1:2|2:0|1:2,2:0:0:0:
82,255,125313,2,0,P|74:201|65:149,1,107.25000327301,8|0,2:0|2:0,2:0:0:0:
44,131,125619,2,0,P|51:94|56:56,1,71.5000021820069,2|0,2:0|1:0,2:0:0:0:
144,27,125925,1,10,2:0:0:0:
144,27,126078,1,2,2:0:0:0:
217,70,126232,6,0,P|252:64|287:58,1,71.5000021820069,6|0,1:2|1:0,2:0:0:0:
371,7,126538,2,0,P|376:42|382:77,1,71.5000021820069,10|0,2:0|2:0,2:0:0:0:
329,149,126844,1,2,2:0:0:0:
329,149,126997,1,0,1:0:0:0:
393,203,127150,2,0,P|384:255|375:308,1,107.25000327301,10|0,2:0|2:0,2:0:0:0:
367,334,127456,6,0,P|332:329|297:324,1,71.5000021820069,2|0,1:2|1:0,2:0:0:0:
218,372,127762,2,0,P|190:327|197:275,1,107.25000327301,8|0,2:0|2:0,2:0:0:0:
209,267,128068,1,2,2:0:0:0:
137,215,128221,1,2,1:2:0:0:
137,215,128374,2,0,P|101:207|66:204,1,71.5000021820069,10|2,2:0|1:2,2:0:0:0:
6,280,128680,5,12,2:0:0:0:
26,116,128987,1,10,2:0:0:0:
26,116,129140,1,0,1:0:0:0:
106,75,129293,1,10,2:0:0:0:
106,75,129446,1,0,1:0:0:0:
176,128,129599,2,0,P|211:122|246:118,1,71.5000021820069,10|2,2:0|1:2,2:0:0:0:
273,36,129905,5,10,2:0:0:0:
273,36,130058,1,0,1:0:0:0:
342,92,130211,2,0,P|336:128|331:163,1,71.5000021820069,8|0,2:0|1:0,2:0:0:0:
258,207,130517,1,10,2:0:0:0:
310,287,130670,1,2,1:2:0:0:
310,287,130747,1,0,1:0:0:0:
310,287,130823,1,4,1:2:0:0:
499,259,131130,6,0,P|506:201|514:146,1,107.25000327301,4|0,1:0|2:0,2:0:0:0:
495,156,131436,2,0,P|490:120|485:85,1,71.5000021820069,8|0,2:0|2:0,2:0:0:0:
430,15,131742,2,0,P|355:35|346:104,1,143.000004364014,2|8,1:2|2:0,2:0:0:0:
257,131,132201,5,2,2:0:0:0:
257,131,132277,1,2,2:0:0:0:
257,131,132354,2,0,P|221:125|186:120,1,71.5000021820069,0|0,1:0|2:0,2:0:0:0:
93,97,132661,2,0,P|105:169|115:239,1,143.000004364014,10|0,2:0|1:0,2:0:0:0:
50,319,133119,1,0,2:0:0:0:
50,319,133272,2,0,P|104:323|147:357,1,107.25000327301,10|0,2:0|2:0,2:0:0:0:
166,341,133578,6,0,P|237:330|308:321,1,143.000004364014,2|10,1:2|2:0,2:0:0:0:
398,360,134038,1,2,2:0:0:0:
398,360,134114,1,2,2:0:0:0:
398,360,134191,2,0,P|386:287|377:215,1,143.000004364014,0|10,1:0|2:0,2:0:0:0:
439,153,134650,1,2,2:0:0:0:
375,95,134803,2,0,P|313:94|279:166,1,143.000004364014,0|8,1:0|2:0,2:0:0:0:
108,255,135415,2,0,P|112:291|118:326,1,71.5000021820069,2|2,1:2|2:0,2:0:0:0:
193,376,135721,2,0,P|198:340|203:305,1,71.5000021820069,10|2,2:0|2:0,2:0:0:0:
287,358,136027,5,4,1:2:0:0:
195,201,136334,1,10,2:0:0:0:
15,272,136640,1,2,1:2:0:0:
15,272,136793,2,0,P|10:237|4:201,1,71.5000021820069,2|10,1:2|2:0,2:0:0:0:
2,93,137099,5,2,2:0:0:0:
2,93,137252,2,0,P|64:113|96:181,1,143.000004364014,0|10,1:0|2:0,2:0:0:0:
234,322,137864,2,0,P|288:313|342:305,1,107.25000327301,2|0,1:2|2:0,2:0:0:0:
352,292,138170,2,0,P|346:256|340:221,1,71.5000021820069,10|2,2:0|2:0,2:0:0:0:
437,254,138476,5,10,2:0:0:0:
437,254,138629,1,0,1:0:0:0:
489,180,138782,1,10,2:0:0:0:
489,180,138935,1,0,1:0:0:0:
424,121,139089,2,0,P|429:84|434:49,1,71.5000021820069,10|0,2:0|1:0,2:0:0:0:
357,0,139395,2,0,P|321:6|286:11,1,71.5000021820069,10|0,2:0|1:0,2:0:0:0:
232,82,139701,6,0,P|237:117|241:152,1,71.5000021820069,10|0,2:0|1:0,2:0:0:0:
309,216,140007,2,0,P|303:252|298:287,1,71.5000021820069,10|2,2:0|1:2,2:0:0:0:
282,380,140314,1,10,2:0:0:0:
208,323,140467,1,2,1:2:0:0:
208,323,140543,1,0,1:0:0:0:
208,323,140620,1,6,2:0:0:0:
46,357,140926,6,0,P|26:312|35:274,1,86.6666666666667,6|2,1:2|2:0,2:0:0:0:
51,240,141232,2,0,P|113:229|186:217,1,130,10|2,2:0|2:0,2:0:0:0:
151,45,141844,2,0,P|195:39|218:53,1,65,10|2,2:0|2:0,2:0:0:0:
290,88,142150,2,0,P|283:128|274:177,1,86.6666666666667,2|2,1:2|2:0,2:0:0:0:
300,209,142456,2,0,P|294:239|287:276,1,65,10|2,2:0|2:0,2:0:0:0:
265,366,142763,2,0,P|233:371|201:377,2,65,2|0|10,2:0|1:0|2:0,2:0:0:0:
456,295,143375,6,0,P|474:256|466:214,1,86.6666666666667,2|2,1:2|2:0,2:0:0:0:
461,173,143681,2,0,P|421:165|375:158,1,86.6666666666667,10|2,2:0|2:0,2:0:0:0:
344,114,143987,2,0,P|371:62|394:56,1,86.6666666666667,2|2,2:0|2:0,2:0:0:0:
436,68,144293,1,10,2:0:0:0:
258,23,144599,5,2,1:2:0:0:
258,23,144752,2,0,P|226:19|193:15,1,65,2|8,2:0|2:0,2:0:0:0:
83,110,145110,1,2,2:0:0:0:
91,99,145212,2,0,P|97:139|106:188,1,65,2|0,2:0|2:0,2:0:0:0:
117,225,145518,2,0,P|48:219|-5:258,1,130,8|0,2:0|1:0,2:0:0:0:
140,361,146130,6,0,P|168:354|204:348,1,65,10|2,2:0|2:0,2:0:0:0:
292,303,146436,2,0,P|284:274|278:239,1,65,2|2,2:0|1:2,2:0:0:0:
241,158,146742,2,0,P|249:130|255:95,1,65,10|2,2:0|2:0,2:0:0:0:
352,53,147048,1,2,1:2:0:0:
352,53,147201,1,2,2:0:0:0:
352,53,147354,2,0,P|399:61|429:136,1,130,10|2,2:0|2:0,2:0:0:0:
414,228,147814,1,2,1:2:0:0:
414,228,147967,2,0,P|381:233|350:241,1,65,10|2,2:0|2:0,2:0:0:0:
336,329,148273,6,0,P|303:323|272:316,1,65,14|2,2:0|1:2,2:0:0:0:
205,257,148579,2,0,P|211:224|218:193,1,65,10|2,2:0|1:2,2:0:0:0:
305,165,148885,1,10,2:0:0:0:
305,165,149038,1,2,1:2:0:0:
261,82,149191,2,0,P|228:87|197:94,1,65,10|2,2:0|1:2,2:0:0:0:
123,49,149497,6,0,P|114:79|109:111,1,65,10|0,2:0|1:0,2:0:0:0:
35,173,149803,2,0,P|42:203|47:235,1,65,10|0,2:0|1:0,2:0:0:0:
97,319,150110,1,8,2:0:0:0:
21,363,150263,1,0,1:0:0:0:
21,363,150339,1,0,1:0:0:0:
21,363,150416,1,6,2:0:0:0:
137,228,150722,6,0,P|181:241|203:288,1,86.6666666666667,6|2,1:2|2:0,2:0:0:0:
236,307,151028,2,0,P|246:241|261:180,1,130,10|2,2:0|2:0,2:0:0:0:
250,13,151640,2,0,P|280:20|313:25,1,65,10|2,2:0|2:0,2:0:0:0:
403,3,151946,6,0,P|446:22|459:65,1,86.6666666666667,2|2,1:2|2:0,2:0:0:0:
485,99,152252,2,0,P|476:129|471:162,1,65,10|2,2:0|2:0,2:0:0:0:
495,258,152559,2,0,P|430:267|366:283,1,130,2|10,2:0|2:0,2:0:0:0:
219,364,153171,6,0,P|210:318|200:274,1,86.6666666666667,2|2,1:2|2:0,2:0:0:0:
244,249,153477,2,0,P|251:203|261:159,1,86.6666666666667,10|2,2:0|2:0,2:0:0:0:
241,115,153783,2,0,P|195:106|151:96,1,86.6666666666667,2|2,2:0|2:0,2:0:0:0:
118,61,154089,2,0,P|88:67|65:99,1,65,10|2,2:0|2:0,2:0:0:0:
0,158,154395,2,0,P|13:220|24:285,1,130,2|10,1:2|2:0,2:0:0:0:
39,384,154854,1,2,1:2:0:0:
107,324,155007,2,0,P|137:316|170:311,1,65,10|0,2:0|1:0,2:0:0:0:
252,356,155314,1,8,2:0:0:0:
375,293,155620,6,0,P|367:261|362:229,1,65,12|0,2:0|1:0,2:0:0:0:
421,159,155926,1,0,1:0:0:0:
421,159,156079,2,0,P|452:152|485:146,2,65,12|0|0,2:0|1:0|1:0,2:0:0:0:
347,109,156538,2,0,P|354:77|359:44,1,65,10|0,2:0|2:0,2:0:0:0:
250,80,156844,6,0,P|256:111|262:143,1,65,14|0,2:0|1:0,2:0:0:0:
197,205,157150,1,2,1:2:0:0:
197,205,157303,2,0,P|166:198|133:192,1,65,12|0,2:0|1:0,2:0:0:0:
57,245,157610,1,0,1:0:0:0:
57,245,157763,2,0,P|50:213|45:181,1,65,10|2,2:0|2:0,2:0:0:0:
26,97,158069,6,0,P|57:92|89:84,1,65,10|0,2:0|1:0,2:0:0:0:
145,17,158375,2,0,P|176:22|208:29,1,65,10|0,2:0|1:0,2:0:0:0:
285,74,158681,1,10,2:0:0:0:
285,74,158834,1,0,1:0:0:0:
361,33,158987,1,10,2:0:0:0:
361,33,159140,1,4,2:0:0:0:
150,350,160059,6,0,L|145:316,2,32.5,8|4|8,2:3|2:3|2:3,2:0:0:0:
317,303,160518,1,6,1:2:0:0:
256,192,170314,5,6,2:0:0:0:
256,192,177661,6,0,B|360:176|345:242|448:228,1,195.00000743866,4|4,1:2|1:2,2:0:0:0:
257,376,178885,1,8,2:0:0:0:
257,376,179038,1,8,2:0:0:0:
180,320,179191,1,8,2:0:0:0:
180,320,179344,2,0,P|181:295|182:271,1,48.750001859665,12|0,2:0|2:0,2:0:0:0:
256,192,181487,6,0,P|256:204|257:216,2,24.3750009298325,8|8|8,2:3|2:3|2:3,2:0:0:0:
18,287,181946,6,0,P|26:251|31:216,1,71.5000021820069,4|0,1:0|2:0,2:0:0:0:
8,132,182252,1,8,2:0:0:0:
84,83,182405,5,2,2:0:0:0:
84,83,182481,1,2,2:0:0:0:
84,83,182558,2,0,P|123:79|161:71,1,71.5000021820069,2|0,1:2|2:0,2:0:0:0:
217,0,182864,2,0,P|249:62|232:133,1,143.000004364014,10|0,2:0|1:0,2:0:0:0:
162,210,183323,1,2,2:0:0:0:
162,210,183476,2,0,P|215:217|267:228,1,107.25000327301,8|0,2:0|2:0,2:0:0:0:
287,249,183782,6,0,P|295:285|300:322,2,71.5000021820069,2|0|10,1:2|2:0|2:0,2:0:0:0:
382,281,184242,2,0,P|417:275|451:268,1,71.5000021820069,2|0,2:0|1:0,2:0:0:0:
512,189,184548,1,2,2:0:0:0:
512,189,184701,2,0,P|502:131|490:74,1,107.25000327301,8|0,2:0|2:0,2:0:0:0:
456,59,185007,6,0,P|458:41|461:22,2,35.7500010910034,2|2|2,1:2|2:0|2:0,2:0:0:0:
369,29,185313,2,0,P|312:61|306:110,1,107.25000327301,8|0,2:0|2:0,2:0:0:0:
284,123,185619,2,0,P|247:130|209:135,1,71.5000021820069,2|2,1:2|2:0,2:0:0:0:
137,94,185925,1,10,2:0:0:0:
137,94,186078,1,2,2:0:0:0:
65,148,186231,6,0,P|71:185|77:222,1,71.5000021820069,6|0,1:2|2:0,2:0:0:0:
54,307,186538,2,0,P|91:301|127:295,1,71.5000021820069,10|2,2:0|2:0,2:0:0:0:
195,353,186844,1,2,1:2:0:0:
195,353,186997,1,2,2:0:0:0:
276,319,187150,2,0,P|267:266|258:213,1,107.25000327301,10|0,2:0|2:0,2:0:0:0:
231,190,187456,6,0,P|236:155|241:120,1,71.5000021820069,2|0,1:2|2:0,2:0:0:0:
255,26,187762,2,0,P|314:47|324:100,1,107.25000327301,8|0,2:0|2:0,2:0:0:0:
339,100,188068,1,2,1:2:0:0:
435,82,188221,1,2,2:0:0:0:
435,82,188374,2,0,P|431:117|424:152,1,71.5000021820069,10|2,2:0|2:0,2:0:0:0:
393,234,188680,5,12,2:0:0:0:
204,338,188987,1,10,2:0:0:0:
204,338,189140,1,0,1:0:0:0:
250,263,189293,1,10,2:0:0:0:
250,263,189446,1,0,1:0:0:0:
173,218,189599,2,0,P|137:212|102:208,1,71.5000021820069,10|2,2:0|1:2,2:0:0:0:
20,169,189905,5,10,2:0:0:0:
20,169,190058,1,0,1:0:0:0:
58,88,190211,2,0,P|93:82|128:77,1,71.5000021820069,8|0,2:0|1:0,2:0:0:0:
217,84,190517,1,10,2:0:0:0:
264,8,190670,1,2,1:2:0:0:
264,8,190747,1,0,1:0:0:0:
264,8,190823,1,4,1:2:0:0:
235,197,191130,6,0,P|227:250|220:303,1,107.25000327301,4|0,1:0|2:0,2:0:0:0:
222,322,191436,2,0,P|258:327|293:332,1,71.5000021820069,8|0,2:0|2:0,2:0:0:0:
376,367,191742,2,0,P|439:329|438:256,1,143.000004364014,2|8,1:2|2:0,2:0:0:0:
455,172,192201,5,2,2:0:0:0:
455,172,192277,1,2,2:0:0:0:
455,172,192354,2,0,P|419:178|384:183,1,71.5000021820069,0|0,1:0|2:0,2:0:0:0:
324,113,192661,2,0,P|253:102|182:91,1,143.000004364014,10|0,2:0|1:0,2:0:0:0:
116,27,193119,1,0,2:0:0:0:
116,27,193272,2,0,P|91:74|101:133,1,107.25000327301,10|0,2:0|2:0,2:0:0:0:
112,144,193579,6,0,P|122:214|133:285,1,143.000004364014,2|10,1:2|2:0,2:0:0:0:
88,378,194038,1,2,2:0:0:0:
88,378,194114,1,2,2:0:0:0:
88,378,194191,2,0,P|39:331|38:250,1,143.000004364014,0|10,1:0|2:0,2:0:0:0:
133,285,194650,1,2,2:0:0:0:
206,224,194803,6,0,P|277:235|348:246,1,143.000004364014,2|8,1:2|2:0,2:0:0:0:
503,327,195415,2,0,P|507:291|513:256,1,71.5000021820069,2|2,1:2|2:0,2:0:0:0:
454,176,195721,2,0,P|449:140|444:105,1,71.5000021820069,10|2,2:0|2:0,2:0:0:0:
501,26,196027,5,4,1:2:0:0:
356,158,196334,1,10,2:0:0:0:
192,47,196640,1,2,1:2:0:0:
192,47,196793,2,0,P|157:42|121:36,1,71.5000021820069,0|10,2:0|2:0,2:0:0:0:
128,144,197099,5,2,2:0:0:0:
128,144,197252,2,0,P|198:134|270:122,1,143.000004364014,0|10,1:0|2:0,2:0:0:0:
414,245,197865,2,0,P|351:251|329:286,1,107.25000327301,2|0,1:2|2:0,2:0:0:0:
305,298,198171,2,0,P|300:333|294:369,1,71.5000021820069,10|2,2:0|2:0,2:0:0:0:
205,381,198476,5,10,2:0:0:0:
205,381,198629,1,0,1:0:0:0:
155,301,198782,1,10,2:0:0:0:
155,301,198935,1,0,1:0:0:0:
224,250,199089,2,0,P|229:213|234:178,1,71.5000021820069,10|0,2:0|1:0,2:0:0:0:
134,194,199395,2,0,P|98:200|63:205,1,71.5000021820069,10|0,2:0|1:0,2:0:0:0:
17,120,199701,6,0,P|23:84|28:49,1,71.5000021820069,10|0,2:0|1:0,2:0:0:0:
105,14,200007,2,0,P|141:20|176:25,1,71.5000021820069,10|2,2:0|1:2,2:0:0:0:
246,78,200314,1,10,2:0:0:0:
328,31,200467,1,2,1:2:0:0:
328,31,200543,1,0,1:0:0:0:
328,31,200620,1,6,2:0:0:0:
192,162,200926,6,0,P|197:199|202:234,1,71.5000021820069,14|0,2:0|1:0,2:0:0:0:
176,329,201232,2,0,P|213:324|248:319,1,71.5000021820069,10|0,2:0|1:0,2:0:0:0:
337,347,201538,2,0,P|332:310|327:275,1,71.5000021820069,10|0,2:0|1:0,2:0:0:0:
353,180,201844,2,0,P|316:185|281:190,1,71.5000021820069,10|0,2:0|1:0,2:0:0:0:
201,232,202150,5,10,2:0:0:0:
201,232,202303,1,0,1:0:0:0:
201,232,202456,2,0,P|164:227|129:222,1,71.5000021820069,10|0,2:0|1:0,2:0:0:0:
69,159,202763,1,10,2:0:0:0:
69,159,202916,1,0,1:0:0:0:
69,159,203069,2,0,P|74:122|79:87,1,71.5000021820069,10|0,2:0|1:0,2:0:0:0:
22,19,203375,1,14,2:0:0:0:
173,110,203681,5,8,2:0:0:0:
173,110,203834,1,0,1:0:0:0:
248,55,203987,1,8,2:0:0:0:
248,55,204140,1,0,1:0:0:0:
334,70,204293,2,0,P|369:64|404:60,1,71.5000021820069,8|0,2:0|1:0,2:0:0:0:
478,14,204599,1,6,1:2:0:0:
34,370,205365,5,0,1:0:0:0:
34,370,205441,1,0,1:0:0:0:
34,370,205518,1,8,2:0:0:0:
205,340,205824,6,0,P|194:280|187:220,1,107.25000327301,6|0,1:2|2:0,2:0:0:0:
185,215,206130,1,8,2:0:0:0:
254,162,206283,2,0,B|328:169|305:212|385:222,1,143.000004364014,6|8,1:2|2:0,2:0:0:0:
453,167,206742,2,0,P|463:107|470:47,1,107.25000327301,6|0,1:2|2:0,2:0:0:0:
477,40,207048,1,8,2:0:0:0:
395,0,207201,2,0,B|320:7|343:50|263:60,1,143.000004364014,6|8,1:2|2:0,2:0:0:0:
187,30,207661,5,2,1:2:0:0:
187,30,207814,1,2,1:2:0:0:
129,100,207967,1,2,1:2:0:0:
40,101,208120,2,0,P|113:118|169:266,1,243.750009298325,6|0,1:2|2:0,2:0:0:0:
