osu file format v14

[General]
AudioFilename: audio.mp3
AudioLeadIn: 0
PreviewTime: 61870
Countdown: 0
SampleSet: Soft
StackLeniency: 1
Mode: 0
LetterboxInBreaks: 0
WidescreenStoryboard: 0

[Editor]
Bookmarks: 22763,42355,62559,82150,101742,121334,140926,160518,191130,208885
DistanceSpacing: 1
BeatDivisor: 8
GridSize: 32
TimelineZoom: 3.499999

[Metadata]
Title:Yoru o Koeru Ashioto
TitleUnicode:夜を越える足音
Artist:Mitei no Hanashi
ArtistUnicode:ミテイノハナシ
Creator:Ascended
Version:Ascended Kyouren's Normal
Source:ピーチボーイリバーサイド
Tags:wo footsteps beyond the night arronchu1207 AirinCat Haruto Haruto_Aizawa Kyouren gokugohan12468 KittyAdventure jrock j-rock japanese peach boy riverside anime ed ending Aru.
BeatmapID:4137161
BeatmapSetID:1990332

[Difficulty]
HPDrainRate:4
CircleSize:3
OverallDifficulty:4
ApproachRate:5
SliderMultiplier:0.999999999999999
SliderTickRate:1

[Events]
//Background and Video events
0,0,"there are no good backgrounds.jpg",0,0
//Break Periods
//Storyboard Layer 0 (Background)
//Storyboard Layer 1 (Fail)
//Storyboard Layer 2 (Pass)
//Storyboard Layer 3 (Foreground)
//Storyboard Layer 4 (Overlay)
//Storyboard Sound Samples

[TimingPoints]
1637,315.789473684211,4,2,1,40,1,0
1637,-125,4,2,1,40,0,0
11743,306.122448979592,4,2,1,60,1,0
11743,-125,4,2,1,60,0,0
12355,-100,4,2,1,60,0,0
12967,-100,4,2,1,70,0,0
22763,-111.111111111111,4,2,1,50,0,0
32559,-100,4,2,1,60,0,0
42355,-100,4,2,1,55,0,0
52151,-111.111111111111,4,2,1,50,0,0
56436,-111.111111111111,4,2,1,55,0,0
57049,-100,4,2,1,60,0,0
59498,-100,4,2,1,70,0,0
61334,-100,4,2,1,60,0,0
61947,-100,4,2,1,65,0,0
62253,-100,4,2,1,70,0,0
62559,306.122448979592,4,2,1,80,1,1
62559,-90.9090909090909,4,2,1,80,0,1
82150,-100,4,2,1,70,0,0
91946,-111.111111111111,4,2,1,50,0,0
101742,-100,4,2,1,60,0,0
111538,-100,4,2,1,55,0,0
116436,-100,4,2,1,60,0,0
118885,-100,4,2,1,70,0,0
120722,-100,4,2,1,60,0,0
121334,-90.9090909090909,4,2,1,80,0,1
140926,-90.9090909090909,4,2,1,65,0,0
141232,-100,4,2,1,65,0,0
160518,-111.111111111111,4,2,1,45,0,0
170314,-125,4,2,1,45,0,0
177661,-111.111111111111,4,2,1,65,0,0
178885,-100,4,2,1,65,0,0
181334,-100,4,2,1,50,0,0
181946,-90.9090909090909,4,2,1,80,0,1
204599,-90.9090909090909,4,2,1,70,0,0
208120,-90.9090909090909,4,2,1,70,0,1
208885,-90.9090909090909,4,2,99,30,0,0

[Colours]
Combo1 : 236,183,83
Combo2 : 183,183,255

[HitObjects]
15,25,1637,6,0,P|83:63|162:55,1,160,2|0,2:0|2:0,2:0:0:0:
303,28,2742,2,0,P|285:84|297:143,1,120,0|0,2:0|2:0,2:0:0:0:
367,209,3531,1,0,2:0:0:0:
461,225,3847,1,0,2:0:0:0:
494,314,4163,6,0,P|445:347|386:347,1,120,2|2,2:0|2:0,2:0:0:0:
242,359,5110,2,0,L|238:319,1,40,0|0,2:0|2:0,2:0:0:0:
200,288,5426,1,2,2:0:0:0:
174,146,5900,1,0,2:0:0:0:
174,146,6058,2,0,L|134:149,2,40,2|0|0,2:0|2:0|2:0,2:0:0:0:
206,110,6531,6,0,P|256:140|315:133,1,120,0|0,2:0|2:0,2:0:0:0:
390,193,7321,2,0,L|429:185,1,40,2|0,2:0|2:0,2:0:0:0:
499,120,7794,2,0,P|512:63|479:14,1,120,2|0,2:0|2:0,2:0:0:0:
383,7,8584,2,0,L|303:14,1,79.9999999999999,2|0,2:0|2:0,2:0:0:0:
232,79,9215,6,0,L|152:71,1,79.9999999999999,2|0,2:0|2:0,2:0:0:0:
68,119,9847,2,0,L|60:198,1,79.9999999999999,0|0,2:0|2:0,2:0:0:0:
110,280,10479,2,0,P|145:262|185:260,1,79.9999999999999,2|0,2:0|2:0,2:0:0:0:
220,227,10952,2,0,P|255:244|295:246,1,79.9999999999999,0|0,2:0|2:0,2:0:0:0:
336,220,11426,1,0,2:0:0:0:
429,197,11743,6,0,L|437:117,1,79.9999999999999,2|2,2:0|2:0,2:0:0:0:
373,44,12355,2,0,L|323:51,1,50,8|4,2:3|2:3,2:0:0:0:
282,79,12661,1,4,1:2:0:0:
191,37,12967,6,0,P|145:57|96:55,1,99.9999999999999,6|10,1:2|2:0,2:0:0:0:
14,113,13579,2,0,L|17:162,1,50,2|0,2:0|1:0,2:0:0:0:
4,210,13885,2,0,P|49:189|98:191,1,99.9999999999999,10|0,2:0|1:0,2:0:0:0:
140,219,14345,1,0,2:0:0:0:
140,219,14498,1,10,2:0:0:0:
232,180,14804,2,0,L|330:194,1,99.9999999999999,2|8,2:0|2:0,2:0:0:0:
401,264,15416,6,0,L|386:362,1,99.9999999999999,2|10,1:2|2:0,2:0:0:0:
293,328,16028,2,0,L|243:337,1,50,2|0,2:0|1:0,2:0:0:0:
199,360,16334,2,0,P|153:339|104:342,1,99.9999999999999,10|0,2:0|1:0,2:0:0:0:
55,354,16794,1,0,2:0:0:0:
55,354,16947,1,10,2:0:0:0:
9,264,17253,2,0,L|16:214,1,50,2|0,2:0|1:0,2:0:0:0:
52,180,17559,1,8,2:0:0:0:
8,91,17865,6,0,P|48:62|97:58,1,99.9999999999999,6|10,1:2|2:0,2:0:0:0:
188,17,18477,2,0,P|211:25|236:28,1,50,2|0,2:0|1:0,2:0:0:0:
285,22,18783,2,0,L|273:121,1,99.9999999999999,10|0,2:0|1:0,2:0:0:0:
300,163,19243,1,0,2:0:0:0:
300,163,19396,1,10,2:0:0:0:
370,233,19702,2,0,L|358:332,1,99.9999999999999,2|8,2:0|2:0,2:0:0:0:
261,357,20314,6,0,P|222:326|173:318,1,99.9999999999999,14|0,2:0|1:0,2:0:0:0:
126,336,20773,2,0,P|140:288|130:240,1,99.9999999999999,14|0,2:0|1:0,2:0:0:0:
89,211,21232,1,14,2:0:0:0:
30,130,21538,2,0,L|26:80,1,50,2|0,1:2|2:0,2:0:0:0:
5,34,21845,2,0,P|97:69|196:59,1,200,6|0,2:0|2:0,2:0:0:0:
250,131,22763,6,0,P|298:122|349:116,2,89.999997253418,2|0|0,1:2|1:0|1:0,2:0:0:0:
178,186,23681,2,0,P|182:210|185:235,1,44.999998626709,2|0,1:2|2:0,2:0:0:0:
162,269,23987,1,2,1:2:0:0:
177,357,24294,1,2,1:2:0:0:
264,337,24600,2,0,P|308:342|352:351,1,89.999997253418,2|2,1:2|1:2,2:0:0:0:
437,321,25212,6,0,P|439:298|444:276,1,44.999998626709,2|2,1:2|2:0,2:0:0:0:
474,243,25518,2,0,P|471:220|466:198,1,44.999998626709,2|2,1:2|2:0,2:0:0:0:
461,153,25824,2,0,P|483:150|505:145,2,44.999998626709,2|0|2,1:2|2:0|1:2,2:0:0:0:
372,170,26436,1,2,1:2:0:0:
310,235,26743,1,2,1:2:0:0:
229,194,27049,2,0,P|188:175|143:178,1,89.999997253418,0|2,1:0|1:2,2:0:0:0:
59,201,27661,5,2,1:2:0:0:
59,201,27814,2,0,P|53:156|44:112,1,89.999997253418,2|2,2:0|2:0,2:0:0:0:
71,75,28273,2,0,P|73:52|78:30,2,44.999998626709,2|0|2,1:2|2:0|1:2,2:0:0:0:
159,89,28885,1,2,1:2:0:0:
228,31,29191,1,2,1:2:0:0:
316,47,29498,2,0,P|360:41|404:32,1,89.999997253418,0|2,1:0|1:2,2:0:0:0:
486,70,30110,6,0,P|477:114|471:158,1,89.999997253418,2|2,1:2|1:2,2:0:0:0:
404,217,30722,1,2,1:2:0:0:
404,217,30875,2,0,P|412:261|418:305,1,89.999997253418,2|0,2:0|2:0,2:0:0:0:
427,349,31334,1,12,2:0:0:0:
41,242,32559,6,0,P|90:232|139:226,1,99.9999999999999,6|10,1:2|2:0,2:0:0:0:
176,192,33018,1,8,2:3:0:0:
176,192,33171,2,0,P|172:166|167:141,2,50,8|2|10,2:3|1:2|2:0,2:0:0:0:
255,252,33783,1,2,1:2:0:0:
347,213,34089,2,0,P|371:208|396:205,1,50,10|8,2:0|2:3,2:0:0:0:
439,231,34396,2,0,P|486:212|502:160,1,99.9999999999999,8|10,2:3|2:0,2:0:0:0:
453,81,35008,5,2,1:2:0:0:
354,96,35314,2,0,P|349:71|346:46,1,50,10|8,2:0|2:3,2:0:0:0:
299,29,35620,1,8,2:3:0:0:
207,69,35926,1,10,2:0:0:0:
125,11,36232,2,0,P|72:30|56:70,1,99.9999999999999,2|8,1:2|2:0,2:0:0:0:
83,116,36691,1,8,2:3:0:0:
83,116,36845,1,8,2:3:0:0:
10,192,37151,1,10,2:0:0:0:
82,261,37457,6,0,P|131:251|180:245,1,99.9999999999999,2|8,1:2|2:0,2:0:0:0:
274,280,38069,2,0,P|311:236|304:192,1,99.9999999999999,8|8,2:3|2:0,2:0:0:0:
269,163,38528,2,0,P|264:138|261:113,1,50,2|0,2:0|1:0,2:0:0:0:
286,70,38834,2,0,P|290:45|293:20,1,50,2|8,2:0|2:0,2:0:0:0:
389,49,39294,2,0,P|392:24|396:0,2,50,8|0|10,2:3|1:0|2:0,2:0:0:0:
481,86,39906,6,0,P|490:135|496:184,1,99.9999999999999,2|10,1:2|2:0,2:0:0:0:
505,238,40365,1,8,2:3:0:0:
505,238,40518,2,0,P|455:244|406:253,1,99.9999999999999,8|10,2:3|2:0,2:0:0:0:
306,246,41130,2,0,P|309:270|313:295,1,50,8|0,2:0|1:0,2:0:0:0:
278,330,41436,1,0,1:0:0:0:
278,330,41589,1,12,2:0:0:0:
185,308,41896,1,0,1:0:0:0:
185,308,42049,1,12,2:0:0:0:
122,229,42355,6,0,P|125:204|127:179,1,50,6|2,1:2|1:2,2:0:0:0:
169,151,42661,2,0,P|172:126|174:101,1,50,2|10,1:2|2:0,2:0:0:0:
148,59,42967,1,2,2:0:0:0:
51,33,43273,1,10,2:0:0:0:
10,124,43579,6,0,P|7:148|4:173,1,50,2|2,1:2|1:2,2:0:0:0:
27,217,43885,2,0,P|24:241|21:266,1,50,2|10,1:2|2:0,2:0:0:0:
7,314,44191,1,0,2:0:0:0:
92,366,44498,1,10,2:0:0:0:
177,314,44804,6,0,P|201:311|226:308,1,50,2|2,1:2|1:2,2:0:0:0:
253,265,45110,2,0,P|277:267|302:270,1,50,2|10,1:2|2:0,2:0:0:0:
334,232,45416,1,2,2:0:0:0:
269,155,45722,1,10,2:0:0:0:
337,81,46028,6,0,P|361:84|386:86,1,50,2|2,1:2|1:2,2:0:0:0:
420,50,46334,2,0,P|444:47|469:44,1,50,2|10,1:2|2:0,2:0:0:0:
503,80,46640,1,0,2:0:0:0:
489,179,46947,1,10,2:0:0:0:
505,277,47253,6,0,P|481:280|456:282,1,50,2|2,1:2|1:2,2:0:0:0:
421,318,47559,2,0,P|397:315|372:313,1,50,2|10,1:2|2:0,2:0:0:0:
328,287,47865,1,2,2:0:0:0:
328,287,48018,1,0,1:0:0:0:
188,341,48477,6,0,P|164:344|139:346,1,50,2|2,1:2|1:2,2:0:0:0:
96,318,48783,2,0,P|93:294|91:269,1,50,2|10,1:2|2:0,2:0:0:0:
122,229,49089,1,0,2:0:0:0:
50,159,49396,1,10,2:0:0:0:
97,70,49702,6,0,P|121:68|146:64,1,50,2|2,1:2|1:2,2:0:0:0:
189,90,50008,2,0,P|213:93|238:95,1,50,2|10,1:2|2:0,2:0:0:0:
282,71,50314,1,0,2:0:0:0:
348,145,50620,2,0,P|372:148|397:150,1,50,10|2,2:0|2:0,2:0:0:0:
441,125,50926,6,0,P|460:170|455:219,1,99.9999999999999,10|0,2:0|2:0,2:0:0:0:
473,265,51385,2,0,P|455:311|416:341,1,99.9999999999999,10|0,2:0|2:0,2:0:0:0:
368,324,51845,1,10,2:0:0:0:
274,357,52151,6,0,P|231:342|187:336,2,89.999997253418,4|2|2,2:0|2:3|2:3,2:0:0:0:
272,258,53069,1,2,2:3:0:0:
270,159,53375,2,0,P|312:173|356:179,2,89.999997253418,2|2|2,2:3|2:3|2:3,2:0:0:0:
262,60,54294,1,2,2:3:0:0:
171,20,54600,6,0,P|127:24|98:57,1,89.999997253418,2|2,2:3|2:3,2:0:0:0:
20,119,55212,1,2,2:3:0:0:
67,206,55518,1,2,2:3:0:0:
10,287,55824,2,0,P|37:322|52:364,1,89.999997253418,2|2,2:3|2:3,2:0:0:0:
142,323,56436,2,0,L|186:330,1,44.999998626709,12|12,2:3|2:3,2:0:0:0:
224,362,56743,1,6,2:0:0:0:
319,331,57049,6,0,P|367:326|404:293,1,99.9999999999999,6|2,1:2|1:2,2:0:0:0:
452,280,57508,2,0,L|465:180,1,99.9999999999999,10|2,2:0|1:2,2:0:0:0:
438,138,57967,1,10,2:0:0:0:
341,111,58273,2,0,P|299:138|250:142,1,99.9999999999999,0|2,1:0|1:2,2:0:0:0:
212,175,58732,2,0,L|112:165,1,99.9999999999999,8|0,2:0|1:0,2:0:0:0:
77,200,59191,1,10,2:0:0:0:
25,113,59498,6,0,P|69:55|142:48,1,150,10|8,2:0|2:0,2:0:0:0:
288,14,60416,1,8,2:0:0:0:
372,66,60722,2,0,L|376:115,1,50,10|8,2:0|2:0,2:0:0:0:
422,134,61028,2,0,L|417:183,1,50,8|8,2:0|2:0,2:0:0:0:
390,225,61334,2,0,L|394:274,2,50,2|2|2,2:0|2:0|2:0,2:0:0:0:
290,211,61947,2,0,L|298:310,1,99.9999999999999,14|4,2:3|1:2,2:0:0:0:
210,358,62559,6,0,P|177:354|153:352,1,55.0000016784668,4|0,1:0|1:0,2:0:0:0:
100,345,62865,1,8,2:0:0:0:
18,271,63171,2,0,P|24:216|29:161,1,110.000003356934,2|8,2:0|2:0,2:0:0:0:
36,110,63630,1,2,2:0:0:0:
36,110,63783,2,0,P|63:113|90:115,1,55.0000016784668,0|0,1:0|1:0,2:0:0:0:
134,81,64089,2,0,P|193:108|202:153,1,110.000003356934,10|2,2:0|2:0,2:0:0:0:
188,200,64548,1,2,1:2:0:0:
188,200,64701,1,8,2:0:0:0:
252,288,65007,6,0,P|249:315|247:342,2,55.0000016784668,2|0|10,1:2|1:0|2:0,2:0:0:0:
301,263,65467,2,0,P|328:266|355:268,1,55.0000016784668,2|0,2:0|2:0,2:0:0:0:
402,297,65773,1,2,1:2:0:0:
402,297,65926,2,0,P|459:280|471:220,1,110.000003356934,8|2,2:0|1:2,2:0:0:0:
509,132,66538,1,8,2:0:0:0:
424,62,66844,2,0,P|366:68|309:72,1,110.000003356934,2|10,2:0|2:0,2:0:0:0:
269,41,67303,5,2,2:0:0:0:
269,41,67456,1,6,1:2:0:0:
212,135,67763,1,10,2:0:0:0:
296,205,68069,2,0,P|299:233|301:262,1,55.0000016784668,2|0,2:0|1:0,2:0:0:0:
309,314,68375,1,10,2:0:0:0:
208,358,68681,2,0,P|179:354|150:352,1,55.0000016784668,2|0,1:2|1:0,2:0:0:0:
98,351,68987,1,8,2:0:0:0:
26,267,69293,1,2,2:0:0:0:
26,267,69446,1,2,1:2:0:0:
26,267,69599,2,0,P|29:238|31:209,1,55.0000016784668,10|2,2:0|1:2,2:0:0:0:
35,157,69905,5,12,2:0:0:0:
113,78,70212,2,0,P|140:80|167:83,1,55.0000016784668,10|0,2:0|1:0,2:0:0:0:
214,53,70518,2,0,P|241:55|268:58,1,55.0000016784668,10|0,2:0|1:0,2:0:0:0:
306,97,70824,2,0,P|303:124|300:151,1,55.0000016784668,10|2,2:0|1:2,2:0:0:0:
253,190,71130,2,0,P|256:217|259:244,1,55.0000016784668,10|0,2:0|1:0,2:0:0:0:
271,303,71436,1,8,2:0:0:0:
374,375,71742,1,10,2:0:0:0:
374,375,71895,2,0,P|401:373|428:370,1,55.0000016784668,2|4,1:2|1:2,2:0:0:0:
502,274,72354,6,0,P|482:216|424:208,1,110.000003356934,4|8,1:0|2:0,2:0:0:0:
393,173,72814,1,0,2:0:0:0:
393,173,72967,2,0,P|386:118|382:63,1,110.000003356934,2|8,1:2|2:0,2:0:0:0:
344,33,73426,1,2,2:0:0:0:
344,33,73579,2,0,P|289:39|234:43,1,110.000003356934,0|10,1:0|2:0,2:0:0:0:
248,163,74191,1,0,1:0:0:0:
140,219,74497,2,0,P|112:215|85:213,1,55.0000016784668,10|0,2:0|2:0,2:0:0:0:
26,205,74803,6,0,P|-5:161|5:94,1,110.000003356934,2|10,1:2|2:0,2:0:0:0:
37,68,75263,1,2,2:0:0:0:
37,68,75416,2,0,P|64:65|91:62,1,55.0000016784668,0|0,1:0|1:0,2:0:0:0:
146,54,75722,2,0,P|143:26|140:0,2,55.0000016784668,10|2|0,2:0|2:0|1:0,2:0:0:0:
244,114,76334,1,8,2:0:0:0:
244,114,76487,2,0,P|241:141|238:168,2,55.0000016784668,2|2|2,2:0|1:2|2:0,2:0:0:0:
286,78,76946,2,0,P|313:81|340:83,1,55.0000016784668,10|2,2:0|2:0,2:0:0:0:
392,64,77252,5,4,1:2:0:0:
480,129,77559,1,10,2:0:0:0:
425,239,77865,1,2,1:2:0:0:
425,239,78018,2,0,P|397:236|370:233,1,55.0000016784668,2|8,1:2|2:0,2:0:0:0:
315,252,78324,1,2,2:0:0:0:
315,252,78477,2,0,B|261:239|265:276|202:267,1,110.000003356934,0|10,1:0|2:0,2:0:0:0:
120,185,79089,1,2,1:2:0:0:
22,233,79395,2,0,P|25:260|27:287,1,55.0000016784668,10|2,2:0|2:0,2:0:0:0:
36,341,79701,6,0,P|63:337|90:335,1,55.0000016784668,10|0,2:0|1:0,2:0:0:0:
138,362,80007,2,0,P|165:365|192:367,1,55.0000016784668,10|0,2:0|1:0,2:0:0:0:
251,350,80314,2,0,P|278:346|305:344,1,55.0000016784668,10|0,2:0|1:0,2:0:0:0:
364,357,80620,1,10,2:0:0:0:
451,305,80926,2,0,P|448:277|445:250,1,55.0000016784668,10|0,2:0|1:0,2:0:0:0:
403,224,81232,1,10,2:0:0:0:
403,224,81385,2,0,P|375:227|348:229,1,55.0000016784668,2|10,1:2|2:0,2:0:0:0:
301,212,81691,1,2,1:2:0:0:
301,212,81844,1,6,2:0:0:0:
215,160,82150,6,0,P|165:165|115:169,1,99.9999999999999,6|10,1:2|2:0,2:0:0:0:
27,120,82763,2,0,P|24:95|22:70,1,50,2|0,2:0|1:0,2:0:0:0:
50,29,83069,2,0,P|99:23|149:19,1,99.9999999999999,10|0,2:0|1:0,2:0:0:0:
191,46,83528,1,0,2:0:0:0:
191,46,83681,1,10,2:0:0:0:
290,40,83987,2,0,P|339:34|389:30,1,99.9999999999999,2|8,2:0|2:0,2:0:0:0:
472,88,84599,6,0,P|477:137|481:187,1,99.9999999999999,2|10,1:2|2:0,2:0:0:0:
408,257,85212,2,0,P|410:281|412:306,1,50,2|0,2:0|1:0,2:0:0:0:
379,343,85518,2,0,P|329:348|279:352,1,99.9999999999999,10|0,2:0|1:0,2:0:0:0:
240,319,85977,1,0,2:0:0:0:
240,319,86130,1,10,2:0:0:0:
157,262,86436,2,0,P|107:267|57:271,1,99.9999999999999,2|8,2:0|2:0,2:0:0:0:
49,171,87048,6,0,P|98:165|148:161,1,99.9999999999999,6|10,1:2|2:0,2:0:0:0:
231,104,87661,2,0,P|228:79|226:54,1,50,2|0,2:0|1:0,2:0:0:0:
264,21,87967,2,0,P|313:15|363:11,1,99.9999999999999,10|0,2:0|1:0,2:0:0:0:
401,43,88426,1,0,2:0:0:0:
401,43,88579,1,10,2:0:0:0:
453,128,88885,2,0,P|458:177|462:227,1,99.9999999999999,2|8,2:0|2:0,2:0:0:0:
392,297,89497,6,0,P|342:302|292:306,1,99.9999999999999,14|0,2:0|1:0,2:0:0:0:
255,272,89956,2,0,P|249:222|245:172,1,99.9999999999999,14|0,2:0|1:0,2:0:0:0:
270,128,90416,1,14,2:0:0:0:
211,47,90722,2,0,P|186:48|161:50,1,50,10|0,2:0|1:0,2:0:0:0:
117,26,91028,1,6,2:0:0:0:
34,82,91334,1,8,2:0:0:0:
89,166,91640,1,2,2:0:0:0:
27,243,91946,6,0,L|29:287,1,44.999998626709,6|2,2:0|1:2,2:0:0:0:
76,302,92252,2,0,L|78:346,1,44.999998626709,2|2,1:2|1:2,2:0:0:0:
123,366,92559,1,2,2:3:0:0:
211,322,92865,1,2,2:0:0:0:
300,364,93171,6,0,L|344:362,1,44.999998626709,8|0,2:3|1:0,2:0:0:0:
381,328,93477,2,0,L|425:326,1,44.999998626709,2|2,1:2|1:2,2:0:0:0:
459,289,93783,1,2,2:3:0:0:
427,195,94089,2,0,L|425:151,1,44.999998626709,2|2,2:0|2:0,2:0:0:0:
457,112,94395,6,0,L|455:68,1,44.999998626709,2|0,1:2|1:0,2:0:0:0:
418,33,94701,2,0,L|374:31,1,44.999998626709,2|0,1:2|1:0,2:0:0:0:
335,62,95007,1,2,2:3:0:0:
242,24,95314,1,2,2:0:0:0:
153,68,95620,6,0,L|109:70,1,44.999998626709,8|2,2:3|1:2,2:0:0:0:
61,52,95926,2,0,P|77:93|74:137,1,89.999997253418,2|2,1:2|2:3,2:0:0:0:
17,219,96538,1,10,2:0:0:0:
102,268,96844,6,0,L|104:312,1,44.999998626709,6|2,1:2|1:2,2:0:0:0:
141,345,97150,2,0,L|185:347,1,44.999998626709,2|2,1:2|1:2,2:0:0:0:
230,324,97456,1,2,2:3:0:0:
271,233,97763,1,2,2:0:0:0:
226,144,98069,6,0,L|224:100,1,44.999998626709,8|0,2:3|1:0,2:0:0:0:
254,60,98375,2,0,L|298:62,1,44.999998626709,2|2,1:2|1:2,2:0:0:0:
342,38,98681,1,2,2:3:0:0:
436,7,98987,1,6,2:0:0:0:
499,83,99293,6,0,L|497:127,1,44.999998626709,6|0,1:2|1:0,2:0:0:0:
375,212,99905,2,0,L|377:256,1,44.999998626709,6|0,1:2|1:0,2:0:0:0:
261,351,100518,1,10,2:0:0:0:
261,351,100671,2,0,L|217:349,1,44.999998626709,2|0,1:2|1:0,2:0:0:0:
172,358,100977,2,0,P|162:314|175:271,1,89.999997253418,6|10,2:0|2:0,2:0:0:0:
213,249,101436,2,0,L|211:205,1,44.999998626709,2|10,1:2|2:0,2:0:0:0:
252,175,101742,6,0,P|256:123|263:65,1,99.9999999999999,6|10,1:2|2:0,2:0:0:0:
178,19,102354,1,2,1:2:0:0:
78,28,102661,1,10,2:0:0:0:
10,103,102967,2,0,P|12:127|14:152,1,50,2|2,1:2|2:0,2:0:0:0:
49,188,103273,2,0,P|46:212|44:237,1,50,10|2,2:0|2:0,2:0:0:0:
35,286,103579,1,0,1:0:0:0:
110,351,103885,1,10,2:0:0:0:
185,285,104191,6,0,P|209:287|234:289,1,50,2|2,1:2|2:0,2:0:0:0:
270,324,104497,2,0,P|294:321|319:319,1,50,10|2,2:0|2:0,2:0:0:0:
368,310,104803,1,2,1:2:0:0:
356,210,105110,1,10,2:0:0:0:
268,161,105416,2,0,P|265:136|263:111,1,50,2|2,1:2|2:0,2:0:0:0:
291,70,105722,2,0,P|316:67|341:65,1,50,10|2,2:0|2:0,2:0:0:0:
390,57,106028,2,0,P|387:32|385:7,2,50,0|8|2,1:0|2:0|1:2,2:0:0:0:
485,111,106640,6,0,P|482:136|480:161,1,50,6|2,1:2|2:0,2:0:0:0:
450,206,106946,2,0,P|453:231|455:256,1,50,10|2,2:0|2:0,2:0:0:0:
489,305,107252,1,2,1:2:0:0:
489,305,107405,2,0,P|486:330|484:355,1,50,2|8,2:0|2:0,2:0:0:0:
374,371,107865,2,0,P|349:368|324:366,1,50,2|2,1:2|2:0,2:0:0:0:
269,372,108171,2,0,P|228:349|220:284,1,99.9999999999999,10|0,2:0|1:0,2:0:0:0:
273,206,108783,1,10,2:0:0:0:
255,97,109089,6,0,P|253:73|251:48,1,50,2|2,1:2|2:0,2:0:0:0:
200,25,109395,2,0,P|176:28|151:30,1,50,10|2,2:0|2:0,2:0:0:0:
97,45,109701,1,2,1:2:0:0:
19,125,110008,1,10,2:0:0:0:
69,222,110314,6,0,P|93:219|118:217,1,50,10|2,2:0|1:2,2:0:0:0:
167,252,110620,1,2,1:2:0:0:
167,252,110773,2,0,P|191:254|216:256,1,50,10|2,2:0|1:2,2:0:0:0:
266,230,111079,1,2,1:2:0:0:
266,230,111232,1,6,2:0:0:0:
241,122,111538,6,0,P|249:71|294:52,1,99.9999999999999,4|10,1:2|2:0,2:0:0:0:
393,17,112150,2,0,P|395:41|397:66,1,50,0|0,1:0|1:0,2:0:0:0:
439,102,112456,2,0,P|436:126|434:151,1,50,8|0,2:0|1:0,2:0:0:0:
401,196,112763,2,0,P|376:193|351:191,2,50,0|0|8,1:0|1:0|2:0,2:0:0:0:
428,249,113222,1,2,1:2:0:0:
428,249,113375,2,0,P|452:246|477:244,2,50,10|10|10,2:0|2:0|2:0,2:0:0:0:
441,358,113987,5,6,2:0:0:0:
331,347,114293,2,0,P|306:344|281:342,1,50,10|0,2:0|1:0,2:0:0:0:
244,307,114599,2,0,P|246:282|248:257,1,50,10|0,2:0|1:0,2:0:0:0:
289,218,114905,2,0,P|286:193|284:168,1,50,10|2,2:0|1:2,2:0:0:0:
264,116,115212,2,0,P|266:91|268:66,2,50,10|0|8,2:0|1:0|2:0,2:0:0:0:
161,76,115824,2,0,P|136:78|111:80,1,50,12|12,2:3|2:3,2:0:0:0:
56,87,116130,1,6,2:0:0:0:
11,187,116436,6,0,P|-2:237|22:285,1,99.9999999999999,6|2,1:2|1:2,2:0:0:0:
67,301,116895,2,0,B|122:296|115:326|173:323,1,99.9999999999999,10|0,2:0|1:0,2:0:0:0:
214,341,117354,1,8,2:0:0:0:
267,244,117661,2,0,P|262:196|257:144,1,99.9999999999999,0|2,1:0|1:2,2:0:0:0:
245,90,118120,2,0,P|294:85|344:80,1,99.9999999999999,8|0,2:0|1:0,2:0:0:0:
378,43,118579,1,10,2:0:0:0:
458,101,118885,6,0,P|482:172|449:238,1,150,8|8,2:0|2:0,2:0:0:0:
346,343,119804,1,8,2:0:0:0:
249,316,120110,2,0,P|222:319|200:320,1,50,8|8,2:0|2:0,2:0:0:0:
160,351,120416,2,0,P|133:348|111:347,1,50,8|8,2:0|2:0,2:0:0:0:
62,331,120722,2,0,P|35:334|13:335,2,50,10|12|4,2:0|2:3|1:2,2:0:0:0:
101,228,121334,6,0,L|109:174,1,55.0000016784668,4|0,1:0|1:0,2:0:0:0:
66,138,121640,1,8,2:0:0:0:
132,50,121946,2,0,P|179:76|233:73,1,110.000003356934,2|8,2:0|2:0,2:0:0:0:
285,49,122405,1,2,2:0:0:0:
285,49,122559,2,0,L|339:55,1,55.0000016784668,0|0,1:0|1:0,2:0:0:0:
390,35,122865,1,10,2:0:0:0:
475,112,123171,1,0,2:0:0:0:
475,112,123324,2,0,L|468:166,1,55.0000016784668,2|8,1:2|2:0,2:0:0:0:
380,233,123783,6,0,L|373:287,1,55.0000016784668,2|0,1:2|1:0,2:0:0:0:
407,337,124089,1,10,2:0:0:0:
407,337,124242,2,0,P|354:323|301:337,1,110.000003356934,2|2,2:0|1:2,2:0:0:0:
265,377,124701,1,8,2:0:0:0:
179,308,125007,2,0,L|124:300,1,55.0000016784668,2|0,1:2|1:0,2:0:0:0:
71,317,125314,1,8,2:0:0:0:
10,225,125620,2,0,L|24:115,1,110.000003356934,2|10,2:0|2:0,2:0:0:0:
68,80,126079,1,2,2:0:0:0:
68,80,126232,6,0,L|122:87,1,55.0000016784668,6|0,1:2|1:0,2:0:0:0:
169,57,126538,1,10,2:0:0:0:
257,121,126844,1,2,2:0:0:0:
244,230,127150,1,10,2:0:0:0:
316,313,127456,2,0,L|370:320,1,55.0000016784668,2|0,1:2|1:0,2:0:0:0:
425,326,127763,1,8,2:0:0:0:
487,235,128069,2,0,L|494:180,1,55.0000016784668,2|2,2:0|1:2,2:0:0:0:
451,145,128375,2,0,L|458:90,1,55.0000016784668,10|2,2:0|1:2,2:0:0:0:
430,42,128681,5,12,2:0:0:0:
321,57,128987,2,0,L|266:64,1,55.0000016784668,10|0,2:0|1:0,2:0:0:0:
238,111,129293,2,0,L|183:118,1,55.0000016784668,10|0,2:0|1:0,2:0:0:0:
148,87,129599,2,0,L|93:94,1,55.0000016784668,10|2,2:0|1:2,2:0:0:0:
38,93,129905,2,0,L|45:148,1,55.0000016784668,10|0,2:0|1:0,2:0:0:0:
12,192,130212,1,8,2:0:0:0:
105,249,130518,2,0,L|112:303,1,55.0000016784668,10|2,2:0|1:2,2:0:0:0:
79,348,130824,1,4,1:2:0:0:
186,370,131130,6,0,L|295:355,1,110.000003356934,4|8,1:0|2:0,2:0:0:0:
397,373,131742,2,0,P|444:348|460:297,1,110.000003356934,2|8,1:2|2:0,2:0:0:0:
425,261,132201,1,2,2:0:0:0:
425,261,132354,2,0,L|439:151,1,110.000003356934,0|10,1:0|2:0,2:0:0:0:
398,106,132814,1,0,2:0:0:0:
398,106,132967,1,0,1:0:0:0:
290,81,133273,1,10,2:0:0:0:
194,27,133579,6,0,P|140:24|97:57,1,110.000003356934,2|10,1:2|2:0,2:0:0:0:
51,84,134038,1,2,2:0:0:0:
51,84,134191,2,0,L|58:193,1,110.000003356934,0|10,1:0|2:0,2:0:0:0:
93,243,134650,1,2,2:0:0:0:
93,243,134803,2,0,L|85:352,1,110.000003356934,0|8,1:0|2:0,2:0:0:0:
193,371,135416,2,0,L|196:316,1,55.0000016784668,2|2,1:2|2:0,2:0:0:0:
235,277,135722,2,0,L|238:222,1,55.0000016784668,10|2,2:0|2:0,2:0:0:0:
225,168,136028,6,0,P|273:191|327:182,1,110.000003356934,4|10,1:2|2:0,2:0:0:0:
377,83,136640,2,0,L|380:28,1,55.0000016784668,2|2,1:2|1:2,2:0:0:0:
430,7,136946,2,0,L|484:10,1,55.0000016784668,8|2,2:0|2:0,2:0:0:0:
504,61,137252,2,0,L|496:170,1,110.000003356934,0|10,1:0|2:0,2:0:0:0:
422,253,137865,2,0,L|414:362,1,110.000003356934,2|10,1:2|2:0,2:0:0:0:
363,372,138324,1,2,2:0:0:0:
363,372,138477,6,0,L|309:359,1,55.0000016784668,10|0,2:0|1:0,2:0:0:0:
266,324,138783,2,0,L|212:337,1,55.0000016784668,10|0,2:0|1:0,2:0:0:0:
167,368,139089,2,0,L|113:355,1,55.0000016784668,10|0,2:0|1:0,2:0:0:0:
59,345,139395,1,10,2:0:0:0:
96,241,139701,2,0,L|83:187,1,55.0000016784668,10|0,2:0|1:0,2:0:0:0:
37,157,140007,1,10,2:0:0:0:
95,63,140314,2,0,L|149:76,1,55.0000016784668,10|2,2:0|1:2,2:0:0:0:
202,87,140620,1,6,2:0:0:0:
299,108,140926,5,6,1:2:0:0:
395,82,141232,2,0,B|410:113|410:113|409:150,1,66.6666666666666,10|0,2:0|2:0,2:0:0:0:
401,177,141538,2,0,B|452:175|452:175|496:196,1,99.9999999999999,2|10,2:0|2:0,2:0:0:0:
477,294,142150,1,2,1:2:0:0:
381,320,142456,2,0,B|349:318|349:318|317:332,1,66.6666666666666,10|0,2:0|2:0,2:0:0:0:
296,358,142762,2,0,B|244:359|244:359|200:338,1,99.9999999999999,2|10,2:0|2:0,2:0:0:0:
100,347,143375,6,0,B|98:315|98:315|114:279,1,66.6666666666666,2|2,1:2|2:0,2:0:0:0:
97,253,143681,2,0,L|29:243,1,66.6666666666666,10|2,2:0|2:0,2:0:0:0:
15,213,143987,2,0,B|11:164|11:164|33:115,1,99.9999999999999,2|10,2:0|2:0,2:0:0:0:
130,137,144599,6,0,P|161:133|187:127,1,50,2|2,1:2|2:0,2:0:0:0:
221,100,144905,1,8,2:0:0:0:
221,100,145059,2,0,P|217:69|211:43,2,50,0|2|2,2:0|2:0|1:2,2:0:0:0:
267,117,145518,1,8,2:0:0:0:
237,212,145824,1,0,1:0:0:0:
275,304,146130,6,0,P|299:309|324:311,1,50,10|2,2:0|2:0,2:0:0:0:
361,345,146436,2,0,P|385:339|410:337,1,50,2|2,2:0|1:2,2:0:0:0:
459,327,146742,1,10,2:0:0:0:
511,241,147048,2,0,P|505:216|503:191,1,50,2|2,1:2|2:0,2:0:0:0:
493,143,147354,1,10,2:0:0:0:
425,69,147661,2,0,P|430:44|432:19,2,50,2|2|10,2:0|1:2|2:0,2:0:0:0:
335,112,148273,6,0,P|310:106|285:104,1,50,14|2,2:0|1:2,2:0:0:0:
243,130,148579,2,0,P|237:154|235:179,1,50,10|2,2:0|1:2,2:0:0:0:
267,217,148885,2,0,P|272:241|274:266,1,50,10|2,2:0|1:2,2:0:0:0:
282,315,149191,1,10,2:0:0:0:
196,367,149497,2,0,P|171:372|146:374,1,50,10|0,2:0|1:0,2:0:0:0:
112,338,149803,2,0,P|87:332|62:330,1,50,10|0,2:0|1:0,2:0:0:0:
12,328,150110,1,8,2:0:0:0:
22,228,150416,1,6,2:0:0:0:
40,130,150722,5,6,1:2:0:0:
121,72,151028,2,0,B|152:57|152:57|189:58,1,66.6666666666666,10|0,2:0|2:0,2:0:0:0:
213,74,151334,2,0,B|211:125|211:125|232:169,1,99.9999999999999,2|10,2:0|2:0,2:0:0:0:
178,253,151946,1,2,1:2:0:0:
241,330,152252,2,0,B|273:328|273:328|304:342,1,66.6666666666666,10|0,2:0|2:0,2:0:0:0:
337,348,152558,2,0,B|357:304|357:304|356:252,1,99.9999999999999,2|10,2:0|2:0,2:0:0:0:
349,152,153171,6,0,B|381:150|381:150|417:166,1,66.6666666666666,2|2,1:2|2:0,2:0:0:0:
435,140,153477,2,0,L|444:74,1,66.6666666666666,10|2,2:0|2:0,2:0:0:0:
424,47,153783,2,0,B|377:26|377:26|328:29,1,99.9999999999999,2|10,2:0|2:0,2:0:0:0:
246,86,154395,6,0,P|192:79|148:68,1,99.9999999999999,2|10,1:2|2:0,2:0:0:0:
108,97,154854,1,2,1:2:0:0:
108,97,155007,2,0,P|104:123|99:145,1,50,10|0,2:0|1:0,2:0:0:0:
124,189,155314,1,8,2:0:0:0:
188,265,155620,6,0,P|212:259|237:256,1,50,12|0,2:0|1:0,2:0:0:0:
273,222,155926,1,0,1:0:0:0:
273,222,156079,2,0,P|267:197|264:172,2,50,12|0|0,2:0|1:0|1:0,2:0:0:0:
320,236,156538,1,10,2:0:0:0:
414,202,156844,2,0,P|419:226|422:251,1,50,14|0,2:0|1:0,2:0:0:0:
457,287,157150,1,2,1:2:0:0:
457,287,157303,2,0,P|481:281|506:278,2,50,12|0|0,2:0|1:0|1:0,2:0:0:0:
443,334,157762,1,10,2:0:0:0:
344,354,158069,6,0,P|319:348|294:345,1,50,10|0,2:0|1:0,2:0:0:0:
251,369,158375,2,0,P|226:374|201:377,1,50,10|0,2:0|1:0,2:0:0:0:
166,342,158681,2,0,P|171:317|174:292,1,50,10|0,2:0|1:0,2:0:0:0:
211,259,158987,1,10,2:0:0:0:
211,259,159140,2,0,P|196:128|6:117,1,350,4|8,2:0|2:3,2:0:0:0:
0,206,160518,6,0,P|15:248|25:291,1,89.999997253418,6|2,1:2|1:2,2:0:0:0:
80,362,161130,1,0,2:0:0:0:
169,354,161436,2,0,P|258:344|348:344,1,179.999994506836,10|2,2:0|1:2,2:0:0:0:
414,282,162354,2,0,L|412:237,1,44.999998626709,0|8,2:0|2:0,2:0:0:0:
443,204,162661,1,8,2:0:0:0:
392,129,162967,6,0,P|347:136|302:138,1,89.999997253418,2|2,1:2|1:2,2:0:0:0:
228,86,163579,1,0,2:0:0:0:
148,128,163885,2,0,P|63:126|32:205,1,179.999994506836,10|0,2:0|1:0,2:0:0:0:
95,268,164803,2,0,L|92:312,1,44.999998626709,2|8,2:0|2:0,2:0:0:0:
123,345,165110,1,8,2:0:0:0:
209,321,165416,6,0,B|270:312|262:331|298:324,1,89.999997253418,2|2,1:2|1:2,2:0:0:0:
382,355,166028,1,2,2:0:0:0:
456,305,166334,2,0,B|475:200|425:240|440:129,1,179.999994506836,10|2,2:0|1:2,2:0:0:0:
386,56,167252,1,10,2:0:0:0:
310,105,167559,1,10,2:0:0:0:
239,49,167865,6,0,P|199:70|155:73,1,89.999997253418,0|10,1:0|2:0,2:0:0:0:
70,40,168477,1,2,1:2:0:0:
8,105,168783,2,0,L|20:284,1,179.999994506836,10|8,2:0|2:3,2:0:0:0:
90,339,169701,2,0,P|128:316|172:314,1,89.999997253418,4|0,2:3|2:0,2:0:0:0:
232,249,170314,6,0,L|220:89,1,160,6|0,2:0|2:0,2:0:0:0:
333,22,171385,2,0,P|391:23|426:69,1,120,0|0,2:0|2:0,2:0:0:0:
485,134,172150,1,0,2:0:0:0:
430,203,172456,1,0,2:0:0:0:
499,257,172763,6,0,P|491:296|487:336,1,79.9999999999999,0|0,2:0|2:0,2:0:0:0:
449,358,173222,2,0,P|415:337|375:332,1,79.9999999999999,0|0,2:0|2:0,2:0:0:0:
248,365,173987,1,0,2:0:0:0:
89,282,174599,2,0,P|84:242|77:202,1,79.9999999999999,0|0,2:0|2:0,2:0:0:0:
52,173,175059,1,0,2:0:0:0:
52,173,175212,6,0,P|56:133|63:93,1,79.9999999999999,0|0,2:0|2:0,2:0:0:0:
127,34,175824,1,0,2:0:0:0:
201,80,176130,1,0,2:0:0:0:
281,44,176436,1,0,2:0:0:0:
432,134,177048,2,0,L|435:173,1,40,0|0,2:0|2:0,2:0:0:0:
396,195,177354,2,0,L|392:234,1,40,0|0,2:0|2:0,2:0:0:0:
426,271,177661,6,0,B|442:314|442:314|423:354,1,89.999997253418,4|0,1:2|2:0,2:0:0:0:
326,334,178273,2,0,B|283:350|283:350|242:331,1,89.999997253418,4|0,1:2|2:0,2:0:0:0:
148,364,178885,6,0,P|136:341|135:317,1,50,8|8,2:0|2:0,2:0:0:0:
155,274,179191,1,8,2:0:0:0:
155,274,179344,1,12,2:0:0:0:
256,192,179421,12,2,181334,2:0:0:0:
155,274,181946,6,0,L|46:291,1,110.000003356934,4|8,1:0|2:0,2:0:0:0:
19,249,182405,1,2,2:0:0:0:
18,247,182559,2,0,L|26:192,1,55.0000016784668,0|0,1:0|2:0,2:0:0:0:
35,138,182865,1,10,2:0:0:0:
130,80,183171,1,0,1:0:0:0:
130,80,183324,2,0,L|184:88,1,55.0000016784668,2|8,2:0|2:0,2:0:0:0:
279,142,183783,6,0,L|388:125,1,110.000003356934,2|10,1:2|2:0,2:0:0:0:
435,152,184242,1,2,2:0:0:0:
435,152,184395,2,0,L|426:207,1,55.0000016784668,0|2,1:0|2:0,2:0:0:0:
452,254,184701,1,8,2:0:0:0:
402,352,185007,2,0,L|347:343,1,55.0000016784668,2|0,1:2|2:0,2:0:0:0:
298,368,185314,1,8,2:0:0:0:
228,283,185620,2,0,L|119:300,1,110.000003356934,2|10,1:2|2:0,2:0:0:0:
68,314,186079,1,2,2:0:0:0:
68,314,186232,5,6,1:2:0:0:
7,222,186538,1,10,2:0:0:0:
94,155,186844,1,2,1:2:0:0:
32,63,187150,1,10,2:0:0:0:
135,26,187456,2,0,P|161:31|186:42,1,55.0000016784668,2|0,1:2|2:0,2:0:0:0:
233,72,187763,1,8,2:0:0:0:
264,177,188069,2,0,L|268:231,1,55.0000016784668,2|2,1:2|2:0,2:0:0:0:
299,276,188375,2,0,L|353:280,1,55.0000016784668,10|2,2:0|2:0,2:0:0:0:
391,319,188681,5,12,2:0:0:0:
490,273,188987,2,0,L|486:218,1,55.0000016784668,10|0,2:0|1:0,2:0:0:0:
450,175,189293,2,0,L|454:120,1,55.0000016784668,10|0,2:0|1:0,2:0:0:0:
501,92,189599,2,0,L|496:37,1,55.0000016784668,10|2,2:0|1:2,2:0:0:0:
448,10,189905,1,10,2:0:0:0:
355,69,190212,1,8,2:0:0:0:
256,19,190518,2,0,L|201:14,1,55.0000016784668,10|2,2:0|1:2,2:0:0:0:
160,51,190824,1,4,1:2:0:0:
56,13,191130,5,4,1:0:0:0:
18,116,191436,1,8,2:0:0:0:
122,148,191742,2,0,P|176:151|231:157,1,110.000003356934,2|8,1:2|2:0,2:0:0:0:
279,194,192201,1,2,2:0:0:0:
279,194,192354,2,0,P|337:188|394:184,1,110.000003356934,0|10,1:0|2:0,2:0:0:0:
479,246,192967,1,0,1:0:0:0:
500,353,193273,1,10,2:0:0:0:
392,329,193579,6,0,B|337:321|340:350|284:341,1,110.000003356934,2|10,1:2|2:0,2:0:0:0:
237,369,194038,1,2,2:0:0:0:
237,369,194191,2,0,P|166:344|153:304,1,110.000003356934,0|10,1:0|2:0,2:0:0:0:
108,286,194650,1,2,2:0:0:0:
108,286,194803,1,0,1:0:0:0:
20,218,195110,1,8,2:0:0:0:
83,128,195416,2,0,P|112:125|140:123,1,55.0000016784668,2|2,1:2|2:0,2:0:0:0:
173,164,195722,2,0,P|202:167|230:168,1,55.0000016784668,10|2,2:0|2:0,2:0:0:0:
280,183,196028,5,4,1:2:0:0:
359,258,196334,1,10,2:0:0:0:
459,214,196640,2,0,P|465:156|468:99,1,110.000003356934,2|10,1:2|2:0,2:0:0:0:
438,65,197099,1,2,2:0:0:0:
438,65,197252,2,0,P|380:59|323:55,1,110.000003356934,0|10,1:0|2:0,2:0:0:0:
230,5,197865,1,2,1:2:0:0:
169,96,198171,2,0,P|141:97|114:100,1,55.0000016784668,10|2,2:0|2:0,2:0:0:0:
75,139,198477,6,0,P|76:166|79:193,1,55.0000016784668,10|0,2:0|1:0,2:0:0:0:
126,223,198783,2,0,P|123:250|121:277,1,55.0000016784668,10|0,2:0|1:0,2:0:0:0:
115,332,199089,2,0,P|142:333|169:336,1,55.0000016784668,10|0,2:0|1:0,2:0:0:0:
224,342,199395,1,10,2:0:0:0:
303,265,199701,2,0,P|301:237|298:210,1,55.0000016784668,10|0,2:0|1:0,2:0:0:0:
257,182,200007,1,10,2:0:0:0:
257,182,200161,2,0,P|258:154|261:127,1,55.0000016784668,2|10,1:2|2:0,2:0:0:0:
273,77,200466,1,2,1:2:0:0:
273,77,200619,1,6,2:0:0:0:
361,11,200926,6,0,P|389:12|416:15,1,55.0000016784668,14|0,2:0|1:0,2:0:0:0:
458,50,201232,2,0,P|457:78|454:105,1,55.0000016784668,10|0,2:0|1:0,2:0:0:0:
489,147,201538,1,10,2:0:0:0:
428,238,201844,1,10,2:0:0:0:
446,346,202150,6,0,P|418:345|391:342,1,55.0000016784668,10|0,2:0|1:0,2:0:0:0:
346,309,202456,2,0,P|318:310|291:313,1,55.0000016784668,10|0,2:0|1:0,2:0:0:0:
237,325,202763,2,0,P|209:324|182:321,1,55.0000016784668,10|0,2:0|1:0,2:0:0:0:
127,313,203069,1,10,2:0:0:0:
18,330,203375,6,0,P|19:302|22:275,1,55.0000016784668,14|0,2:0|1:0,2:0:0:0:
51,228,203681,2,0,P|50:200|47:173,1,55.0000016784668,8|0,2:0|1:0,2:0:0:0:
42,118,203988,2,0,P|70:117|97:114,1,55.0000016784668,8|0,2:0|1:0,2:0:0:0:
135,75,204293,2,0,P|162:78|189:78,1,55.0000016784668,8|0,2:0|1:0,2:0:0:0:
236,49,204599,1,6,1:2:0:0:
276,335,205518,1,8,2:0:0:0:
377,376,205824,6,0,P|431:355|443:306,1,110.000003356934,6|8,1:2|2:0,2:0:0:0:
482,270,206283,2,0,P|475:215|474:160,1,110.000003356934,6|8,1:2|2:0,2:0:0:0:
434,122,206742,2,0,P|379:128|324:129,1,110.000003356934,6|8,1:2|2:0,2:0:0:0:
283,167,207201,2,0,P|229:146|217:97,1,110.000003356934,6|8,1:2|2:0,2:0:0:0:
228,45,207661,2,0,P|201:44|174:41,1,55.0000016784668,2|2,1:2|1:2,2:0:0:0:
133,4,207967,1,2,1:2:0:0:
82,22,208120,6,0,L|109:303,1,275.000008392334,6|0,1:2|2:0,2:0:0:0:
