osu file format v14

[General]
AudioFilename: audio.mp3
AudioLeadIn: 0
PreviewTime: 61870
Countdown: 0
SampleSet: Soft
StackLeniency: 0.3
Mode: 0
LetterboxInBreaks: 0
WidescreenStoryboard: 1

[Editor]
Bookmarks: 12967,22763,32559,42355,52151,62559,170314,170467,170620,170773,170849,171002,171155,171309,171462,171615,171768,171921,172150,172303,172380,172533,172686,172839,172992,173145,173298,173451,173528,173681,173834,173987,174140,174217,174370,174523,174676,174829,174905,175059,175212,175365,175518,175671,175824,175977,176130,176206,176360,176589,176742,176895,177048,177201,177354,177507,177584,177661,208885
DistanceSpacing: 1.2
BeatDivisor: 8
GridSize: 32
TimelineZoom: 3.499999

[Metadata]
Title:Yoru o Koeru Ashioto
TitleUnicode:夜を越える足音
Artist:Mitei no Hanashi
ArtistUnicode:ミテイノハナシ
Creator:Ascended
Version:Ascended Haruto's Insane
Source:ピーチボーイリバーサイド
Tags:wo footsteps beyond the night arronchu1207 AirinCat Haruto Haruto_Aizawa Kyouren gokugohan12468 KittyAdventure jrock j-rock japanese peach boy riverside anime ed ending Aru.
BeatmapID:4137162
BeatmapSetID:1990332

[Difficulty]
HPDrainRate:5
CircleSize:4
OverallDifficulty:8
ApproachRate:9
SliderMultiplier:1.65
SliderTickRate:1

[Events]
//Background and Video events
0,0,"there are no good backgrounds.jpg",0,0
//Break Periods
2,170514,177061
//Storyboard Layer 0 (Background)
//Storyboard Layer 1 (Fail)
//Storyboard Layer 2 (Pass)
//Storyboard Layer 3 (Foreground)
//Storyboard Layer 4 (Overlay)
//Storyboard Sound Samples

[TimingPoints]
1637,315.789473684211,4,2,1,40,1,0
11743,306.122448979592,4,2,1,60,1,0
12890,-100,4,2,1,5,0,0
12967,-100,4,2,1,70,0,0
16869,-100,4,2,1,5,0,0
16947,-100,4,2,1,70,0,0
17788,-100,4,2,1,5,0,0
17865,-100,4,2,1,70,0,0
20237,-100,4,2,1,5,0,0
20314,-100,4,2,1,70,0,0
22763,-133.333333333333,4,2,1,50,0,0
32559,-125,4,2,1,60,0,0
36155,-125,4,2,1,5,0,0
36232,-125,4,2,1,60,0,0
42278,-125,4,2,1,5,0,0
42355,-125,4,2,1,55,0,0
50926,-100,4,2,1,55,0,0
52151,-142.857142857143,4,2,1,50,0,0
56436,-142.857142857143,4,2,1,55,0,0
57049,-111.111111111111,4,2,1,60,0,0
59498,-111.111111111111,4,2,1,70,0,0
60645,-111.111111111111,4,2,1,5,0,0
60722,-111.111111111111,4,2,1,70,0,0
61947,-111.111111111111,4,2,1,65,0,0
62253,-111.111111111111,4,2,1,70,0,0
62482,-111.111111111111,4,2,1,5,0,0
62559,306.122448979592,4,2,1,80,1,1
62559,-90.9090909090909,4,2,1,80,0,1
63094,-90.9090909090909,4,2,1,5,0,1
63171,-90.9090909090909,4,2,1,80,0,1
64930,-90.9090909090909,4,2,1,5,0,1
65007,-90.9090909090909,4,2,1,80,0,1
68604,-90.9090909090909,4,2,1,5,0,1
68681,-90.9090909090909,4,2,1,80,0,1
72277,-90.9090909090909,4,2,1,5,0,1
72354,-90.9090909090909,4,2,1,80,0,1
74726,-90.9090909090909,4,2,1,5,0,1
74803,-90.9090909090909,4,2,1,80,0,1
78706,-90.9090909090909,4,2,1,5,0,1
78783,-90.9090909090909,4,2,1,80,0,1
82150,-100,4,2,1,70,0,0
86053,-100,4,2,1,5,0,0
86130,-100,4,2,1,70,0,0
86971,-100,4,2,1,5,0,0
87048,-100,4,2,1,70,0,0
91946,-133.333333333333,4,2,1,50,0,0
100977,-100,4,2,1,50,0,0
101742,-100,4,2,1,60,0,0
102354,-111.111111111111,4,2,1,60,0,0
102890,-111.111111111111,4,2,1,5,0,0
102967,-111.111111111111,4,2,1,60,0,0
105339,-111.111111111111,4,2,1,5,0,0
105416,-111.111111111111,4,2,1,60,0,0
107788,-111.111111111111,4,2,1,5,0,0
107865,-111.111111111111,4,2,1,60,0,0
111538,-111.111111111111,4,2,1,55,0,0
116359,-111.111111111111,4,2,1,5,0,0
116436,-111.111111111111,4,2,1,60,0,0
118885,-111.111111111111,4,2,1,70,0,0
120032,-111.111111111111,4,2,1,5,0,0
120110,-111.111111111111,4,2,1,70,0,0
120722,-111.111111111111,4,2,1,60,0,0
121028,-100,4,2,1,60,0,0
121334,-90.9090909090909,4,2,1,80,0,1
121869,-90.9090909090909,4,2,1,5,0,1
121946,-90.9090909090909,4,2,1,80,0,1
123706,-90.9090909090909,4,2,1,5,0,1
123782,-90.9090909090909,4,2,1,80,0,1
131052,-90.9090909090909,4,2,1,5,0,1
131130,-90.9090909090909,4,2,1,80,0,1
133273,-111.111111111111,4,2,1,80,0,1
133502,-111.111111111111,4,2,1,5,0,1
133579,-90.9090909090909,4,2,1,80,0,1
137482,-90.9090909090909,4,2,1,5,0,1
137559,-90.9090909090909,4,2,1,80,0,1
140926,-83.3333333333333,4,2,1,65,0,0
150110,-76.9230769230769,4,2,1,65,0,0
150645,-76.9230769230769,4,2,1,5,0,0
150722,-83.3333333333333,4,2,1,65,0,0
155543,-83.3333333333333,4,2,1,5,0,0
155620,-83.3333333333333,4,2,1,65,0,0
159140,-200,4,2,1,65,0,0
160135,-142.857142857143,4,2,1,65,0,0
160518,-142.857142857143,4,2,1,45,0,0
161436,-200,4,2,1,45,0,0
177661,-200,4,2,1,65,0,0
178273,-133.333333333333,4,2,1,65,0,0
181334,-133.333333333333,4,2,1,50,0,0
181946,-90.9090909090909,4,2,1,80,0,1
183706,-90.9090909090909,4,2,1,5,0,1
183782,-90.9090909090909,4,2,1,80,0,1
191052,-90.9090909090909,4,2,1,5,0,1
191130,-90.9090909090909,4,2,1,80,0,1
197482,-90.9090909090909,4,2,1,5,0,1
197559,-90.9090909090909,4,2,1,80,0,1
204599,-90.9090909090909,4,2,1,70,0,0
206053,-90.9090909090909,4,2,1,5,0,0
206130,-90.9090909090909,4,2,1,70,0,0
206971,-90.9090909090909,4,2,1,5,0,0
207048,-90.9090909090909,4,2,1,70,0,0
208120,-200,4,2,1,70,0,1
208885,-200,4,2,99,30,0,0

[Colours]
Combo1 : 236,183,83
Combo2 : 183,183,255

[HitObjects]
9,101,11743,5,2,2:0:0:0:
190,10,12049,5,2,2:0:0:0:
299,227,12355,6,0,P|301:206|304:186,1,41.25,8|8,2:3|2:3,2:0:0:0:
371,108,12508,1,4,2:3:0:0:
371,108,12584,1,8,2:3:0:0:
371,108,12661,2,0,B|317:87|305:121|249:104,1,123.75,4|0,1:2|2:0,2:0:0:0:
190,10,12967,6,0,P|231:16|273:20,1,82.5,6|0,1:2|2:0,2:0:0:0:
444,167,13273,2,0,P|469:114|446:68,1,82.5,10|0,2:0|2:0,2:0:0:0:
209,212,13579,2,0,P|206:252|229:286,1,82.5,2|0,2:0|1:0,2:0:0:0:
324,349,13885,6,0,P|311:265|303:182,1,165,10|0,2:0|1:0,2:0:0:0:
303,185,14345,1,0,2:0:0:0:
473,261,14498,2,0,P|432:255|390:251,1,82.5,10|0,2:0|2:0,2:0:0:0:
82,366,14804,2,0,P|123:360|165:356,1,82.5,2|0,2:0|1:0,2:0:0:0:
222,288,15110,2,0,B|230:246|230:246|217:206,1,82.5,8|0,2:0|2:0,2:0:0:0:
127,107,15416,6,0,B|154:178|109:194|132:269,2,165,2|10|2,1:2|2:0|2:0,2:0:0:0:
127,107,16181,1,0,1:0:0:0:
0,75,16334,2,0,P|44:65|84:23,1,82.5,10|0,2:0|2:0,2:0:0:0:
235,0,16640,6,0,P|226:61|220:124,1,123.75,0|0,1:0|2:0,2:0:0:0:
296,168,16947,2,0,P|321:135|329:95,1,82.5,10|0,2:0|2:0,2:0:0:0:
135,198,17253,2,0,P|176:201|216:207,1,82.5,2|0,2:0|1:0,2:0:0:0:
491,315,17559,6,0,B|436:293|424:328|368:310,1,123.75,8|0,2:0|2:0,2:0:0:0:
282,339,17865,2,0,P|287:298|291:257,1,82.5,6|0,1:2|2:0,2:0:0:0:
487,145,18171,2,0,P|481:185|477:226,1,82.5,10|0,2:0|2:0,2:0:0:0:
296,168,18477,2,0,P|336:173|377:177,1,82.5,2|0,2:0|1:0,2:0:0:0:
512,12,18783,2,0,P|466:4|404:97,1,165,10|0,2:0|1:0,2:0:0:0:
491,315,19243,1,0,2:0:0:0:
363,348,19396,6,0,P|322:342|281:338,1,82.5,10|0,2:0|2:0,2:0:0:0:
192,366,19702,2,0,P|197:325|201:284,1,82.5,2|0,2:0|1:0,2:0:0:0:
106,198,20008,2,0,P|92:224|121:314,1,123.75,8|0,2:0|2:0,2:0:0:0:
207,281,20314,6,0,B|235:208|189:192|212:117,1,165,14|0,2:0|1:0,2:0:0:0:
431,158,20773,2,0,B|396:109|336:123|336:123|324:152|290:162,1,165,14|0,2:0|1:0,2:0:0:0:
195,32,21232,2,0,P|235:37|276:41,1,82.5,14|0,2:0|2:0,2:0:0:0:
323,253,21538,2,0,P|363:247|404:243,1,82.5,2|0,1:2|2:0,2:0:0:0:
497,28,21845,6,0,P|440:10|384:109,1,165,6|0,2:0|2:0,2:0:0:0:
431,158,22304,1,0,2:0:0:0:
431,158,22457,1,0,2:0:0:0:
489,227,22610,1,0,2:0:0:0:
339,340,22763,6,0,P|308:337|278:332,2,61.875002360344,2|0|0,1:2|2:0|1:0,2:0:0:0:
426,377,23222,1,2,2:0:0:0:
426,377,23375,2,0,P|429:346|434:316,1,61.875002360344,0|2,1:0|2:0,2:0:0:0:
352,192,23681,2,0,P|357:223|360:253,1,61.875002360344,2|0,1:2|2:0,2:0:0:0:
206,380,23987,5,2,1:2:0:0:
206,380,24294,1,2,1:2:0:0:
194,293,24447,1,0,2:0:0:0:
206,380,24600,2,0,P|144:374|107:328,1,123.750004720688,2|2,1:2|1:2,2:0:0:0:
107,328,25059,1,0,2:0:0:0:
21,290,25212,6,0,P|16:321|13:351,1,61.875002360344,2|2,1:2|2:0,2:0:0:0:
122,228,25518,2,0,P|119:197|114:167,1,61.875002360344,2|2,1:2|2:0,2:0:0:0:
35,99,25824,6,0,P|38:68|43:38,2,61.875002360344,2|0|2,1:2|2:0|1:2,2:0:0:0:
35,99,26283,1,0,2:0:0:0:
213,192,26436,5,2,1:2:0:0:
213,192,26743,1,2,1:2:0:0:
293,237,26896,1,0,2:0:0:0:
348,167,27049,2,0,P|392:132|461:138,1,123.750004720688,0|2,1:0|1:2,2:0:0:0:
456,135,27508,1,0,2:0:0:0:
411,285,27661,5,2,1:2:0:0:
411,285,27814,2,0,P|414:254|419:224,1,61.875002360344,2|0,2:0|1:0,2:0:0:0:
335,384,28120,1,2,2:0:0:0:
335,384,28273,2,0,P|332:353|327:323,1,61.875002360344,2|0,1:2|2:0,2:0:0:0:
486,349,28579,1,2,1:2:0:0:
246,258,28885,5,2,1:2:0:0:
246,258,29191,2,0,P|211:214|217:145,1,123.750004720688,2|0,1:2|1:0,2:0:0:0:
312,117,29804,2,0,L|301:178,1,61.875002360344,2|0,1:2|2:0,2:0:0:0:
379,225,30110,6,0,B|439:214|420:182|492:166,1,123.750004720688,2|2,1:2|1:2,2:0:0:0:
54,255,30722,5,2,1:2:0:0:
170,318,30875,2,0,P|139:321|109:326,1,61.875002360344,2|2,2:0|1:2,2:0:0:0:
108,326,31181,1,0,2:0:0:0:
276,344,31334,6,0,L|247:30,1,309.37501180172,12|2,2:0|2:0,2:0:0:0:
248,36,32253,1,2,2:0:0:0:
248,36,32406,1,0,2:0:0:0:
163,149,32559,6,0,P|126:129|123:38,1,132,6|10,1:2|2:0,2:0:0:0:
343,100,33018,1,8,2:3:0:0:
343,100,33095,1,8,2:3:0:0:
343,100,33171,2,0,P|375:107|407:114,1,66,8|2,2:3|1:2,2:0:0:0:
483,74,33477,2,0,P|497:29|475:-11,1,66,10|2,2:0|2:0,2:0:0:0:
263,156,33783,2,0,B|244:217|281:231|258:291,1,132,2|10,1:2|2:0,2:0:0:0:
172,315,34243,1,8,2:3:0:0:
172,315,34319,1,8,2:3:0:0:
172,315,34396,2,0,B|165:281|165:281|175:250,1,66,8|0,2:3|1:0,2:0:0:0:
309,361,34702,2,0,P|276:367|244:375,1,66,10|2,2:0|2:0,2:0:0:0:
29,227,35008,6,0,P|61:220|93:212,1,66,2|0,1:2|1:0,2:0:0:0:
163,149,35314,2,0,P|178:96|156:60,1,99,10|8,2:0|2:3,2:0:0:0:
62,45,35620,2,0,P|69:77|76:109,1,66,8|0,2:3|1:0,2:0:0:0:
263,156,35926,6,0,B|284:130|318:135|318:135|328:155|348:164,1,99,10|0,2:0|2:0,2:0:0:0:
388,229,36232,6,0,P|442:215|459:128,1,132,2|8,1:2|2:0,2:0:0:0:
382,28,36691,1,8,2:3:0:0:
382,28,36768,1,8,2:3:0:0:
382,28,36845,2,0,P|389:60|396:92,1,66,8|2,2:3|1:2,2:0:0:0:
485,64,37151,2,0,P|477:31|470:0,1,66,10|0,2:0|2:0,2:0:0:0:
263,156,37457,6,0,B|201:137|196:174|127:151,1,132,2|8,1:2|2:0,2:0:0:0:
64,215,37916,1,8,2:3:0:0:
64,215,37993,1,8,2:3:0:0:
64,215,38069,2,0,P|31:221|0:229,1,66,8|0,2:3|1:0,2:0:0:0:
34,59,38375,2,0,P|34:92|51:121,1,66,8|2,2:0|2:0,2:0:0:0:
151,245,38681,5,0,1:0:0:0:
237,265,38834,2,0,P|301:279|365:294,1,132,2|8,2:0|2:3,2:0:0:0:
365,294,39217,1,8,2:3:0:0:
365,294,39294,1,8,2:3:0:0:
131,375,39447,1,0,1:0:0:0:
131,375,39600,2,0,P|156:338|188:324,1,66,10|0,2:0|2:0,2:0:0:0:
210,179,39906,6,0,P|258:163|341:212,1,132,2|10,1:2|2:0,2:0:0:0:
460,336,40365,1,8,2:3:0:0:
460,336,40441,1,8,2:3:0:0:
460,336,40518,2,0,B|478:274|442:269|464:200,1,132,8|10,2:3|2:0,2:0:0:0:
462,205,40977,1,2,2:0:0:0:
509,25,41130,5,8,2:0:0:0:
419,4,41283,1,0,1:0:0:0:
398,94,41436,1,0,1:0:0:0:
488,115,41589,1,12,2:0:0:0:
201,69,41896,5,0,1:0:0:0:
201,69,41972,1,0,1:0:0:0:
201,69,42049,2,0,B|153:53|149:81|102:66,1,99,12|0,2:0|2:0,2:0:0:0:
89,52,42355,5,6,1:2:0:0:
37,122,42508,1,2,1:2:0:0:
94,186,42661,1,2,1:2:0:0:
94,186,42814,1,10,2:0:0:0:
71,271,42967,2,0,P|36:263|4:260,2,66,2|0|10,2:0|1:0|2:0,2:0:0:0:
292,348,43579,5,2,1:2:0:0:
292,348,43732,1,2,1:2:0:0:
347,269,43885,1,2,1:2:0:0:
419,320,44038,2,0,P|467:310|495:237,1,132,10|0,2:0|1:0,2:0:0:0:
446,168,44498,1,10,2:0:0:0:
167,12,44804,5,2,1:2:0:0:
256,0,44957,1,2,1:2:0:0:
298,75,45110,1,2,1:2:0:0:
298,75,45263,1,10,2:0:0:0:
212,88,45416,2,0,P|179:95|147:99,2,66,2|0|10,2:0|1:0|2:0,2:0:0:0:
287,380,46028,5,2,1:2:0:0:
196,319,46181,1,2,1:2:0:0:
284,257,46334,1,2,1:2:0:0:
188,190,46487,2,0,B|123:181|120:221|51:213,1,132,10|0,2:0|1:0,2:0:0:0:
122,296,46947,2,0,P|157:300|189:308,1,66,10|0,2:0|2:0,2:0:0:0:
284,257,47253,5,2,1:2:0:0:
368,289,47406,1,2,1:2:0:0:
454,233,47559,1,2,1:2:0:0:
454,233,47712,1,10,2:0:0:0:
427,148,47865,2,0,P|430:115|438:83,2,66,2|0|8,2:0|1:0|2:0,2:0:0:0:
235,162,48477,5,2,1:2:0:0:
235,162,48630,1,2,1:2:0:0:
172,109,48783,1,2,1:2:0:0:
88,141,48936,2,0,P|40:131|12:58,1,132,10|0,2:0|1:0,2:0:0:0:
84,16,49396,1,10,2:0:0:0:
272,236,49702,5,2,1:2:0:0:
156,207,49855,1,2,1:2:0:0:
127,322,50008,1,2,1:2:0:0:
243,351,50161,2,0,P|312:341|381:333,1,132,10|0,2:0|1:0,2:0:0:0:
466,365,50620,2,0,P|461:330|457:296,1,66,10|2,2:0|2:0,2:0:0:0:
381,183,50926,6,0,P|421:200|468:205,1,82.5,10|0,2:0|1:0,2:0:0:0:
437,110,51232,1,0,2:0:0:0:
303,131,51385,6,0,P|294:175|292:226,1,82.5,10|0,2:0|1:0,2:0:0:0:
213,135,51691,1,0,2:0:0:0:
283,310,51845,1,10,2:0:0:0:
132,349,52151,6,0,P|169:330|184:246,1,115.49999647522,4|2,2:0|2:3,2:0:0:0:
189,262,52610,1,0,2:0:0:0:
93,206,52763,2,0,P|101:243|106:270,1,57.7499982376099,2|0,2:3|2:0,2:0:0:0:
180,178,53069,2,0,P|172:141|167:114,1,57.7499982376099,2|0,2:3|2:0,2:0:0:0:
265,208,53375,2,0,P|321:220|377:233,1,115.49999647522,2|2,2:3|2:3,2:0:0:0:
377,233,53834,1,0,2:0:0:0:
459,187,53987,2,0,P|476:155|472:124,1,57.7499982376099,2|0,2:3|2:0,2:0:0:0:
362,93,54294,2,0,P|363:121|378:145,1,57.7499982376099,2|0,2:3|2:0,2:0:0:0:
508,56,54600,6,0,P|486:26|400:30,2,115.49999647522,2|2|2,2:3|2:3|2:3,2:0:0:0:
381,239,55365,1,0,2:0:0:0:
381,239,55518,2,0,P|389:276|394:303,1,57.7499982376099,2|0,2:3|2:0,2:0:0:0:
476,378,55824,6,0,B|426:358|418:395|357:373,1,115.49999647522,2|2,2:3|2:3,2:0:0:0:
362,374,56283,1,0,2:0:0:0:
305,308,56436,1,12,2:3:0:0:
305,308,56513,1,12,2:3:0:0:
305,308,56589,1,12,2:3:0:0:
221,348,56743,2,0,P|215:319|209:291,1,57.7499982376099,6|0,2:0|2:0,2:0:0:0:
119,181,57049,6,0,L|272:217,1,148.49999546814,6|2,1:2|1:2,2:0:0:0:
32,229,57508,2,0,B|6:159|52:149|26:83,1,148.49999546814,10|2,2:0|1:2,2:0:0:0:
139,23,57967,2,0,P|140:63|108:101,1,74.2499977340699,10|0,2:0|2:0,2:0:0:0:
32,229,58273,6,0,P|79:258|86:354,1,148.49999546814,0|2,1:0|1:2,2:0:0:0:
5,313,58732,1,8,2:0:0:0:
192,363,58885,2,0,L|213:271,1,74.2499977340699,2|0,2:0|1:0,2:0:0:0:
246,142,59191,2,0,L|267:233,1,74.2499977340699,10|0,2:0|2:0,2:0:0:0:
446,337,59498,6,0,L|301:302,1,148.49999546814,10|0,2:0|2:0,2:0:0:0:
101,107,59957,6,0,L|245:141,1,148.49999546814,8|0,2:0|2:0,2:0:0:0:
512,55,60416,2,0,L|396:82,1,111.374996601105,8|0,2:0|2:0,2:0:0:0:
403,80,60722,5,10,2:0:0:0:
330,160,60875,1,8,2:0:0:0:
334,164,61028,1,8,2:0:0:0:
181,55,61181,1,8,2:0:0:0:
209,290,61947,5,14,2:3:0:0:
209,290,62023,1,12,2:3:0:0:
209,290,62100,1,12,2:3:0:0:
135,340,62253,2,0,P|103:304|26:304,1,111.374996601105,4|0,1:2|2:0,2:0:0:0:
29,287,62559,6,0,P|21:237|17:187,1,90.7500027694703,4|0,1:0|1:0,2:0:0:0:
77,0,62865,2,0,P|143:3|181:88,1,136.125004154205,8|0,2:0|2:0,2:0:0:0:
196,76,63171,2,0,P|204:125|208:175,1,90.7500027694703,2|0,2:0|1:0,2:0:0:0:
107,139,63477,1,8,2:0:0:0:
166,266,63630,5,2,2:0:0:0:
166,266,63706,1,2,2:0:0:0:
166,266,63783,2,0,P|214:258|264:254,1,90.7500027694703,0|0,1:0|1:0,2:0:0:0:
421,384,64089,2,0,P|490:322|473:221,1,181.500005538941,10|2,2:0|2:0,2:0:0:0:
386,176,64548,1,2,1:2:0:0:
285,348,64701,2,0,B|212:329|218:377|141:356,1,136.125004154205,8|0,2:0|2:0,2:0:0:0:
149,363,65007,6,0,P|100:355|50:351,1,90.7500027694703,2|0,1:2|1:0,2:0:0:0:
166,266,65314,1,10,2:0:0:0:
60,138,65467,2,0,P|49:185|74:226,1,90.7500027694703,2|0,2:0|2:0,2:0:0:0:
166,105,65773,1,2,1:2:0:0:
98,34,65926,2,0,P|49:41|0:45,1,90.7500027694703,8|0,2:0|2:0,2:0:0:0:
225,175,66232,6,0,P|249:176|274:180,2,45.3750013847352,2|2|0,1:2|2:0|1:0,2:0:0:0:
242,1,66538,2,0,P|267:43|254:93,1,90.7500027694703,8|0,2:0|2:0,2:0:0:0:
279,277,66844,2,0,P|309:203|431:190,1,181.500005538941,2|10,2:0|2:0,2:0:0:0:
480,257,67303,1,2,2:0:0:0:
395,370,67456,6,0,P|387:321|383:271,1,90.7500027694703,6|0,1:2|1:0,2:0:0:0:
202,214,67763,2,0,P|194:262|190:312,1,90.7500027694703,10|0,2:0|2:0,2:0:0:0:
276,374,68069,1,2,2:0:0:0:
276,374,68222,1,0,1:0:0:0:
77,300,68375,2,0,P|32:289|15:195,1,136.125004154205,10|0,2:0|2:0,2:0:0:0:
11,207,68681,6,0,P|60:203|109:190,1,90.7500027694703,2|0,1:2|1:0,2:0:0:0:
229,36,68987,2,0,P|183:59|173:110,1,90.7500027694703,8|0,2:0|2:0,2:0:0:0:
68,92,69293,5,2,2:0:0:0:
197,210,69446,1,2,1:2:0:0:
272,136,69599,2,0,P|320:128|370:124,1,90.7500027694703,10|2,2:0|1:2,2:0:0:0:
141,288,69905,5,12,2:0:0:0:
141,288,70212,5,10,2:0:0:0:
332,339,70365,1,0,1:0:0:0:
225,358,70518,5,10,2:0:0:0:
225,358,70671,1,0,1:0:0:0:
420,280,70824,2,0,P|428:328|432:378,1,90.7500027694703,10|2,2:0|1:2,2:0:0:0:
505,195,71130,5,10,2:0:0:0:
309,110,71283,1,0,1:0:0:0:
350,219,71436,5,8,2:0:0:0:
350,219,71589,1,0,1:0:0:0:
221,142,71742,5,10,2:0:0:0:
133,181,71895,1,2,1:2:0:0:
133,181,71972,1,0,1:0:0:0:
133,181,72048,2,0,P|55:167|33:97,1,136.125004154205,4|0,1:2|2:0,2:0:0:0:
27,117,72354,6,0,P|35:76|42:15,1,90.7500027694703,4|0,1:0|2:0,2:0:0:0:
133,181,72661,2,0,P|138:221|147:280,1,90.7500027694703,8|0,2:0|2:0,2:0:0:0:
318,133,72967,2,0,B|214:142|227:84|129:91,1,181.500005538941,2|8,1:2|2:0,2:0:0:0:
255,251,73426,5,2,2:0:0:0:
255,251,73502,1,2,2:0:0:0:
254,251,73579,2,0,P|293:240|355:228,1,90.7500027694703,0|0,1:0|2:0,2:0:0:0:
208,372,73885,2,0,P|137:304|41:310,1,181.500005538941,10|0,2:0|1:0,2:0:0:0:
113,384,74344,1,0,2:0:0:0:
309,334,74497,2,0,P|369:344|456:364,1,136.125004154205,10|0,2:0|2:0,2:0:0:0:
446,364,74803,6,0,P|490:291|469:191,1,181.500005538941,2|10,1:2|2:0,2:0:0:0:
340,104,75263,1,2,2:0:0:0:
340,104,75339,1,2,2:0:0:0:
340,104,75416,2,0,P|380:97|438:81,1,90.7500027694703,0|0,1:0|1:0,2:0:0:0:
281,190,75722,1,10,2:0:0:0:
281,190,75875,1,2,2:0:0:0:
189,123,76028,6,0,B|81:119|99:173|-6:166,1,181.500005538941,0|8,1:0|2:0,2:0:0:0:
60,15,76487,1,2,2:0:0:0:
60,15,76640,2,0,P|99:26|158:36,1,90.7500027694703,2|2,1:2|2:0,2:0:0:0:
200,211,76946,1,10,2:0:0:0:
361,194,77099,5,2,2:0:0:0:
361,194,77176,1,2,2:0:0:0:
361,194,77252,2,0,P|381:110|321:26,1,181.500005538941,4|10,1:2|2:0,2:0:0:0:
269,136,77712,1,0,2:0:0:0:
465,185,77865,1,2,1:2:0:0:
465,185,78018,2,0,P|452:244|450:276,1,90.7500027694703,2|8,1:2|2:0,2:0:0:0:
266,376,78324,5,2,2:0:0:0:
266,376,78400,1,2,2:0:0:0:
266,376,78477,2,0,P|313:332|394:356,1,136.125004154205,0|0,1:0|2:0,2:0:0:0:
384,347,78783,2,0,L|477:370,1,90.7500027694703,10|0,2:0|2:0,2:0:0:0:
297,227,79089,2,0,L|116:175,1,181.500005538941,2|10,1:2|2:0,2:0:0:0:
253,117,79548,1,2,2:0:0:0:
96,277,79701,6,0,P|54:280|0:301,1,90.7500027694703,10|0,2:0|1:0,2:0:0:0:
122,176,80007,2,0,P|118:134|104:85,1,90.7500027694703,10|0,2:0|1:0,2:0:0:0:
303,231,80314,2,0,P|344:227|391:211,1,90.7500027694703,10|0,2:0|1:0,2:0:0:0:
197,375,80620,2,0,P|200:333|213:287,1,90.7500027694703,10|0,2:0|1:0,2:0:0:0:
348,127,80926,6,0,P|424:124|492:213,1,181.500005538941,10|10,2:0|2:0,2:0:0:0:
254,149,81385,2,0,P|251:107|237:52,1,90.7500027694703,2|10,1:2|2:0,2:0:0:0:
134,179,81691,1,2,1:2:0:0:
134,179,81768,1,0,1:0:0:0:
134,179,81844,1,6,2:0:0:0:
134,179,82150,6,0,P|140:138|144:96,1,82.5,6|0,1:2|2:0,2:0:0:0:
0,12,82456,2,0,P|-6:55|17:95,1,82.5,10|0,2:0|2:0,2:0:0:0:
170,16,82763,2,0,P|127:10|87:33,1,82.5,2|0,2:0|1:0,2:0:0:0:
38,209,83069,6,0,P|129:217|167:278,1,165,10|0,2:0|1:0,2:0:0:0:
226,181,83528,1,0,2:0:0:0:
76,292,83681,2,0,P|80:333|87:380,1,82.5,10|2,2:0|2:0,2:0:0:0:
250,338,83987,2,0,P|256:297|260:256,1,82.5,2|0,2:0|1:0,2:0:0:0:
422,299,84293,1,8,2:0:0:0:
422,299,84599,6,0,P|486:277|505:181,2,165,2|10|2,1:2|2:0|2:0,2:0:0:0:
340,239,85365,1,0,1:0:0:0:
416,129,85518,2,0,P|422:170|426:211,1,82.5,10|0,2:0|2:0,2:0:0:0:
219,9,85824,6,0,P|287:15|315:60,1,123.75,0|0,1:0|2:0,2:0:0:0:
331,66,86130,2,0,P|325:107|321:148,1,82.5,10|0,2:0|2:0,2:0:0:0:
230,196,86436,2,0,P|224:155|220:114,1,82.5,2|0,2:0|1:0,2:0:0:0:
133,65,86742,2,0,P|77:80|47:140,1,123.75,8|0,2:0|2:0,2:0:0:0:
40,153,87048,6,0,P|46:194|50:235,1,82.5,6|0,1:2|2:0,2:0:0:0:
172,356,87354,2,0,P|189:320|182:274,1,82.5,10|0,2:0|2:0,2:0:0:0:
22,315,87661,2,0,P|62:320|99:303,1,82.5,2|0,2:0|1:0,2:0:0:0:
287,311,87967,6,0,P|224:280|202:188,1,165,10|0,2:0|1:0,2:0:0:0:
279,137,88426,1,0,2:0:0:0:
379,226,88579,2,0,P|373:267|369:308,1,82.5,10|2,2:0|2:0,2:0:0:0:
268,124,88885,2,0,P|262:83|258:42,1,82.5,2|0,2:0|1:0,2:0:0:0:
437,160,89191,1,8,2:0:0:0:
437,160,89497,6,0,B|375:173|375:173|342:203|342:203|281:216,1,165,14|0,2:0|1:0,2:0:0:0:
154,98,89956,2,0,B|93:83|93:83|31:118|59:175,1,165,14|0,2:0|1:0,2:0:0:0:
171,261,90416,2,0,B|192:226|192:226|179:181,1,82.5,14|0,2:0|2:0,2:0:0:0:
7,347,90722,6,0,P|48:341|89:337,1,82.5,10|0,2:0|1:0,2:0:0:0:
110,359,90951,1,0,1:0:0:0:
110,359,91028,2,0,P|151:353|192:349,1,82.5,6|0,2:0|2:0,2:0:0:0:
279,370,91334,1,8,2:0:0:0:
356,322,91487,1,2,2:0:0:0:
443,349,91640,1,2,2:0:0:0:
443,349,91793,1,2,2:0:0:0:
496,265,91946,6,0,P|465:261|434:256,1,61.875002360344,6|2,2:0|1:2,2:0:0:0:
346,161,92252,2,0,P|376:164|407:169,1,61.875002360344,2|2,1:2|1:2,2:0:0:0:
267,280,92559,2,0,B|206:266|206:301|140:288,1,123.750004720688,2|2,2:3|2:0,2:0:0:0:
72,344,93018,5,8,2:3:0:0:
72,344,93094,1,8,2:3:0:0:
72,344,93171,1,8,2:3:0:0:
5,269,93324,1,0,1:0:0:0:
5,269,93477,2,0,P|8:238|13:207,1,61.875002360344,2|2,1:2|1:2,2:0:0:0:
78,19,93783,2,0,P|87:80|94:141,1,123.750004720688,2|2,2:3|2:0,2:0:0:0:
179,196,94395,5,2,1:2:0:0:
179,196,94548,1,0,1:0:0:0:
179,196,94701,2,0,P|209:191|240:187,1,61.875002360344,2|0,1:2|1:0,2:0:0:0:
413,125,95007,2,0,P|350:132|303:96,1,123.750004720688,2|2,2:3|2:0,2:0:0:0:
339,220,95467,5,8,2:3:0:0:
339,220,95543,1,8,2:3:0:0:
339,220,95620,2,0,P|344:250|348:281,1,61.875002360344,8|2,2:3|1:2,2:0:0:0:
257,342,95926,2,0,P|252:312|248:281,1,61.875002360344,2|2,1:2|1:2,2:0:0:0:
417,349,96232,1,2,2:3:0:0:
489,296,96385,1,2,1:2:0:0:
450,217,96538,1,10,2:0:0:0:
247,280,96844,6,0,P|216:276|185:271,1,61.875002360344,6|2,1:2|1:2,2:0:0:0:
181,175,97150,2,0,P|211:172|242:167,1,61.875002360344,2|2,1:2|1:2,2:0:0:0:
123,349,97456,2,0,P|94:295|100:234,1,123.750004720688,2|2,2:3|2:0,2:0:0:0:
19,194,97916,5,8,2:3:0:0:
19,194,97992,1,8,2:3:0:0:
19,194,98069,1,8,2:3:0:0:
84,125,98222,1,0,1:0:0:0:
84,125,98375,2,0,P|81:94|76:63,1,61.875002360344,2|2,1:2|1:2,2:0:0:0:
242,166,98681,2,0,P|303:173|364:182,1,123.750004720688,2|6,2:3|2:0,2:0:0:0:
205,66,99293,5,6,1:2:0:0:
182,255,99446,1,0,1:0:0:0:
209,70,99905,5,6,1:2:0:0:
186,259,100058,1,0,1:0:0:0:
190,263,100518,5,10,2:0:0:0:
104,211,100671,2,0,P|73:222|36:229,1,61.875002360344,2|0,1:2|1:0,2:0:0:0:
213,74,100977,2,0,L|380:117,1,165,6|10,2:0|2:0,2:0:0:0:
355,200,101436,1,2,1:2:0:0:
438,164,101589,1,10,2:0:0:0:
388,31,101742,5,6,1:2:0:0:
388,31,101895,1,2,2:0:0:0:
304,61,102048,1,10,2:0:0:0:
282,147,102201,1,2,2:0:0:0:
185,214,102354,2,0,P|224:220|260:233,1,74.2499977340699,2|0,1:2|2:0,2:0:0:0:
349,354,102661,2,0,P|402:343|430:284,1,111.374996601105,10|0,2:0|2:0,2:0:0:0:
425,290,102967,5,2,1:2:0:0:
339,263,103120,1,2,2:0:0:0:
268,327,103273,1,10,2:0:0:0:
268,327,103426,1,2,2:0:0:0:
184,300,103579,2,0,P|108:308|31:318,1,148.49999546814,0|10,1:0|2:0,2:0:0:0:
66,31,104191,5,2,1:2:0:0:
66,31,104344,1,2,2:0:0:0:
148,54,104497,1,10,2:0:0:0:
122,137,104650,1,2,2:0:0:0:
203,203,104803,2,0,P|205:163|216:128,1,74.2499977340699,2|0,1:2|2:0,2:0:0:0:
316,7,105110,2,0,P|369:18|397:77,1,111.374996601105,10|0,2:0|2:0,2:0:0:0:
395,84,105416,5,2,1:2:0:0:
305,106,105569,1,2,2:0:0:0:
324,197,105722,1,10,2:0:0:0:
418,177,105875,1,2,2:0:0:0:
489,230,106028,1,0,1:0:0:0:
489,230,106181,2,0,P|482:262|476:303,2,74.2499977340699,8|2|8,2:0|1:2|2:0,2:0:0:0:
368,352,106640,5,6,1:2:0:0:
368,352,106793,1,2,2:0:0:0:
279,329,106946,1,10,2:0:0:0:
305,241,107099,1,2,2:0:0:0:
177,178,107252,2,0,P|213:174|250:169,1,74.2499977340699,2|2,1:2|2:0,2:0:0:0:
181,324,107559,2,0,B|121:308|131:346|61:332,1,111.374996601105,8|0,2:0|2:0,2:0:0:0:
63,326,107865,5,2,1:2:0:0:
18,246,108018,1,2,2:0:0:0:
86,187,108171,1,10,2:0:0:0:
86,187,108324,1,2,2:0:0:0:
33,114,108477,2,0,P|78:59|163:75,1,148.49999546814,0|10,1:0|2:0,2:0:0:0:
408,239,109089,5,2,1:2:0:0:
395,148,109242,1,2,2:0:0:0:
238,168,109395,1,10,2:0:0:0:
251,258,109548,1,2,2:0:0:0:
322,202,109701,2,0,P|318:165|313:128,1,74.2499977340699,2|0,1:2|2:0,2:0:0:0:
493,216,110007,2,0,P|489:252|484:289,1,74.2499977340699,10|2,2:0|2:0,2:0:0:0:
312,373,110314,6,0,P|348:354|385:351,1,74.2499977340699,10|2,2:0|1:2,2:0:0:0:
165,220,110620,5,2,1:2:0:0:
103,290,110773,2,0,P|139:308|176:312,1,74.2499977340699,10|2,2:0|1:2,2:0:0:0:
313,128,111079,5,2,1:2:0:0:
280,38,111232,1,6,2:0:0:0:
280,38,111538,6,0,L|435:16,1,148.49999546814,4|10,1:2|2:0,2:0:0:0:
183,172,112150,2,0,L|28:150,1,148.49999546814,0|8,1:0|2:0,2:0:0:0:
116,121,112610,1,0,1:0:0:0:
253,237,112763,5,0,1:0:0:0:
253,237,112916,1,0,1:0:0:0:
332,182,113069,1,8,2:0:0:0:
332,182,113222,1,2,1:2:0:0:
458,273,113375,6,0,P|418:261|376:256,1,74.2499977340699,10|10,2:0|2:0,2:0:0:0:
462,88,113681,5,10,2:0:0:0:
373,100,113834,1,8,2:0:0:0:
512,185,113987,5,6,2:0:0:0:
253,237,114293,2,0,L|211:227,3,37.1249988670349,10|0|0|0,2:0|1:0|1:0|1:0,2:0:0:0:
156,158,114599,2,0,L|114:168,3,37.1249988670349,10|0|0|0,2:0|1:0|1:0|1:0,2:0:0:0:
54,231,114905,2,0,L|64:273,3,37.1249988670349,10|0|2|0,2:0|1:0|1:2|1:0,2:0:0:0:
141,373,115212,5,10,2:0:0:0:
141,373,115288,1,0,1:0:0:0:
141,373,115365,1,0,1:0:0:0:
141,373,115441,1,0,1:0:0:0:
141,373,115518,2,0,L|149:336,3,37.1249988670349,8|0|0|0,2:0|1:0|1:0|1:0,2:0:0:0:
236,326,115824,5,12,2:3:0:0:
271,335,115900,1,12,2:3:0:0:
306,325,115977,1,12,2:3:0:0:
331,298,116053,1,12,2:3:0:0:
355,319,116130,6,0,L|464:337,1,111.374996601105,6|0,2:0|2:0,2:0:0:0:
468,341,116436,6,0,P|500:269|485:201,1,148.49999546814,6|2,1:2|1:2,2:0:0:0:
380,39,116895,2,0,P|347:110|362:178,1,148.49999546814,10|0,2:0|1:0,2:0:0:0:
270,253,117354,2,0,P|230:238|199:237,1,74.2499977340699,8|0,2:0|2:0,2:0:0:0:
102,144,117661,6,0,P|173:150|235:101,1,148.49999546814,0|2,1:0|1:2,2:0:0:0:
148,60,118120,1,8,2:0:0:0:
5,135,118273,2,0,L|17:208,1,74.2499977340699,2|0,2:0|1:0,2:0:0:0:
76,340,118579,2,0,L|92:267,1,74.2499977340699,10|0,2:0|2:0,2:0:0:0:
232,106,118885,6,0,L|377:141,1,148.49999546814,8|0,2:0|2:0,2:0:0:0:
503,294,119344,6,0,L|358:329,1,148.49999546814,8|0,2:0|2:0,2:0:0:0:
111,177,119803,6,0,L|223:204,1,111.374996601105,8|0,2:0|2:0,2:0:0:0:
219,203,120110,5,8,2:0:0:0:
146,289,120263,1,8,2:0:0:0:
335,241,120416,1,8,2:0:0:0:
335,241,120569,1,8,2:0:0:0:
181,93,120722,5,10,2:0:0:0:
278,124,120875,1,12,2:3:0:0:
278,124,120951,1,12,2:3:0:0:
278,124,121028,2,0,P|270:74|267:41,1,82.5,4|0,1:2|2:0,2:0:0:0:
236,268,121334,6,0,P|232:312|224:365,1,90.7500027694703,4|0,1:0|1:0,2:0:0:0:
39,217,121640,2,0,P|45:263|126:289,1,136.125004154205,8|0,2:0|2:0,2:0:0:0:
135,282,121946,2,0,P|131:236|124:192,1,90.7500027694703,2|0,2:0|1:0,2:0:0:0:
268,43,122252,1,8,2:0:0:0:
146,103,122405,5,2,2:0:0:0:
146,103,122482,1,2,2:0:0:0:
146,103,122558,2,0,P|102:96|57:67,1,90.7500027694703,0|0,1:0|1:0,2:0:0:0:
258,200,122865,2,0,B|348:176|346:248|449:217,1,181.500005538941,10|0,2:0|2:0,2:0:0:0:
284,282,123323,1,2,1:2:0:0:
406,121,123477,2,0,P|409:61|342:20,1,136.125004154205,8|0,2:0|2:0,2:0:0:0:
336,29,123782,6,0,P|328:73|325:118,1,90.7500027694703,2|0,1:2|1:0,2:0:0:0:
434,220,124089,1,10,2:0:0:0:
381,311,124242,2,0,P|335:313|292:329,1,90.7500027694703,2|0,2:0|2:0,2:0:0:0:
132,342,124548,1,2,1:2:0:0:
194,203,124701,2,0,P|213:243|205:286,1,90.7500027694703,8|0,2:0|2:0,2:0:0:0:
32,350,125007,6,0,P|28:327|26:304,2,45.3750013847352,2|2|2,1:2|2:0|1:2,2:0:0:0:
113,141,125314,2,0,P|104:185|101:230,1,90.7500027694703,8|0,2:0|2:0,2:0:0:0:
12,136,125619,2,0,P|39:69|148:57,1,181.500005538941,2|10,2:0|2:0,2:0:0:0:
214,108,126078,1,2,2:0:0:0:
282,33,126231,6,0,P|326:29|376:21,1,90.7500027694703,6|0,1:2|1:0,2:0:0:0:
275,212,126538,2,0,P|319:214|370:226,1,90.7500027694703,10|0,2:0|2:0,2:0:0:0:
509,182,126844,1,2,2:0:0:0:
509,182,126997,1,0,1:0:0:0:
440,105,127150,2,0,B|366:86|371:134|297:117,1,136.125004154205,10|2,2:0|2:0,2:0:0:0:
294,110,127456,6,0,P|250:117|205:120,1,90.7500027694703,2|0,1:2|1:0,2:0:0:0:
62,188,127763,2,0,P|52:232|71:276,1,90.7500027694703,8|0,2:0|2:0,2:0:0:0:
282,322,128068,5,2,2:0:0:0:
158,227,128221,1,2,1:2:0:0:
104,374,128375,2,0,P|59:366|14:363,1,90.7500027694703,10|2,2:0|1:2,2:0:0:0:
176,309,128680,5,12,2:0:0:0:
176,309,128987,5,10,2:0:0:0:
317,237,129140,1,0,1:0:0:0:
229,166,129293,5,10,2:0:0:0:
229,166,129446,1,0,1:0:0:0:
414,268,129599,2,0,P|410:222|402:178,1,90.7500027694703,10|2,2:0|1:2,2:0:0:0:
501,209,129905,5,10,2:0:0:0:
332,321,130058,1,0,1:0:0:0:
512,303,130212,5,8,2:0:0:0:
317,237,130365,1,0,1:0:0:0:
251,294,130517,5,10,2:0:0:0:
176,264,130670,1,2,1:2:0:0:
176,264,130747,1,0,1:0:0:0:
176,264,130823,2,0,B|106:252|103:298|40:283,1,136.125004154205,4|0,1:2|2:0,2:0:0:0:
40,280,131130,6,0,P|32:239|26:189,1,90.7500027694703,4|0,1:0|2:0,2:0:0:0:
115,28,131437,2,0,P|110:68|102:121,1,90.7500027694703,8|0,2:0|2:0,2:0:0:0:
275,184,131742,2,0,P|312:142|449:143,1,181.500005538941,2|8,1:2|2:0,2:0:0:0:
460,244,132201,5,2,2:0:0:0:
460,244,132278,1,2,2:0:0:0:
461,244,132354,2,0,P|422:233|372:223,1,90.7500027694703,0|0,1:0|2:0,2:0:0:0:
181,230,132660,2,0,P|175:141|232:74,1,181.500005538941,10|0,2:0|1:0,2:0:0:0:
275,184,133120,5,0,2:0:0:0:
114,319,133273,2,0,P|68:326|3:338,1,111.374996601105,10|0,2:0|2:0,2:0:0:0:
1,335,133579,6,0,P|81:325|173:407,1,181.500005538941,2|10,1:2|2:0,2:0:0:0:
287,352,134039,1,2,2:0:0:0:
287,352,134115,1,2,2:0:0:0:
287,352,134192,2,0,P|294:312|308:262,1,90.7500027694703,0|0,1:0|2:0,2:0:0:0:
392,346,134498,1,10,2:0:0:0:
392,346,134651,1,2,2:0:0:0:
243,178,134804,6,0,B|152:165|154:233|54:211,1,181.500005538941,0|8,1:0|2:0,2:0:0:0:
76,28,135263,1,2,2:0:0:0:
76,28,135416,2,0,P|87:67|98:119,1,90.7500027694703,2|2,1:2|2:0,2:0:0:0:
219,263,135722,1,10,2:0:0:0:
350,119,135875,5,2,2:0:0:0:
350,119,135952,1,2,2:0:0:0:
350,119,136028,2,0,P|268:134|195:73,1,181.500005538941,4|10,1:2|2:0,2:0:0:0:
294,39,136487,1,0,2:0:0:0:
452,117,136641,1,2,1:2:0:0:
452,117,136794,2,0,P|439:176|437:211,1,90.7500027694703,2|10,1:2|2:0,2:0:0:0:
229,323,137100,5,2,2:0:0:0:
229,323,137176,1,2,2:0:0:0:
229,323,137253,2,0,L|364:298,1,136.125004154205,0|0,1:0|2:0,2:0:0:0:
375,285,137559,2,0,P|415:300|474:305,1,90.7500027694703,10|0,2:0|2:0,2:0:0:0:
195,222,137865,6,0,P|138:260|128:367,1,181.500005538941,2|10,1:2|2:0,2:0:0:0:
229,323,138324,1,2,2:0:0:0:
93,256,138477,6,0,P|51:253|-2:236,1,90.7500027694703,10|0,2:0|1:0,2:0:0:0:
179,128,138783,2,0,P|171:83|150:43,1,90.7500027694703,10|0,2:0|1:0,2:0:0:0:
298,246,139090,2,0,P|302:205|316:151,1,90.7500027694703,10|0,2:0|1:0,2:0:0:0:
495,99,139396,2,0,P|453:96|398:77,1,90.7500027694703,10|0,2:0|1:0,2:0:0:0:
226,326,139701,6,0,P|207:288|196:230,1,90.7500027694703,10|0,2:0|1:0,2:0:0:0:
0,134,140007,2,0,P|38:115|96:104,1,90.7500027694703,10|2,2:0|1:2,2:0:0:0:
225,0,140314,2,0,P|263:19|321:30,1,90.7500027694703,10|2,2:0|1:2,2:0:0:0:
309,29,140544,1,0,1:0:0:0:
309,29,140620,1,6,2:0:0:0:
512,200,140926,6,0,B|442:182|447:228|376:212,1,131.99999597168,6|2,1:2|2:0,2:0:0:0:
301,249,141232,2,0,P|296:199|289:150,1,98.9999969787599,10|2,2:0|2:0,2:0:0:0:
396,315,141538,1,2,2:0:0:0:
396,315,141691,1,0,1:0:0:0:
235,352,141844,2,0,P|283:354|322:384,1,98.9999969787598,10|2,2:0|2:0,2:0:0:0:
110,277,142150,6,0,P|173:277|213:226,1,131.99999597168,2|2,1:2|2:0,2:0:0:0:
177,160,142456,2,0,P|127:164|78:171,1,98.9999969787599,10|2,2:0|2:0,2:0:0:0:
17,268,142763,1,2,2:0:0:0:
17,268,142916,1,0,1:0:0:0:
162,56,143069,6,0,P|227:66|265:127,1,131.99999597168,10|2,2:0|2:0,2:0:0:0:
326,168,143375,2,0,P|391:158|429:97,1,131.99999597168,2|2,1:2|2:0,2:0:0:0:
382,47,143681,1,10,2:0:0:0:
241,204,143885,5,2,2:0:0:0:
252,218,143987,2,0,P|262:283|267:348,1,131.99999597168,2|2,2:0|2:0,2:0:0:0:
351,381,144293,2,0,P|356:315|366:250,1,131.99999597168,10|2,2:0|2:0,2:0:0:0:
331,169,144599,5,2,1:2:0:0:
176,280,144752,2,0,P|147:318|99:317,1,98.9999969787598,2|8,2:0|2:0,2:0:0:0:
49,142,145110,1,2,2:0:0:0:
55,152,145212,2,0,P|124:167|140:213,1,98.9999969787598,2|2,2:0|1:2,2:0:0:0:
29,384,145518,2,0,P|1:359|9:298,1,98.9999969787599,8|0,2:0|2:0,2:0:0:0:
64,238,145824,1,0,1:0:0:0:
64,238,146130,5,10,2:0:0:0:
180,384,146283,1,2,2:0:0:0:
320,324,146436,1,2,2:0:0:0:
320,324,146589,1,2,1:2:0:0:
259,252,146742,2,0,P|209:258|160:262,1,98.9999969787599,10|2,2:0|2:0,2:0:0:0:
382,384,147048,6,0,P|402:352|399:286,1,98.9999969787598,2|2,1:2|2:0,2:0:0:0:
278,110,147354,2,0,P|304:174|422:197,1,197.99999395752,10|2,2:0|2:0,2:0:0:0:
473,95,147814,1,2,1:2:0:0:
390,17,147967,2,0,P|383:66|379:115,1,98.9999969787599,10|2,2:0|2:0,2:0:0:0:
271,277,148273,5,14,2:0:0:0:
271,277,148426,1,2,1:2:0:0:
93,240,148579,5,10,2:0:0:0:
93,240,148732,1,2,1:2:0:0:
204,164,148885,5,10,2:0:0:0:
164,347,149038,1,2,1:2:0:0:
208,166,149191,5,10,2:0:0:0:
168,349,149344,1,2,1:2:0:0:
10,268,149497,6,0,P|3:218|0:169,1,98.9999969787599,10|0,2:0|1:0,2:0:0:0:
128,26,149803,2,0,P|121:75|117:124,1,98.9999969787599,10|0,2:0|1:0,2:0:0:0:
296,200,150110,6,0,B|352:184|347:222|403:207,1,107.249995090485,8|0,2:0|1:0,2:0:0:0:
423,222,150339,1,0,1:0:0:0:
423,222,150416,2,0,P|373:230|338:333,1,160.874992635727,6|0,2:0|2:0,2:0:0:0:
319,341,150722,6,0,P|259:335|236:263,1,131.99999597168,6|2,1:2|2:0,2:0:0:0:
135,307,151028,2,0,P|87:318|38:323,1,98.9999969787599,10|2,2:0|2:0,2:0:0:0:
194,178,151334,1,2,2:0:0:0:
194,178,151487,1,0,1:0:0:0:
64,112,151640,2,0,P|75:159|80:209,1,98.9999969787599,10|2,2:0|2:0,2:0:0:0:
156,92,151946,6,0,P|209:131|283:117,1,131.99999597168,2|2,1:2|2:0,2:0:0:0:
333,179,152252,2,0,P|375:155|430:161,1,98.9999969787598,10|2,2:0|2:0,2:0:0:0:
350,66,152559,1,2,2:0:0:0:
350,66,152712,1,0,1:0:0:0:
400,246,152865,1,10,2:0:0:0:
264,360,153069,5,2,2:0:0:0:
284,369,153171,2,0,P|331:357|416:342,1,131.99999597168,2|2,1:2|2:0,2:0:0:0:
486,370,153477,1,10,2:0:0:0:
261,248,153681,5,2,2:0:0:0:
245,261,153783,2,0,P|187:217|122:231,1,131.99999597168,2|2,2:0|2:0,2:0:0:0:
168,302,154089,2,0,L|35:341,1,131.99999597168,10|2,2:0|2:0,2:0:0:0:
116,367,154395,5,2,1:2:0:0:
31,206,154599,1,2,2:0:0:0:
41,192,154701,2,0,P|49:154|55:88,1,98.9999969787598,10|2,2:0|1:2,2:0:0:0:
135,156,155007,5,10,2:0:0:0:
0,10,155161,1,0,1:0:0:0:
139,160,155314,2,0,B|199:174|222:122|292:139,1,148.49999546814,8|0,2:0|2:0,2:0:0:0:
287,141,155620,6,0,P|334:153|384:160,2,98.9999969787599,12|0|0,2:0|1:0|1:0,2:0:0:0:
233,366,156079,2,0,P|216:313|214:259,2,98.9999969787599,12|0|0,2:0|1:0|1:0,2:0:0:0:
498,256,156538,2,0,P|437:264|399:280,1,98.9999969787599,10|0,2:0|2:0,2:0:0:0:
170,162,156844,6,0,P|187:115|192:66,1,98.9999969787599,14|0,2:0|1:0,2:0:0:0:
101,16,157150,1,2,1:2:0:0:
287,141,157303,6,0,P|304:187|309:236,1,98.9999969787599,12|0,2:0|1:0,2:0:0:0:
213,270,157609,1,0,1:0:0:0:
388,157,157763,6,0,P|434:139|483:134,1,98.9999969787599,10|2,2:0|2:0,2:0:0:0:
379,373,158069,6,0,P|384:323|401:277,1,98.9999969787599,10|0,2:0|1:0,2:0:0:0:
232,74,158375,2,0,P|277:53|325:46,1,98.9999969787599,10|0,2:0|1:0,2:0:0:0:
160,233,158681,5,10,2:0:0:0:
100,157,158834,1,0,1:0:0:0:
21,195,158987,1,10,2:0:0:0:
258,218,159140,6,0,B|373:185|395:270|503:242,1,247.5,4|8,2:0|2:3,2:0:0:0:
512,229,160135,2,0,L|480:235,1,28.874999118805,4|8,2:3|2:3,2:0:0:0:
67,0,160518,5,6,1:2:0:0:
0,60,160824,1,2,1:2:0:0:
73,111,161130,1,0,2:0:0:0:
45,203,161436,2,0,P|129:186|167:119,1,165,10|2,2:0|1:2,2:0:0:0:
387,320,162507,5,8,2:0:0:0:
387,320,162661,1,8,2:0:0:0:
298,287,162967,1,2,1:2:0:0:
230,351,163273,1,2,1:2:0:0:
150,317,163579,1,0,2:0:0:0:
88,384,163885,2,0,P|24:373|3:279,1,165,10|0,2:0|1:0,2:0:0:0:
249,31,164956,5,8,2:0:0:0:
249,31,165110,1,8,2:0:0:0:
230,120,165416,1,2,1:2:0:0:
326,82,165722,1,2,1:2:0:0:
398,141,166028,1,2,2:0:0:0:
353,219,166334,2,0,P|290:232|193:262,1,165,10|2,2:0|1:2,2:0:0:0:
193,261,167252,1,10,2:0:0:0:
80,238,167559,6,0,P|94:278|103:317,1,82.5,10|0,2:0|1:0,2:0:0:0:
222,159,168171,2,0,P|236:119|245:79,1,82.5,10|2,2:0|1:2,2:0:0:0:
16,49,168783,2,0,P|80:56|117:148,1,165,10|8,2:0|2:3,2:0:0:0:
119,139,169701,1,4,2:3:0:0:
31,175,170314,5,6,2:0:0:0:
512,285,177661,6,0,P|469:260|385:256,1,123.75,4|0,1:2|2:0,2:0:0:0:
328,163,178273,2,0,P|243:217|150:202,1,185.625007081032,4|0,1:2|2:0,2:0:0:0:
86,283,178885,5,8,2:0:0:0:
141,120,179038,1,8,2:0:0:0:
259,242,179191,1,8,2:0:0:0:
162,208,179344,1,12,2:0:0:0:
256,192,179497,12,2,181334,2:0:0:0:
251,32,181487,5,8,2:3:0:0:
251,32,181564,1,8,2:3:0:0:
251,32,181640,1,8,2:3:0:0:
251,32,181946,6,0,P|258:76|262:122,1,90.7500027694703,4|0,1:0|2:0,2:0:0:0:
346,62,182252,1,8,2:0:0:0:
192,185,182405,5,2,2:0:0:0:
192,185,182481,1,2,2:0:0:0:
192,185,182558,2,0,P|148:192|103:221,1,90.7500027694703,2|0,1:2|2:0,2:0:0:0:
28,30,182865,2,0,P|86:99|174:80,1,181.500005538941,10|0,2:0|1:0,2:0:0:0:
355,160,183323,1,2,2:0:0:0:
294,237,183477,2,0,P|318:300|325:367,1,136.125004154205,8|0,2:0|2:0,2:0:0:0:
325,367,183782,6,0,P|368:347|415:343,1,90.7500027694703,2|0,1:2|2:0,2:0:0:0:
408,239,184089,1,10,2:0:0:0:
227,324,184242,2,0,P|184:304|137:300,1,90.7500027694703,2|0,2:0|1:0,2:0:0:0:
0,384,184548,1,2,2:0:0:0:
33,221,184701,2,0,P|46:269|55:313,1,90.7500027694703,8|0,2:0|2:0,2:0:0:0:
129,167,185007,6,0,P|133:144|139:122,2,45.3750013847352,2|2|2,1:2|2:0|2:0,2:0:0:0:
0,5,185314,2,0,P|46:32|91:35,1,90.7500027694703,8|0,2:0|2:0,2:0:0:0:
246,118,185620,2,0,P|273:51|382:39,1,181.500005538941,2|10,1:2|2:0,2:0:0:0:
335,137,186078,1,2,2:0:0:0:
449,269,186231,6,0,P|403:273|359:280,1,90.7500027694703,6|0,1:2|2:0,2:0:0:0:
177,314,186538,2,0,P|132:306|87:302,1,90.7500027694703,10|2,2:0|2:0,2:0:0:0:
280,356,186844,1,2,1:2:0:0:
280,356,186997,1,2,2:0:0:0:
259,251,187151,2,0,B|272:191|236:188|245:117,1,136.125004154205,10|2,2:0|2:0,2:0:0:0:
249,113,187456,6,0,P|293:106|338:89,1,90.7500027694703,2|0,1:2|2:0,2:0:0:0:
133,8,187763,2,0,P|148:50|156:95,1,90.7500027694703,8|0,2:0|2:0,2:0:0:0:
87,157,188069,5,2,1:2:0:0:
235,20,188221,1,2,2:0:0:0:
91,161,188375,2,0,P|48:145|3:137,1,90.7500027694703,10|2,2:0|2:0,2:0:0:0:
169,219,188680,5,12,2:0:0:0:
169,219,188987,5,10,2:0:0:0:
26,341,189140,1,0,1:0:0:0:
70,255,189293,5,10,2:0:0:0:
70,255,189446,1,0,1:0:0:0:
258,272,189599,2,0,P|302:263|347:260,1,90.7500027694703,10|2,2:0|1:2,2:0:0:0:
160,312,189905,5,10,2:0:0:0:
169,219,190058,1,0,1:0:0:0:
359,354,190212,5,8,2:0:0:0:
348,260,190365,1,0,1:0:0:0:
252,362,190517,5,10,2:0:0:0:
256,181,190670,1,2,1:2:0:0:
256,181,190747,1,0,1:0:0:0:
256,181,190823,2,0,B|244:111|289:122|275:45,1,136.125004154205,4|0,1:2|2:0,2:0:0:0:
271,45,191130,6,0,P|230:53|179:58,1,90.7500027694703,4|0,1:0|2:0,2:0:0:0:
4,149,191437,2,0,P|44:154|95:166,1,90.7500027694703,8|0,2:0|2:0,2:0:0:0:
207,270,191742,2,0,P|244:228|381:229,1,181.500005538941,2|8,1:2|2:0,2:0:0:0:
127,356,192201,5,2,2:0:0:0:
127,356,192278,1,2,2:0:0:0:
127,356,192354,2,0,P|120:315|105:262,1,90.7500027694703,0|0,1:0|2:0,2:0:0:0:
309,306,192661,2,0,B|404:289|389:351|494:331,1,181.500005538941,10|0,2:0|1:0,2:0:0:0:
398,361,193120,5,0,2:0:0:0:
362,217,193273,2,0,P|369:170|381:124,1,90.7500027694703,10|0,2:0|2:0,2:0:0:0:
258,34,193579,6,0,P|178:24|121:107,1,181.500005538941,2|10,1:2|2:0,2:0:0:0:
30,204,194039,1,2,2:0:0:0:
30,204,194115,1,2,2:0:0:0:
30,204,194192,2,0,P|22:159|6:105,1,90.7500027694703,0|0,1:0|2:0,2:0:0:0:
207,185,194498,1,10,2:0:0:0:
207,185,194651,1,2,2:0:0:0:
172,272,194803,6,0,P|82:288|0:324,1,181.500005538941,2|8,1:2|2:0,2:0:0:0:
112,129,195263,1,2,2:0:0:0:
112,129,195416,2,0,P|120:88|134:38,1,90.7500027694703,2|2,1:2|2:0,2:0:0:0:
293,217,195722,1,10,2:0:0:0:
375,158,195875,5,2,2:0:0:0:
375,158,195952,1,2,2:0:0:0:
375,158,196028,2,0,P|458:159|508:238,1,181.500005538941,4|10,1:2|2:0,2:0:0:0:
477,123,196487,1,0,2:0:0:0:
406,242,196640,2,0,P|393:301|390:343,1,90.7500027694703,2|0,1:2|2:0,2:0:0:0:
262,237,196946,2,0,P|257:191|246:147,1,90.7500027694703,10|2,2:0|2:0,2:0:0:0:
239,138,197176,5,2,2:0:0:0:
239,138,197253,2,0,L|105:162,1,136.125004154205,0|0,1:0|2:0,2:0:0:0:
101,158,197559,2,0,P|96:112|80:70,1,90.7500027694703,10|2,2:0|2:0,2:0:0:0:
0,286,197865,6,0,P|87:285|143:353,1,181.500005538941,2|10,1:2|2:0,2:0:0:0:
49,369,198324,1,2,2:0:0:0:
257,323,198477,6,0,P|300:336|345:339,1,90.7500027694703,10|0,2:0|1:0,2:0:0:0:
105,161,198783,2,0,P|55:178|4:183,1,90.7500027694703,10|0,2:0|1:0,2:0:0:0:
207,53,199089,2,0,P|222:103|229:146,1,90.7500027694703,10|0,2:0|1:0,2:0:0:0:
406,260,199395,2,0,P|414:215|427:172,1,90.7500027694703,10|0,2:0|1:0,2:0:0:0:
506,19,199701,6,0,P|426:18|360:98,1,181.500005538941,10|10,2:0|2:0,2:0:0:0:
242,250,200161,1,2,1:2:0:0:
242,250,200237,1,2,2:0:0:0:
242,250,200314,2,0,P|204:231|146:220,1,90.7500027694703,10|2,2:0|1:2,2:0:0:0:
148,226,200543,1,0,1:0:0:0:
137,206,200620,1,6,2:0:0:0:
232,6,200926,6,0,P|251:44|262:102,1,90.7500027694703,14|0,2:0|1:0,2:0:0:0:
445,210,201232,2,0,P|454:165|474:125,1,90.7500027694703,10|0,2:0|1:0,2:0:0:0:
336,188,201538,1,10,2:0:0:0:
336,188,201691,1,0,1:0:0:0:
492,296,201844,1,10,2:0:0:0:
492,296,201997,1,0,1:0:0:0:
414,368,202150,6,0,P|369:349|327:345,1,90.7500027694703,10|0,2:0|1:0,2:0:0:0:
120,201,202456,2,0,P|165:196|207:178,1,90.7500027694703,10|0,2:0|1:0,2:0:0:0:
8,311,202763,1,10,2:0:0:0:
95,286,202916,1,0,1:0:0:0:
166,356,203069,1,10,2:0:0:0:
166,356,203222,1,0,1:0:0:0:
315,235,203375,5,14,2:0:0:0:
315,235,203681,2,0,P|321:187|337:138,1,90.7500027694703,8|0,2:0|1:0,2:0:0:0:
160,6,203987,2,0,P|175:49|181:95,1,90.7500027694703,8|0,2:0|1:0,2:0:0:0:
97,208,204293,2,0,P|49:184|11:178,1,90.7500027694703,8|0,2:0|1:0,2:0:0:0:
218,190,204599,5,6,1:2:0:0:
218,190,205365,5,0,1:0:0:0:
218,190,205441,1,0,1:0:0:0:
218,190,205518,1,8,2:0:0:0:
331,28,205824,6,0,P|389:57|460:69,1,136.125004154205,6|0,1:2|2:0,2:0:0:0:
458,68,206130,1,8,2:0:0:0:
391,255,206283,2,0,P|324:262|220:314,1,181.500005538941,6|8,1:2|2:0,2:0:0:0:
41,253,206742,6,0,P|29:186|0:125,1,136.125004154205,6|0,1:2|2:0,2:0:0:0:
0,125,207048,1,8,2:0:0:0:
201,9,207201,2,0,P|208:76|260:180,1,181.500005538941,6|8,1:2|2:0,2:0:0:0:
131,145,207661,5,2,1:2:0:0:
333,50,207814,1,2,1:2:0:0:
135,149,207967,1,2,1:2:0:0:
281,270,208120,2,0,B|370:245|406:322|485:294,1,206.25,6|0,1:2|2:0,2:0:0:0:
