osu file format v14

[General]
AudioFilename: audio.mp3
AudioLeadIn: 0
PreviewTime: 61870
Countdown: 0
SampleSet: Soft
StackLeniency: 0.6
Mode: 0
LetterboxInBreaks: 0
WidescreenStoryboard: 1

[Editor]
Bookmarks: 12967,22763,32559,42355,52151,62559,72354,82150,91946,101742,111538,121334,131130,140926,150722,160518,170314,170467,170620,170773,170849,171002,171155,171309,171462,171615,171768,171921,172150,172303,172380,172533,172686,172839,172992,173145,173298,173451,173528,173681,173834,173987,174140,174217,174370,174523,174676,174829,174905,175059,175212,175365,175518,175671,175824,175977,176130,176206,176360,176589,176742,176895,177048,177201,177354,177507,177584,177661,191130,200926,208885
DistanceSpacing: 1.2
BeatDivisor: 4
GridSize: 32
TimelineZoom: 3.499999

[Metadata]
Title:Yoru o Koeru Ashioto
TitleUnicode:夜を越える足音
Artist:Mitei no Hanashi
ArtistUnicode:ミテイノハナシ
Creator:Ascended
Version:Airin's Extra
Source:ピーチボーイリバーサイド
Tags:wo footsteps beyond the night arronchu1207 AirinCat Haruto Haruto_Aizawa Kyouren gokugohan12468 KittyAdventure jrock j-rock japanese peach boy riverside anime ed ending Aru.
BeatmapID:4141145
BeatmapSetID:1990332

[Difficulty]
HPDrainRate:5
CircleSize:4
OverallDifficulty:8.8
ApproachRate:9.2
SliderMultiplier:2
SliderTickRate:1

[Events]
//Background and Video events
0,0,"there are no good backgrounds.jpg",0,0
//Break Periods
2,170513,177091
//Storyboard Layer 0 (Background)
//Storyboard Layer 1 (Fail)
//Storyboard Layer 2 (Pass)
//Storyboard Layer 3 (Foreground)
//Storyboard Layer 4 (Overlay)
//Storyboard Sound Samples

[TimingPoints]
1637,315.789473684211,4,2,1,40,1,0
11743,306.122448979592,4,2,1,60,1,0
12661,-142.857142857143,4,2,1,60,0,0
12890,-142.857142857143,4,2,1,5,0,0
12967,-111.111111111111,4,2,1,70,0,0
15339,-111.111111111111,4,2,1,5,0,0
15416,-111.111111111111,4,2,1,70,0,0
20237,-111.111111111111,4,2,1,5,0,0
20314,-111.111111111111,4,2,1,70,0,0
21461,-111.111111111111,4,2,1,5,0,0
21538,-111.111111111111,4,2,1,70,0,0
21845,-142.857142857143,4,2,1,70,0,0
22763,-166.666666666667,4,2,1,50,0,0
24294,-142.857142857143,4,2,1,50,0,0
24906,-166.666666666667,4,2,1,50,0,0
26436,-142.857142857143,4,2,1,50,0,0
28808,-142.857142857143,4,2,1,5,0,0
28885,-125,4,2,1,50,0,0
30110,-142.857142857143,4,2,1,50,0,0
31334,-111.111111111111,4,2,1,50,0,0
32253,-133.333333333333,4,2,1,50,0,0
32559,-105.263157894737,4,2,1,60,0,0
35237,-105.263157894737,4,2,1,5,0,0
35314,-105.263157894737,4,2,1,60,0,0
36155,-105.263157894737,4,2,1,5,0,0
36232,-105.263157894737,4,2,1,60,0,0
39829,-105.263157894737,4,2,1,5,0,0
39906,-105.263157894737,4,2,1,60,0,0
40747,-105.263157894737,4,2,1,5,0,0
40824,-105.263157894737,4,2,1,60,0,0
42355,-105.263157894737,4,2,1,55,0,0
42967,-200,4,2,1,55,0,0
43502,-200,4,2,1,5,0,0
43579,-200,4,2,1,55,0,0
44038,-133.333333333333,4,2,1,55,0,0
44727,-133.333333333333,4,2,1,5,0,0
44804,-133.333333333333,4,2,1,55,0,0
45416,-200,4,2,1,55,0,0
45722,-133.333333333333,4,2,1,55,0,0
45951,-133.333333333333,4,2,1,5,0,0
46028,-133.333333333333,4,2,1,55,0,0
48018,-200,4,2,1,55,0,0
49625,-200,4,2,1,5,0,0
49702,-200,4,2,1,55,0,0
50161,-133.333333333333,4,2,1,55,0,0
50926,-100,4,2,1,55,0,0
52074,-100,4,2,1,5,0,0
52151,-100,4,2,1,50,0,0
52763,-166.666666666667,4,2,1,50,0,0
54063,-166.666666666667,4,2,1,5,0,0
54217,-166.666666666667,4,2,1,50,0,0
54370,-166.666666666667,4,2,1,5,0,0
54523,-166.666666666667,4,2,1,50,0,0
54600,-125,4,2,1,50,0,0
56130,-95.2380952380951,4,2,1,50,0,0
56359,-95.2380952380951,4,2,1,5,0,0
56436,-95.2380952380951,4,2,1,55,0,0
56743,-133.333333333333,4,2,1,55,0,0
57049,-133.333333333333,4,2,1,60,0,0
59191,-166.666666666667,4,2,1,60,0,0
59420,-166.666666666667,4,2,1,5,0,0
59498,-111.111111111111,4,2,1,70,0,0
61334,-222.222222222221,4,2,1,60,0,0
61410,-222.222222222221,4,2,1,5,0,0
61487,-222.222222222221,4,2,1,60,0,0
61563,-222.222222222221,4,2,1,5,0,0
61640,-222.222222222221,4,2,1,60,0,0
61946,-222.222222222221,4,2,1,65,0,0
62100,-133.333333333333,4,2,1,65,0,0
62253,-200,4,2,1,70,0,0
62482,-200,4,2,1,5,0,0
62559,306.122448979592,4,2,1,80,1,1
62788,-100,4,2,1,5,0,1
62865,-100,4,2,1,80,0,1
64930,-100,4,2,1,5,0,1
65007,-100,4,2,1,80,0,1
66155,-100,4,2,1,5,0,1
66232,-100,4,2,1,80,0,1
66767,-100,4,2,1,5,0,1
66844,-100,4,2,1,80,0,1
67992,-100,4,2,1,5,0,1
68069,-100,4,2,1,80,0,1
68604,-100,4,2,1,5,0,1
68681,-100,4,2,1,80,0,1
74114,-100,4,2,1,5,0,1
74191,-100,4,2,1,80,0,1
74726,-100,4,2,1,5,0,1
74803,-100,4,2,1,80,0,1
77788,-100,4,2,1,5,0,1
77865,-100,4,2,1,80,0,1
78706,-100,4,2,1,5,0,1
78783,-100,4,2,1,80,0,1
79318,-100,4,2,1,5,0,1
79395,-100,4,2,1,80,0,1
82073,-100,4,2,1,5,0,1
82150,-111.111111111111,4,2,1,70,0,0
89420,-111.111111111111,4,2,1,5,0,0
89497,-111.111111111111,4,2,1,70,0,0
89956,-100,4,2,1,70,0,0
90645,-100,4,2,1,5,0,0
90722,-100,4,2,1,70,0,0
91946,-100,4,2,1,50,0,0
96232,-166.666666666667,4,2,1,50,0,0
98987,-133.333333333333,4,2,1,50,0,0
99216,-133.333333333333,4,2,1,5,0,0
99293,-133.333333333333,4,2,1,50,0,0
99369,-133.333333333333,4,2,1,5,0,0
99446,-133.333333333333,4,2,1,50,0,0
99981,-133.333333333333,4,2,1,5,0,0
100059,-133.333333333333,4,2,1,50,0,0
101742,-100,4,2,1,60,0,0
102354,-133.333333333333,4,2,1,60,0,0
102967,-100,4,2,1,60,0,0
103426,-133.333333333333,4,2,1,60,0,0
103808,-133.333333333333,4,2,1,5,0,0
103885,-133.333333333333,4,2,1,60,0,0
104191,-100,4,2,1,60,0,0
104803,-133.333333333333,4,2,1,60,0,0
105416,-100,4,2,1,60,0,0
107405,-133.333333333333,4,2,1,60,0,0
107787,-133.333333333333,4,2,1,5,0,0
107865,-100,4,2,1,60,0,0
108783,-133.333333333333,4,2,1,60,0,0
109089,-100,4,2,1,60,0,0
111461,-100,4,2,1,5,0,0
111538,-133.333333333333,4,2,1,55,0,0
116436,-133.333333333333,4,2,1,60,0,0
116895,-111.111111111111,4,2,1,60,0,0
118273,-125,4,2,1,60,0,0
118885,-111.111111111111,4,2,1,70,0,0
120722,-125,4,2,1,60,0,0
121257,-125,4,2,1,5,0,0
121334,-100,4,2,1,80,0,1
123706,-100,4,2,1,5,0,1
123783,-100,4,2,1,80,0,1
124930,-100,4,2,1,5,0,1
125007,-100,4,2,1,80,0,1
125543,-100,4,2,1,5,0,1
125620,-100,4,2,1,80,0,1
126767,-100,4,2,1,5,0,1
126844,-100,4,2,1,80,0,1
127379,-100,4,2,1,5,0,1
127456,-100,4,2,1,80,0,1
132890,-100,4,2,1,5,0,1
132967,-100,4,2,1,80,0,1
133502,-100,4,2,1,5,0,1
133579,-100,4,2,1,80,0,1
137481,-100,4,2,1,5,0,1
137559,-100,4,2,1,80,0,1
138094,-100,4,2,1,5,0,1
138171,-100,4,2,1,80,0,1
140926,-100,4,2,1,65,0,0
148273,-83.3333333333333,4,2,1,65,0,0
150645,-83.3333333333333,4,2,1,5,0,0
150722,-100,4,2,1,65,0,0
155543,-100,4,2,1,5,0,0
155620,-100,4,2,1,65,0,0
159140,-166.666666666667,4,2,1,65,0,0
160518,-166.666666666667,4,2,1,45,0,0
161436,-500,4,2,1,45,0,0
167559,-200,4,2,1,45,0,0
168783,-285.714285714286,4,2,1,45,0,0
177661,-285.714285714286,4,2,1,65,0,0
178196,-285.714285714286,4,2,1,5,0,0
178273,-166.666666666667,4,2,1,65,0,0
181334,-166.666666666667,4,2,1,50,0,0
181487,-200,4,2,1,50,0,0
181946,-83.3333333333333,4,2,1,80,0,1
182559,-100,4,2,1,80,0,1
184012,-100,4,2,1,5,0,1
184089,-100,4,2,1,80,0,1
184930,-100,4,2,1,5,0,1
185007,-100,4,2,1,80,0,1
185543,-100,4,2,1,5,0,1
185620,-100,4,2,1,80,0,1
186461,-100,4,2,1,5,0,1
186538,-100,4,2,1,80,0,1
187073,-100,4,2,1,5,0,1
187150,-100,4,2,1,80,0,1
192890,-100,4,2,1,5,0,1
192967,-100,4,2,1,80,0,1
193502,-100,4,2,1,5,0,1
193579,-100,4,2,1,80,0,1
197481,-100,4,2,1,5,0,1
197559,-100,4,2,1,80,0,1
198094,-100,4,2,1,5,0,1
198171,-100,4,2,1,80,0,1
200926,-100,4,2,1,80,0,0
202150,-83.3333333333333,4,2,1,80,0,0
204599,-100,4,2,1,70,0,0
206742,-83.3333333333333,4,2,1,70,0,0
206971,-83.3333333333333,4,2,1,5,0,0
207048,-83.3333333333333,4,2,1,70,0,0
208120,-166.666666666667,4,2,1,70,0,0
208885,-166.666666666667,4,2,99,30,0,0

[Colours]
Combo1 : 236,183,83
Combo2 : 183,183,255

[HitObjects]
185,247,11743,6,0,B|86:249|85:297|-4:315,2,200,2|2|8,2:0|2:0|2:3,2:0:0:0:
279,211,12431,1,8,2:3:0:0:
279,211,12508,1,4,2:3:0:0:
279,211,12584,1,8,2:3:0:0:
279,211,12661,2,0,P|270:262|262:314,1,104.999996795654,4|0,1:2|2:0,2:0:0:0:
160,361,12967,6,0,P|91:307|93:217,1,179.999994506836,6|10,1:2|2:0,2:0:0:0:
325,48,13426,1,0,2:0:0:0:
325,48,13579,2,0,P|341:95|350:139,1,89.9999972534181,2|0,2:0|1:0,2:0:0:0:
0,175,13885,2,0,P|61:117|157:130,1,179.999994506836,10|0,2:0|1:0,2:0:0:0:
150,126,14498,2,0,P|206:116|250:102,1,89.9999972534181,10|0,2:0|2:0,2:0:0:0:
474,276,14804,2,0,P|431:257|390:244,1,89.9999972534181,2|0,2:0|1:0,2:0:0:0:
194,376,15110,2,0,P|245:334|255:269,1,134.999995880127,8|0,2:0|2:0,2:0:0:0:
255,269,15416,6,0,P|210:253|169:240,1,89.9999972534181,2|0,1:2|2:0,2:0:0:0:
0,175,15722,2,0,P|37:159|90:143,1,89.9999972534181,10|0,2:0|2:0,2:0:0:0:
186,0,16028,2,0,P|199:47|215:92,1,89.9999972534181,2|0,2:0|1:0,2:0:0:0:
116,379,16334,2,0,P|37:341|19:256,1,179.999994506836,10|0,2:0|1:0,2:0:0:0:
19,256,16947,2,0,P|61:240|116:225,1,89.9999972534181,10|0,2:0|2:0,2:0:0:0:
352,72,17253,1,2,2:0:0:0:
302,178,17406,1,0,1:0:0:0:
190,124,17559,2,0,P|176:80|161:38,1,89.9999972534181,8|0,2:0|2:0,2:0:0:0:
509,172,17865,6,0,P|483:258|464:346,1,179.999994506836,6|10,1:2|2:0,2:0:0:0:
464,346,18324,1,0,2:0:0:0:
380,199,18477,2,0,P|365:241|358:285,1,89.9999972534181,2|0,2:0|1:0,2:0:0:0:
106,384,18783,2,0,P|181:341|188:254,1,179.999994506836,10|0,2:0|1:0,2:0:0:0:
188,254,19396,2,0,P|145:237|92:227,1,89.9999972534181,10|0,2:0|2:0,2:0:0:0:
314,371,19702,2,0,P|363:359|407:343,1,89.9999972534181,2|0,2:0|1:0,2:0:0:0:
398,91,20008,2,0,P|348:127|344:224,1,134.999995880127,8|0,2:0|2:0,2:0:0:0:
247,177,20314,6,0,B|336:182|322:228|410:244,1,179.999994506836,14|0,2:0|1:0,2:0:0:0:
129,11,20773,2,0,B|99:46|99:46|107:89,1,89.9999972534181,14|0,2:0|2:0,2:0:0:0:
175,136,21079,1,0,1:0:0:0:
45,344,21232,2,0,P|-2:298|0:233,1,134.999995880127,14|0,2:0|2:0,2:0:0:0:
74,194,21538,6,0,P|110:210|163:230,1,89.9999972534181,2|0,1:2|2:0,2:0:0:0:
461,75,21845,2,0,P|356:110|339:220,1,233.333326212565,6|0,2:0|2:0,2:0:0:0:
351,230,22457,2,0,P|396:224|422:188,1,93.3333304850261,0|0,2:0|2:0,2:0:0:0:
263,110,22763,6,0,L|188:130,1,59.9999981689454,2|0,1:2|2:0,2:0:0:0:
123,198,23069,1,0,1:0:0:0:
33,160,23222,2,0,L|0:44,1,119.999996337891,2|2,2:0|2:0,2:0:0:0:
135,0,23681,2,0,L|122:58,1,59.9999981689454,2|0,1:2|2:0,2:0:0:0:
0,281,23987,1,2,1:2:0:0:
0,281,24294,2,0,P|65:262|125:296,1,139.999995727539,2|2,1:2|1:2,2:0:0:0:
124,295,24906,6,0,P|150:302|189:316,1,59.9999981689454,2|0,1:2|2:0,2:0:0:0:
257,268,25212,2,0,P|264:236|272:199,1,59.9999981689454,2|2,1:2|2:0,2:0:0:0:
341,126,25518,2,0,L|325:69,1,59.9999981689454,2|2,1:2|2:0,2:0:0:0:
456,163,25824,2,0,L|527:137,1,59.9999981689454,2|0,1:2|2:0,2:0:0:0:
469,57,26130,1,2,1:2:0:0:
469,57,26283,1,0,2:0:0:0:
258,107,26436,6,0,P|197:87|119:64,2,139.999995727539,2|2|0,1:2|1:2|1:0,2:0:0:0:
258,107,27202,1,0,2:0:0:0:
315,207,27355,1,2,1:2:0:0:
401,166,27508,1,0,2:0:0:0:
348,73,27661,5,2,1:2:0:0:
238,192,27814,2,0,P|221:260|204:340,1,139.999995727539,2|2,2:0|2:0,2:0:0:0:
69,220,28273,2,0,P|102:228|137:240,1,69.9999978637696,2|0,1:2|2:0,2:0:0:0:
335,361,28579,2,0,P|384:348|414:306,1,104.999996795654,2|0,1:2|2:0,2:0:0:0:
463,226,28885,2,0,P|451:315|530:363,2,160,2|2|0,1:2|1:2|1:0,2:0:0:0:
463,226,29804,6,0,P|432:215|375:201,1,80,2|0,1:2|2:0,2:0:0:0:
293,241,30033,1,0,2:0:0:0:
282,244,30110,2,0,P|239:189|241:121,1,139.999995727539,2|2,1:2|1:2,2:0:0:0:
323,115,30569,1,0,2:0:0:0:
158,229,30722,1,2,1:2:0:0:
118,163,30875,2,0,P|82:157|31:141,1,69.9999978637696,2|2,2:0|1:2,2:0:0:0:
188,375,31181,1,0,2:0:0:0:
188,375,31258,1,0,2:0:0:0:
188,375,31334,2,0,P|196:328|210:286,1,89.9999972534181,12|0,2:0|2:0,2:0:0:0:
209,287,32100,5,2,2:0:0:0:
292,352,32253,2,0,P|302:311|316:270,1,75.0000028610231,2|0,2:0|2:0,2:0:0:0:
156,181,32559,6,0,P|106:190|41:214,1,94.9999974632264,6|2,1:2|2:0,2:0:0:0:
224,0,32865,2,0,P|253:36|254:83,1,94.9999974632264,10|8,2:0|2:3,2:0:0:0:
247,95,33095,1,8,2:3:0:0:
237,102,33171,2,0,P|191:89|148:71,1,94.9999974632264,8|2,2:3|1:2,2:0:0:0:
68,380,33477,2,0,P|129:348|146:281,1,142.49999619484,10|2,2:0|2:0,2:0:0:0:
27,192,33783,2,0,P|41:231|50:286,1,94.9999974632264,2|0,1:2|2:0,2:0:0:0:
380,384,34089,2,0,P|388:312|414:227,1,142.49999619484,10|8,2:0|2:3,2:0:0:0:
484,211,34396,2,0,P|496:259|515:307,1,94.9999974632264,8|0,2:3|1:0,2:0:0:0:
239,384,34702,2,0,P|226:332|212:293,1,94.9999974632264,10|2,2:0|2:0,2:0:0:0:
278,0,35008,6,0,P|334:40|328:129,1,142.49999619484,2|0,1:2|2:0,2:0:0:0:
339,109,35314,1,10,2:0:0:0:
245,155,35467,1,8,2:3:0:0:
245,155,35544,1,8,2:3:0:0:
245,155,35620,2,0,P|191:137|149:126,1,94.9999974632264,8|0,2:3|1:0,2:0:0:0:
265,380,35926,2,0,P|323:342|335:274,1,142.49999619484,10|0,2:0|2:0,2:0:0:0:
267,244,36232,6,0,B|378:238|349:294|446:308,1,189.999994926453,2|8,1:2|2:0,2:0:0:0:
512,151,36691,1,8,2:3:0:0:
512,151,36768,1,8,2:3:0:0:
512,151,36845,1,8,2:3:0:0:
411,198,36998,1,2,1:2:0:0:
338,100,37151,1,10,2:0:0:0:
338,100,37457,6,0,P|249:127|150:148,1,189.999994926453,2|8,1:2|2:0,2:0:0:0:
0,50,37916,1,8,2:3:0:0:
0,50,37993,1,8,2:3:0:0:
0,50,38069,2,0,P|15:94|22:152,1,94.9999974632264,8|0,2:3|1:0,2:0:0:0:
164,299,38375,1,8,2:0:0:0:
164,299,38528,1,2,2:0:0:0:
78,371,38681,6,0,P|29:294|72:214,1,189.999994926453,0|8,1:0|2:0,2:0:0:0:
171,179,39140,1,8,2:3:0:0:
171,179,39217,1,8,2:3:0:0:
171,179,39294,2,0,P|215:194|265:207,1,94.9999974632264,8|0,2:3|1:0,2:0:0:0:
483,57,39600,6,0,P|415:64|373:133,1,142.49999619484,10|0,2:0|2:0,2:0:0:0:
445,235,39906,2,0,P|458:185|476:136,1,94.9999974632264,2|0,1:2|1:0,2:0:0:0:
179,0,40212,2,0,P|194:44|206:90,1,94.9999974632264,10|8,2:0|2:3,2:0:0:0:
282,120,40441,1,8,2:3:0:0:
282,113,40518,2,0,P|212:110|154:165,1,142.49999619484,8|0,2:3|2:0,2:0:0:0:
147,161,40824,2,0,P|100:163|60:136,1,94.9999974632264,10|2,2:0|2:0,2:0:0:0:
269,292,41130,6,0,P|254:346|248:394,1,94.9999974632264,8|0,2:0|1:0,2:0:0:0:
134,309,41436,1,0,1:0:0:0:
347,183,41589,2,0,P|440:179|502:247,1,189.999994926453,12|0,2:0|1:0,2:0:0:0:
490,259,41972,1,0,1:0:0:0:
475,261,42049,2,0,L|499:150,1,94.9999974632264,12|0,2:0|2:0,2:0:0:0:
285,1,42355,5,6,1:2:0:0:
216,169,42508,1,2,1:2:0:0:
106,96,42661,1,2,1:2:0:0:
208,59,42814,1,10,2:0:0:0:
106,96,42967,2,0,L|58:81,1,50,2|0,2:0|1:0,2:0:0:0:
124,300,43273,2,0,L|150:215,1,75,10|0,2:0|2:0,2:0:0:0:
145,228,43579,5,2,1:2:0:0:
59,212,43732,1,2,1:2:0:0:
21,303,43885,1,2,1:2:0:0:
168,384,44038,2,0,P|232:365|331:348,1,150.000005722046,10|0,2:0|1:0,2:0:0:0:
512,244,44498,2,0,P|456:230|396:212,1,112.500004291535,10|0,2:0|2:0,2:0:0:0:
403,214,44804,5,2,1:2:0:0:
379,143,44957,1,2,1:2:0:0:
432,85,45110,1,2,1:2:0:0:
509,110,45263,1,10,2:0:0:0:
509,110,45416,2,0,L|497:158,1,50,2|0,2:0|1:0,2:0:0:0:
351,361,45722,2,0,L|319:244,1,112.500004291535,10|0,2:0|2:0,2:0:0:0:
321,252,46028,5,2,1:2:0:0:
239,234,46181,1,2,1:2:0:0:
156,274,46334,1,2,1:2:0:0:
64,210,46487,2,0,B|65:130|105:143|112:61,1,150.000005722046,10|0,2:0|1:0,2:0:0:0:
0,0,46947,2,0,L|22:77,1,75.0000028610231,10|0,2:0|2:0,2:0:0:0:
305,174,47253,5,2,1:2:0:0:
407,85,47406,1,2,1:2:0:0:
342,8,47559,1,2,1:2:0:0:
259,85,47712,1,10,2:0:0:0:
402,193,47865,1,2,2:0:0:0:
488,161,48018,2,0,L|501:112,2,50,0|8|0,1:0|2:0|2:0,2:0:0:0:
267,384,48477,5,2,1:2:0:0:
216,327,48630,1,2,1:2:0:0:
270,267,48783,1,2,1:2:0:0:
384,340,48936,2,0,P|431:328|490:317,1,100,10|0,2:0|1:0,2:0:0:0:
329,105,49396,2,0,P|318:140|313:178,1,75,10|0,2:0|2:0,2:0:0:0:
313,178,49702,5,2,1:2:0:0:
252,12,49855,1,2,1:2:0:0:
407,47,50008,1,2,1:2:0:0:
182,139,50161,2,0,B|112:121|120:89|48:72,1,150.000005722046,10|0,2:0|1:0,2:0:0:0:
0,245,50620,2,0,P|34:229|71:222,1,75.0000028610231,10|2,2:0|2:0,2:0:0:0:
319,15,50926,6,0,P|295:109|273:209,1,200,10|0,2:0|2:0,2:0:0:0:
466,384,51385,2,0,P|487:290|513:188,1,200,10|0,2:0|2:0,2:0:0:0:
251,86,51845,6,0,P|163:109|87:134,1,150,10|0,2:0|2:0,2:0:0:0:
44,89,52151,1,4,2:0:0:0:
44,89,52457,1,2,2:3:0:0:
10,161,52610,1,0,3:0:0:0:
10,161,52686,1,0,3:0:0:0:
10,161,52763,2,0,P|19:192|27:226,1,59.9999981689454,2|0,2:3|2:0,2:0:0:0:
150,213,53069,2,0,P|141:241|135:271,1,59.9999981689454,2|0,2:3|2:0,2:0:0:0:
267,384,53375,2,0,P|223:371|179:361,2,89.9999972534181,2|0|0,2:3|2:0|2:0,2:0:0:0:
334,348,53911,5,0,3:0:0:0:
343,347,53987,2,0,L|363:295,1,29.9999990844727,2|0,2:3|2:0,2:0:0:0:
262,227,54217,1,0,3:0:0:0:
256,228,54294,2,0,L|245:182,1,29.9999990844727,2|0,2:3|2:0,2:0:0:0:
326,98,54523,1,0,3:0:0:0:
326,90,54600,2,0,B|412:91|392:138|485:155,1,160,2|2,2:3|2:3,2:0:0:0:
470,151,55059,5,0,2:0:0:0:
512,55,55212,2,0,P|473:43|436:28,1,80,2|0,2:3|2:0,2:0:0:0:
353,229,55518,2,0,P|382:236|446:269,1,80,2|0,2:3|3:0,2:0:0:0:
480,338,55748,1,0,3:0:0:0:
486,337,55824,2,0,P|498:298|513:261,1,80,2|0,2:3|2:0,2:0:0:0:
281,122,56130,6,0,P|189:134|155:204,1,157.499995193482,2|0,2:3|2:0,2:0:0:0:
92,260,56436,1,12,2:3:0:0:
92,260,56513,1,12,2:3:0:0:
92,260,56589,1,12,2:3:0:0:
92,260,56666,1,12,2:3:0:0:
92,260,56743,2,0,P|82:225|68:179,1,75.0000028610231,6|0,2:0|2:0,2:0:0:0:
409,17,57049,5,6,1:2:0:0:
409,17,57355,1,2,1:2:0:0:
277,128,57508,2,0,P|208:90|198:8,1,150.000005722046,10|2,2:0|1:2,2:0:0:0:
404,118,57967,2,0,L|377:211,1,75.0000028610231,10|0,2:0|2:0,2:0:0:0:
483,377,58273,2,0,P|497:336|512:291,1,75.0000028610231,0|0,1:0|2:0,2:0:0:0:
272,193,58579,1,2,1:2:0:0:
181,238,58732,1,8,2:0:0:0:
112,179,58885,2,0,P|102:139|91:100,1,75.0000028610231,2|0,2:0|1:0,2:0:0:0:
437,0,59191,2,0,L|414:88,1,89.9999972534181,10|0,2:0|2:0,2:0:0:0:
473,160,59498,6,0,P|397:100|315:113,1,179.999994506836,10|0,2:0|2:0,2:0:0:0:
25,304,59957,2,0,P|109:331|188:292,1,179.999994506836,8|0,2:0|2:0,2:0:0:0:
249,207,60416,1,8,2:0:0:0:
249,207,60722,1,10,2:0:0:0:
398,312,60875,1,8,2:0:0:0:
187,292,61028,1,8,2:0:0:0:
397,120,61181,1,8,2:0:0:0:
294,111,61334,6,0,L|305:145,1,22.4999993133545,2|0,2:1|2:0,2:0:0:0:
351,196,61487,2,0,L|340:230,1,22.4999993133545,2|0,2:1|2:0,2:0:0:0:
305,334,61640,6,0,L|292:275,2,44.999998626709,2|2|14,2:0|2:0|2:3,2:0:0:0:
410,307,62023,1,12,2:3:0:0:
418,303,62100,2,0,L|480:321,1,37.5000014305115,12|12,2:3|2:3,2:0:0:0:
231,209,62253,6,0,L|150:235,1,75,4|0,1:2|2:0,2:0:0:0:
86,271,62559,6,0,P|23:208|39:125,1,150,4|0,1:0|2:0,2:0:0:0:
0,61,62865,2,0,P|46:73|103:90,1,100,8|0,2:0|2:0,2:0:0:0:
395,181,63171,2,0,P|474:147|493:38,1,200,2|8,2:0|2:0,2:0:0:0:
237,36,63630,2,0,P|250:89|261:144,1,100,2|0,2:0|1:0,2:0:0:0:
454,378,63936,1,0,1:0:0:0:
454,378,64013,1,0,1:0:0:0:
454,378,64089,2,0,P|466:333|515:181,1,200,10|0,2:0|2:0,2:0:0:0:
326,50,64548,5,2,1:2:0:0:
234,229,64701,2,0,P|307:225|343:160,1,150,8|0,2:0|2:0,2:0:0:0:
343,164,65007,2,0,P|295:148|247:136,1,100,2|0,1:2|1:0,2:0:0:0:
97,361,65314,1,10,2:0:0:0:
0,255,65467,2,0,P|60:235|96:221,1,100,2|0,2:0|2:0,2:0:0:0:
393,277,65773,1,2,1:2:0:0:
323,384,65926,2,0,P|263:342|265:262,1,150,8|0,2:0|2:0,2:0:0:0:
203,169,66232,6,0,P|261:184|314:196,1,100,2|0,1:2|1:0,2:0:0:0:
495,0,66538,2,0,P|419:41|414:113,1,150,8|0,2:0|2:0,2:0:0:0:
453,181,66844,2,0,P|508:146|507:97,1,100,2|0,2:0|1:0,2:0:0:0:
275,118,67150,1,10,2:0:0:0:
275,118,67303,1,2,2:0:0:0:
408,305,67456,6,0,P|467:317|513:336,1,100,6|0,1:2|1:0,2:0:0:0:
226,0,67763,2,0,P|159:41|155:119,1,150,10|0,2:0|2:0,2:0:0:0:
134,198,68069,2,0,P|83:182|61:127,1,100,2|0,2:0|1:0,2:0:0:0:
304,234,68375,2,0,P|356:298|334:374,1,150,10|0,2:0|2:0,2:0:0:0:
251,383,68681,2,0,P|216:341|222:287,1,100,2|0,1:2|1:0,2:0:0:0:
408,138,68987,2,0,L|517:163,1,100,8|0,2:0|2:0,2:0:0:0:
452,29,69293,5,2,2:0:0:0:
300,132,69446,1,2,1:2:0:0:
458,282,69599,1,10,2:0:0:0:
505,160,69752,5,2,1:2:0:0:
219,316,69905,2,0,L|113:288,1,100,12|0,2:0|1:0,2:0:0:0:
236,42,70212,2,0,L|130:65,1,100,10|0,2:0|1:0,2:0:0:0:
347,336,70518,5,10,2:0:0:0:
419,176,70671,1,0,1:0:0:0:
347,336,70824,1,10,2:0:0:0:
154,193,70977,1,2,1:2:0:0:
346,247,71130,5,10,2:0:0:0:
207,288,71283,1,0,1:0:0:0:
335,133,71436,5,8,2:0:0:0:
104,111,71589,1,0,1:0:0:0:
359,4,71742,5,10,2:0:0:0:
242,203,71895,2,0,L|216:107,1,100,2|4,1:2|1:2,2:0:0:0:
216,107,72354,6,0,P|118:119|48:44,1,200,4|8,1:0|2:0,2:0:0:0:
50,52,72814,1,0,2:0:0:0:
293,195,72967,2,0,P|367:124|479:142,1,200,2|8,1:2|2:0,2:0:0:0:
373,384,73426,2,0,P|325:365|301:310,2,100,2|0|0,2:0|1:0|2:0,2:0:0:0:
458,129,73885,2,0,P|389:158|375:229,1,150,10|0,2:0|2:0,2:0:0:0:
441,277,74191,2,0,P|488:265|512:223,1,100,0|0,1:0|2:0,2:0:0:0:
254,102,74497,6,0,P|174:104|127:168,1,150,10|0,2:0|2:0,2:0:0:0:
92,235,74803,2,0,P|48:211|32:159,1,100,2|0,1:2|2:0,2:0:0:0:
178,0,75110,1,10,2:0:0:0:
352,119,75263,1,2,2:0:0:0:
352,119,75339,1,2,2:0:0:0:
352,119,75416,2,0,P|439:112|501:-4,1,200,0|10,1:0|2:0,2:0:0:0:
199,118,75875,5,2,2:0:0:0:
199,118,75951,1,2,2:0:0:0:
199,118,76028,2,0,L|234:330,1,200,0|8,1:0|2:0,2:0:0:0:
126,384,76487,1,2,2:0:0:0:
26,276,76640,1,2,1:2:0:0:
110,177,76793,1,2,2:0:0:0:
26,276,76946,1,10,2:0:0:0:
334,286,77099,5,2,2:0:0:0:
334,286,77176,1,2,2:0:0:0:
334,286,77252,2,0,P|387:263|451:246,1,100,4|0,1:2|2:0,2:0:0:0:
310,11,77559,2,0,P|246:47|229:118,1,150,10|0,2:0|2:0,2:0:0:0:
229,118,77865,1,2,1:2:0:0:
79,231,78018,2,0,P|45:195|41:146,1,100,2|8,1:2|2:0,2:0:0:0:
370,86,78324,5,2,2:0:0:0:
370,86,78400,1,2,2:0:0:0:
370,86,78477,2,0,P|431:106|515:134,1,150,0|0,1:0|2:0,2:0:0:0:
512,114,78783,2,0,P|462:127|417:147,1,100,10|0,2:0|2:0,2:0:0:0:
227,384,79089,2,0,P|294:353|311:262,1,150,2|0,1:2|2:0,2:0:0:0:
325,273,79395,2,0,P|297:232|249:223,1,100,10|2,2:0|2:0,2:0:0:0:
31,347,79701,5,14,2:0:0:0:
31,347,80007,1,10,2:0:0:0:
165,303,80161,1,0,1:0:0:0:
16,226,80314,1,10,2:0:0:0:
275,182,80467,1,0,1:0:0:0:
33,61,80620,1,10,2:0:0:0:
328,0,80773,5,0,1:0:0:0:
193,213,80926,2,0,P|135:142|156:35,1,200,10|10,2:0|2:0,2:0:0:0:
505,0,81385,2,0,P|491:38|476:97,1,100,2|10,1:2|2:0,2:0:0:0:
367,372,81691,1,2,1:2:0:0:
367,372,81768,1,0,1:0:0:0:
367,372,81844,2,0,P|349:307|320:224,1,150,6|0,2:0|2:0,2:0:0:0:
325,214,82150,6,0,P|437:171|497:234,2,179.999994506836,6|10|2,1:2|2:0|2:0,2:0:0:0:
154,306,82916,1,0,1:0:0:0:
64,252,83069,2,0,P|47:163|29:75,1,179.999994506836,10|0,2:0|1:0,2:0:0:0:
29,75,83681,2,0,P|81:63|128:43,1,89.9999972534181,10|0,2:0|2:0,2:0:0:0:
325,174,83987,2,0,P|283:183|235:203,1,89.9999972534181,2|0,2:0|1:0,2:0:0:0:
354,7,84293,1,8,2:0:0:0:
354,7,84599,6,0,P|433:43|456:127,1,179.999994506836,2|10,1:2|2:0,2:0:0:0:
353,366,85059,1,0,2:0:0:0:
353,366,85212,2,0,P|342:318|328:265,1,89.9999972534181,2|0,2:0|1:0,2:0:0:0:
142,169,85518,2,0,P|58:195|29:284,1,179.999994506836,10|0,2:0|1:0,2:0:0:0:
28,275,86130,2,0,P|70:284|136:314,1,89.9999972534181,10|0,2:0|2:0,2:0:0:0:
402,121,86436,1,2,2:0:0:0:
278,123,86589,1,0,1:0:0:0:
390,296,86742,2,0,P|403:245|419:190,1,89.9999972534181,8|0,2:0|2:0,2:0:0:0:
142,41,87048,6,0,P|32:64|-1:150,2,179.999994506836,6|10|2,1:2|2:0|2:0,2:0:0:0:
268,196,87814,1,0,1:0:0:0:
183,312,87967,2,0,P|117:253|118:166,1,179.999994506836,10|0,2:0|1:0,2:0:0:0:
272,42,88426,1,0,2:0:0:0:
384,173,88579,1,10,2:0:0:0:
488,97,88732,1,0,2:0:0:0:
394,0,88885,2,0,P|384:47|376:88,1,89.9999972534181,2|0,2:0|1:0,2:0:0:0:
475,349,89191,2,0,P|515:297|512:231,1,134.999995880127,8|0,2:0|2:0,2:0:0:0:
421,270,89497,6,0,B|314:283|335:326|255:334,1,179.999994506836,14|0,2:0|1:0,2:0:0:0:
23,241,89956,2,0,B|75:233|75:233|109:265,1,100,14|0,2:0|2:0,2:0:0:0:
82,345,90263,1,0,1:0:0:0:
0,146,90416,2,0,P|16:69|32:-7,1,150,14|0,2:0|2:0,2:0:0:0:
47,3,90722,5,10,2:0:0:0:
350,136,90875,1,0,1:0:0:0:
350,136,90951,1,0,1:0:0:0:
350,137,91028,2,0,P|270:190|171:170,1,200,6|8,2:0|2:0,2:0:0:0:
176,20,91487,1,2,2:0:0:0:
176,20,91640,2,0,L|279:51,1,100,2|2,2:0|2:0,2:0:0:0:
464,264,91946,5,6,2:0:0:0:
504,181,92099,1,2,1:2:0:0:
418,138,92252,1,2,1:2:0:0:
370,221,92405,1,2,1:2:0:0:
504,181,92559,1,2,2:3:0:0:
0,343,93018,5,8,2:3:0:0:
0,343,93094,1,8,2:3:0:0:
0,343,93171,1,8,2:3:0:0:
35,252,93324,1,0,1:0:0:0:
130,284,93477,1,2,1:2:0:0:
99,374,93630,1,2,1:2:0:0:
35,252,93783,1,2,2:3:0:0:
414,370,94395,5,2,1:2:0:0:
492,300,94548,1,0,1:0:0:0:
334,227,94701,1,2,1:2:0:0:
470,165,94854,1,0,1:0:0:0:
410,275,95007,1,2,2:3:0:0:
101,62,95467,5,8,2:3:0:0:
101,62,95543,1,8,2:3:0:0:
101,62,95620,1,8,2:3:0:0:
169,126,95773,1,2,1:2:0:0:
34,233,95926,1,2,1:2:0:0:
129,289,96079,1,2,1:2:0:0:
61,139,96232,6,0,L|-10:163,1,59.9999981689454,2|2,2:3|1:2,2:0:0:0:
198,224,96538,2,0,L|260:205,1,59.9999981689454,10|2,2:0|2:0,2:0:0:0:
383,15,96844,5,6,1:2:0:0:
293,59,96997,1,2,1:2:0:0:
341,149,97150,1,2,1:2:0:0:
424,108,97303,1,2,1:2:0:0:
293,59,97456,1,2,2:3:0:0:
70,357,97916,5,8,2:3:0:0:
70,357,97992,1,8,2:3:0:0:
70,357,98069,1,8,2:3:0:0:
0,279,98222,1,0,1:0:0:0:
84,218,98375,1,2,1:2:0:0:
145,303,98528,1,2,1:2:0:0:
0,279,98681,1,2,2:3:0:0:
365,168,98987,6,0,P|421:181|480:199,1,112.500004291535,6|0,2:0|2:0,2:0:0:0:
496,188,99293,6,0,P|506:167|516:146,1,37.5000014305115,6|0,1:2|2:0,2:0:0:0:
455,2,99446,2,0,L|427:86,1,75.0000028610231,0|0,1:0|2:0,2:0:0:0:
122,227,99905,6,0,L|107:166,1,37.5000014305115,6|0,1:2|2:0,2:0:0:0:
176,51,100059,2,0,L|197:142,1,75.0000028610231,0|0,1:0|2:0,2:0:0:0:
192,125,100518,5,10,2:0:0:0:
24,304,100671,2,0,B|-2:278|-2:278|0:220,1,75.0000028610231,2|0,1:2|1:0,2:0:0:0:
297,253,100977,2,0,B|368:252|374:287|452:303,1,150.000005722046,6|10,2:0|2:0,2:0:0:0:
446,218,101436,1,2,1:2:0:0:
330,352,101589,1,10,2:0:0:0:
202,135,101742,6,0,P|192:91|176:35,1,100,6|2,1:2|2:0,2:0:0:0:
315,86,102048,1,10,2:0:0:0:
315,86,102201,1,2,2:0:0:0:
120,266,102354,2,0,P|48:254|3:192,1,150.000005722046,2|10,1:2|2:0,2:0:0:0:
0,185,102967,6,0,P|33:148|82:144,2,100,2|2|10,1:2|2:0|2:0,2:0:0:0:
172,382,103426,2,0,P|232:314|222:223,1,187.500007152558,2|0,2:0|2:0,2:0:0:0:
220,217,103885,2,0,L|314:248,1,75.0000028610231,10|0,2:0|2:0,2:0:0:0:
495,114,104191,6,0,P|476:63|460:15,1,100,2|2,1:2|2:0,2:0:0:0:
357,114,104497,1,10,2:0:0:0:
357,114,104650,1,2,2:0:0:0:
512,240,104803,2,0,P|439:246|397:307,1,150.000005722046,2|10,1:2|2:0,2:0:0:0:
399,318,105416,6,0,P|433:353|481:356,2,100,2|2|10,1:2|2:0|2:0,2:0:0:0:
212,120,105875,2,0,P|307:122|349:207,1,200,2|8,2:0|2:0,2:0:0:0:
280,300,106334,1,2,1:2:0:0:
280,300,106487,1,8,2:0:0:0:
97,102,106640,6,0,L|123:-5,1,100,6|2,1:2|2:0,2:0:0:0:
314,51,106946,2,0,L|288:158,1,100,10|2,2:0|2:0,2:0:0:0:
68,311,107252,1,2,1:2:0:0:
2,279,107405,2,0,P|44:219|158:225,1,187.500007152558,2|0,2:0|2:0,2:0:0:0:
145,227,107865,6,0,P|106:197|99:149,1,100,2|2,1:2|2:0,2:0:0:0:
321,17,108171,2,0,P|359:46|366:94,2,100,10|2|0,2:0|2:0|1:0,2:0:0:0:
306,19,108783,2,0,P|274:31|235:45,1,75.0000028610231,10|0,2:0|2:0,2:0:0:0:
383,272,109089,6,0,P|448:240|470:119,1,200,2|10,1:2|2:0,2:0:0:0:
152,19,109548,2,0,P|170:92|202:227,1,200,2|0,2:0|2:0,2:0:0:0:
107,328,110007,1,10,2:0:0:0:
21,261,110161,5,2,2:0:0:0:
21,261,110237,1,2,2:0:0:0:
21,261,110314,1,10,2:0:0:0:
107,212,110467,1,2,1:2:0:0:
256,299,110620,1,2,1:2:0:0:
398,188,110773,5,10,2:0:0:0:
369,117,110926,1,2,1:2:0:0:
292,139,111079,1,2,1:2:0:0:
308,217,111232,2,0,P|384:231|472:255,1,150,6|0,2:0|2:0,2:0:0:0:
483,325,111538,6,0,P|495:238|517:162,1,150.000005722046,4|10,1:2|2:0,2:0:0:0:
65,55,112150,2,0,P|74:91|99:226,1,150.000005722046,0|8,1:0|2:0,2:0:0:0:
57,278,112610,1,0,1:0:0:0:
95,201,112763,1,0,1:0:0:0:
175,251,112916,1,0,1:0:0:0:
245,193,113069,1,8,2:0:0:0:
353,292,113222,1,2,1:2:0:0:
423,188,113375,5,10,2:0:0:0:
315,128,113528,1,10,2:0:0:0:
256,293,113681,1,10,2:0:0:0:
449,283,113834,1,8,2:0:0:0:
215,116,113987,5,6,2:0:0:0:
216,108,114293,2,0,L|226:53,3,37.5000014305115,10|0|0|0,2:0|1:0|1:0|1:0,2:0:0:0:
119,65,114599,2,0,L|103:6,3,37.5000014305115,10|0|0|0,2:0|1:0|1:0|1:0,2:0:0:0:
52,158,114905,2,0,L|9:114,3,37.5000014305115,10|0|2|0,2:0|1:0|1:2|1:0,2:0:0:0:
153,220,115212,2,0,L|169:157,3,37.5000014305115,10|0|0|0,2:0|1:0|1:0|1:0,2:0:0:0:
47,287,115518,2,0,L|3:251,3,37.5000014305115,8|0|0|0,2:0|1:0|1:0|1:0,2:0:0:0:
195,340,115824,1,12,2:3:0:0:
195,340,115900,1,12,2:3:0:0:
195,340,115977,1,12,2:3:0:0:
195,340,116053,1,12,2:3:0:0:
195,340,116130,2,0,L|290:304,1,75.0000028610231,6|0,2:0|2:0,2:0:0:0:
420,130,116436,5,6,1:2:0:0:
420,130,116742,1,2,1:2:0:0:
371,20,116895,2,0,P|297:89|303:175,1,179.999994506836,10|0,2:0|1:0,2:0:0:0:
492,305,117354,2,0,P|501:258|519:197,1,89.9999972534181,8|0,2:0|2:0,2:0:0:0:
211,265,117661,1,0,1:0:0:0:
214,270,117967,1,2,1:2:0:0:
281,359,118120,1,8,2:0:0:0:
393,269,118273,2,0,P|348:258|310:239,1,80,2|0,2:0|1:0,2:0:0:0:
186,4,118579,2,0,P|179:53|158:100,1,80,10|0,2:0|2:0,2:0:0:0:
0,270,118885,6,0,P|62:207|151:206,1,179.999994506836,8|0,2:0|2:0,2:0:0:0:
476,63,119344,2,0,P|415:125|327:124,1,179.999994506836,8|0,2:0|2:0,2:0:0:0:
307,379,119803,2,0,P|279:344|277:299,1,89.9999972534181,8|0,2:0|2:0,2:0:0:0:
512,174,120110,5,8,2:0:0:0:
397,309,120263,1,8,2:0:0:0:
331,215,120416,1,8,2:0:0:0:
512,289,120569,1,8,2:0:0:0:
199,323,120722,6,0,L|116:353,1,80,10|12,2:0|2:3,2:0:0:0:
52,313,120951,1,12,2:3:0:0:
45,314,121028,2,0,P|16:279|29:199,1,120,4|0,1:2|2:0,2:0:0:0:
3,101,121334,6,0,P|44:118|104:134,1,100,4|0,1:0|1:0,2:0:0:0:
405,64,121640,2,0,P|345:51|290:33,1,100,8|0,2:0|2:0,2:0:0:0:
131,338,121946,2,0,P|216:282|224:185,1,200,2|8,2:0|2:0,2:0:0:0:
128,38,122405,2,0,P|120:80|95:136,1,100,2|0,2:0|1:0,2:0:0:0:
327,328,122712,1,0,1:0:0:0:
327,328,122788,1,0,1:0:0:0:
327,328,122865,2,0,P|402:261|501:271,1,200,10|0,2:0|2:0,2:0:0:0:
446,378,123324,5,2,1:2:0:0:
265,202,123477,2,0,B|277:129|323:132|328:67,1,150,8|0,2:0|2:0,2:0:0:0:
192,0,123783,2,0,P|208:44|221:104,1,100,2|0,1:2|1:0,2:0:0:0:
392,277,124089,1,10,2:0:0:0:
505,176,124242,2,0,P|471:140|422:134,1,100,2|0,2:0|2:0,2:0:0:0:
133,335,124548,1,2,1:2:0:0:
23,275,124701,2,0,P|61:213|133:204,1,150,8|0,2:0|2:0,2:0:0:0:
250,198,125007,6,0,P|236:254|227:308,1,100,2|0,1:2|1:0,2:0:0:0:
512,337,125314,2,0,P|483:269|414:244,1,150,8|0,2:0|2:0,2:0:0:0:
404,247,125620,2,0,P|452:242|487:208,1,100,2|0,2:0|1:0,2:0:0:0:
386,110,125926,1,10,2:0:0:0:
386,110,126079,1,2,2:0:0:0:
158,299,126232,6,0,P|107:309|61:325,1,100,6|0,1:2|1:0,2:0:0:0:
212,0,126538,2,0,P|232:72|257:153,1,150,10|0,2:0|2:0,2:0:0:0:
177,197,126844,2,0,P|125:175|82:166,1,100,2|0,2:0|1:0,2:0:0:0:
375,19,127150,2,0,P|422:47|533:79,1,150,10|0,2:0|2:0,2:0:0:0:
508,62,127456,1,2,1:2:0:0:
344,120,127610,1,0,1:0:0:0:
470,287,127763,2,0,B|505:250|505:250|506:185,1,100,8|0,2:0|2:0,2:0:0:0:
266,58,128069,5,2,2:0:0:0:
173,194,128222,1,2,1:2:0:0:
126,72,128375,1,10,2:0:0:0:
318,200,128528,1,2,1:2:0:0:
117,298,128681,6,0,P|71:279|0:263,1,100,12|0,2:0|1:0,2:0:0:0:
345,115,128987,2,0,P|357:68|386:14,1,100,10|0,2:0|1:0,2:0:0:0:
98,171,129293,5,10,2:0:0:0:
254,283,129446,1,0,1:0:0:0:
237,135,129599,1,10,2:0:0:0:
117,298,129752,1,2,1:2:0:0:
215,44,129905,5,10,2:0:0:0:
345,115,130059,1,0,1:0:0:0:
168,220,130212,5,8,2:0:0:0:
335,309,130365,1,0,1:0:0:0:
142,130,130518,5,10,2:0:0:0:
410,49,130671,1,2,1:2:0:0:
410,49,130747,1,0,1:0:0:0:
410,49,130824,1,4,1:2:0:0:
481,132,131130,6,0,P|391:87|294:66,1,200,4|8,1:0|2:0,2:0:0:0:
294,66,131589,1,0,2:0:0:0:
121,294,131742,2,0,P|197:270|217:137,1,200,2|8,1:2|2:0,2:0:0:0:
52,4,132201,2,0,P|17:39|16:91,2,100,2|0|0,2:0|1:0|2:0,2:0:0:0:
228,162,132661,2,0,P|161:193|91:144,1,150,10|0,2:0|2:0,2:0:0:0:
120,74,132967,2,0,P|164:54|211:69,1,100,0|0,1:0|2:0,2:0:0:0:
339,383,133273,6,0,P|284:334|286:261,1,150,10|0,2:0|2:0,2:0:0:0:
351,204,133579,2,0,B|454:208|441:258|536:278,1,200,2|10,1:2|2:0,2:0:0:0:
267,0,134038,5,2,2:0:0:0:
267,0,134115,1,2,2:0:0:0:
267,0,134191,2,0,P|239:95|222:194,1,200,0|10,1:0|2:0,2:0:0:0:
414,345,134650,1,2,2:0:0:0:
414,345,134727,1,2,2:0:0:0:
414,345,134803,2,0,P|432:288|442:237,1,100,0|0,1:0|2:0,2:0:0:0:
97,115,135110,2,0,P|79:172|69:223,1,100,8|2,2:0|2:0,2:0:0:0:
257,373,135416,5,2,1:2:0:0:
343,238,135569,1,2,2:0:0:0:
245,129,135722,1,10,2:0:0:0:
98,315,135875,5,2,2:0:0:0:
98,315,135951,1,2,2:0:0:0:
98,315,136028,2,0,P|57:304|-12:288,1,100,4|0,1:2|2:0,2:0:0:0:
126,30,136334,2,0,P|201:91|205:188,1,200,10|2,2:0|1:2,2:0:0:0:
114,143,136793,1,2,1:2:0:0:
275,19,136946,1,8,2:0:0:0:
393,186,137099,5,2,2:0:0:0:
393,186,137176,1,2,2:0:0:0:
393,186,137252,2,0,P|465:178|512:123,1,150,0|0,1:0|2:0,2:0:0:0:
512,114,137559,2,0,P|500:67|455:48,1,100,10|0,2:0|2:0,2:0:0:0:
229,224,137865,2,0,L|266:381,1,150,2|0,1:2|2:0,2:0:0:0:
255,383,138171,2,0,L|282:276,1,100,10|2,2:0|2:0,2:0:0:0:
81,38,138477,5,14,2:0:0:0:
81,38,138783,1,10,2:0:0:0:
210,110,138936,1,0,1:0:0:0:
25,294,139089,5,10,2:0:0:0:
116,122,139242,1,0,1:0:0:0:
238,275,139395,5,10,2:0:0:0:
0,185,139548,1,0,1:0:0:0:
266,56,139701,6,0,P|311:72|375:87,1,100,10|0,2:0|1:0,2:0:0:0:
156,362,140007,2,0,P|141:314|120:261,1,100,10|0,2:0|1:2,2:0:0:0:
469,163,140314,2,0,P|453:206|443:268,1,100,10|0,2:0|1:2,2:0:0:0:
432,268,140543,1,0,1:0:0:0:
424,277,140620,2,0,P|474:308|522:296,1,100,6|0,2:0|2:0,2:0:0:0:
222,88,140926,6,0,P|143:102|110:158,1,133.333333333333,6|2,1:2|2:0,2:0:0:0:
32,207,141232,2,0,P|27:156|-1:84,1,100,10|2,2:0|2:0,2:0:0:0:
230,334,141538,1,2,2:0:0:0:
122,309,141691,1,0,1:0:0:0:
221,209,141844,2,0,P|277:225|316:238,1,100,10|2,2:0|2:0,2:0:0:0:
512,59,142150,6,0,P|452:33|397:67,1,133.333333333333,2|2,1:2|2:0,2:0:0:0:
297,27,142456,2,0,P|311:63|327:133,1,100,10|2,2:0|2:0,2:0:0:0:
478,307,142763,2,0,P|487:261|512:198,1,100,2|0,2:0|1:0,2:0:0:0:
224,240,143069,6,0,P|157:245|114:291,1,133.333333333333,10|2,2:0|2:0,2:0:0:0:
82,384,143375,2,0,P|29:346|18:281,1,133.333333333333,2|2,1:2|2:0,2:0:0:0:
0,170,143681,2,0,P|37:181|81:198,1,66.6666666666667,10|0,2:0|2:0,2:0:0:0:
238,95,143885,1,2,2:0:0:0:
192,28,143987,2,0,P|142:70|139:135,1,133.333333333333,2|2,2:0|2:0,2:0:0:0:
282,190,144293,2,0,P|324:140|317:75,1,133.333333333333,10|2,2:0|2:0,2:0:0:0:
277,6,144599,5,2,1:2:0:0:
406,162,144752,2,0,P|447:180|501:197,1,100,2|8,2:0|2:0,2:0:0:0:
499,196,145110,2,0,P|420:225|395:303,1,166.666666666667,2|2,2:0|1:2,2:0:0:0:
496,382,145518,2,0,B|523:336|523:336|510:291,1,100,10|0,2:0|2:0,2:0:0:0:
260,204,145824,1,0,1:0:0:0:
260,204,146130,6,0,L|158:231,1,100,10|2,2:0|2:0,2:0:0:0:
0,89,146436,2,0,P|51:75|107:58,1,100,2|2,2:0|1:2,2:0:0:0:
119,311,146742,1,10,2:0:0:0:
22,223,146895,1,2,2:0:0:0:
213,128,147048,1,2,1:2:0:0:
213,128,147201,1,2,2:0:0:0:
372,218,147354,2,0,P|456:172|460:76,1,200,10|2,2:0|2:0,2:0:0:0:
362,31,147814,1,2,1:2:0:0:
271,224,147967,2,0,P|281:268|296:325,1,100,10|2,2:0|2:0,2:0:0:0:
15,150,148273,6,0,P|63:137|132:112,1,119.999996337891,14|2,2:0|1:2,2:0:0:0:
512,193,148579,2,0,P|449:212|394:241,1,119.999996337891,10|2,2:0|1:2,2:0:0:0:
235,12,148885,5,10,2:0:0:0:
361,78,149038,1,2,1:2:0:0:
148,251,149191,5,10,2:0:0:0:
229,124,149344,1,2,1:2:0:0:
393,320,149497,6,0,P|462:336|533:368,1,119.999996337891,10|0,2:0|1:0,2:0:0:0:
137,149,149803,2,0,P|81:165|12:172,1,119.999996337891,10|0,2:0|1:0,2:0:0:0:
236,383,150110,2,0,P|273:305|248:243,1,119.999996337891,8|0,2:0|1:0,2:0:0:0:
253,264,150339,1,0,1:0:0:0:
239,260,150416,2,0,P|325:262|379:194,1,179.999994506836,6|0,2:0|2:0,2:0:0:0:
377,176,150722,6,0,P|436:164|496:211,1,133.333333333333,6|2,1:2|2:0,2:0:0:0:
511,290,151028,2,0,P|493:337|478:393,1,100,10|2,2:0|2:0,2:0:0:0:
250,179,151334,2,0,P|270:129|282:66,1,100,2|0,2:0|1:0,2:0:0:0:
413,35,151640,1,10,2:0:0:0:
279,84,151793,1,2,2:0:0:0:
492,204,151946,6,0,P|435:148|379:154,1,133.333333333333,2|2,1:2|2:0,2:0:0:0:
323,231,152252,2,0,P|341:275|355:344,1,100,10|2,2:0|2:0,2:0:0:0:
122,384,152559,2,0,P|102:337|91:279,1,100,2|0,2:0|1:0,2:0:0:0:
174,134,152865,6,0,P|132:183|67:184,1,133.333333333333,10|2,2:0|2:0,2:0:0:0:
21,107,153171,2,0,P|62:57|127:56,1,133.333333333333,2|2,1:2|2:0,2:0:0:0:
265,113,153477,2,0,P|310:99|342:87,1,66.6666666666667,10|0,2:0|2:0,2:0:0:0:
381,28,153681,1,2,2:0:0:0:
328,92,153783,2,0,P|331:156|388:198,1,133.333333333333,2|2,2:0|2:0,2:0:0:0:
467,277,154089,2,0,P|509:227|502:163,1,133.333333333333,10|2,2:0|2:0,2:0:0:0:
428,119,154395,5,2,1:2:0:0:
294,325,154599,1,0,2:0:0:0:
294,325,154701,2,0,P|248:334|189:356,1,100,10|2,2:0|1:2,2:0:0:0:
69,127,155007,2,0,P|128:115|182:86,1,100,10|0,2:0|1:0,2:0:0:0:
91,384,155314,2,0,P|40:330|41:257,1,150,8|0,2:0|2:0,2:0:0:0:
53,248,155620,6,0,P|104:260|161:285,2,100,12|0|0,2:0|1:0|1:0,2:0:0:0:
293,15,156079,2,0,P|278:60|264:114,2,100,12|0|0,2:0|1:0|1:0,2:0:0:0:
415,292,156538,2,0,P|462:307|511:319,1,100,10|0,2:0|2:0,2:0:0:0:
427,140,156844,5,14,2:0:0:0:
280,304,156997,1,0,1:0:0:0:
144,208,157150,1,2,1:2:0:0:
251,45,157303,5,12,2:0:0:0:
325,122,157456,1,0,1:0:0:0:
255,201,157610,1,0,1:0:0:0:
400,350,157763,5,10,2:0:0:0:
255,201,157916,1,2,2:0:0:0:
461,259,158069,5,10,2:0:0:0:
461,259,158222,1,0,1:0:0:0:
268,301,158375,5,10,2:0:0:0:
381,189,158528,1,0,1:0:0:0:
160,97,158681,5,10,2:0:0:0:
364,10,158834,1,0,1:0:0:0:
130,247,158987,5,10,2:0:0:0:
266,0,159140,2,0,P|313:137|364:359,1,359.999989013672,4|8,1:2|2:3,2:0:0:0:
361,346,160135,1,4,2:3:0:0:
361,346,160212,1,8,2:3:0:0:
15,361,160518,5,6,1:2:0:0:
15,361,160824,1,2,1:2:0:0:
15,361,161130,1,2,2:0:0:0:
232,280,161436,6,0,L|319:306,1,80,10|2,2:0|1:2,2:0:0:0:
478,184,162507,1,8,2:0:0:0:
478,184,162661,1,8,2:0:0:0:
382,154,162967,1,2,1:2:0:0:
331,228,163273,1,2,1:2:0:0:
382,293,163579,1,2,2:0:0:0:
109,355,163885,6,0,L|33:333,1,80,10|0,2:0|1:0,2:0:0:0:
32,332,164956,1,8,2:0:0:0:
32,332,165110,1,8,2:0:0:0:
276,142,165416,5,2,1:2:0:0:
332,198,165722,1,2,1:2:0:0:
277,266,166028,1,2,2:0:0:0:
401,337,166334,6,0,L|478:360,1,80,10|2,2:0|1:2,2:0:0:0:
512,295,167252,1,10,2:0:0:0:
134,350,167559,6,0,L|27:379,1,100,10|0,2:0|1:0,2:0:0:0:
204,89,168171,2,0,L|232:194,1,100,10|2,2:0|1:2,2:0:0:0:
494,0,168783,2,0,L|462:147,1,139.999995727539,10|8,2:0|2:3,2:0:0:0:
145,243,169701,6,0,L|-3:205,1,139.999995727539,4|6,2:3|2:0,2:0:0:0:
16,359,177661,6,0,P|74:330|140:324,1,122.499996261597,4|0,1:2|2:0,2:0:0:0:
191,280,178273,2,0,P|266:326|370:328,1,179.999994506836,4|0,1:2|2:0,2:0:0:0:
429,285,178885,1,8,2:0:0:0:
314,217,179038,1,8,2:0:0:0:
493,124,179191,1,8,2:0:0:0:
272,29,179344,1,12,2:0:0:0:
256,192,179497,12,2,181334,2:0:0:0:
206,45,181487,6,0,L|215:2,2,25,8|8|8,2:3|2:3|2:3,2:0:0:0:
284,84,181946,6,0,P|176:90|128:217,1,239.999992675781,4|8,1:0|2:0,2:0:0:0:
449,374,182405,1,2,2:0:0:0:
449,374,182482,1,2,2:0:0:0:
449,374,182559,2,0,P|461:324|474:260,1,100,0|0,1:0|2:0,2:0:0:0:
122,206,182865,2,0,P|184:280|280:280,1,200,10|0,2:0|1:0,2:0:0:0:
454,42,183324,1,2,2:0:0:0:
454,42,183477,2,0,P|404:53|349:67,1,100,8|0,2:0|2:0,2:0:0:0:
72,326,183783,6,0,P|13:281|0:209,1,150,2|0,1:2|2:0,2:0:0:0:
0,209,184089,1,10,2:0:0:0:
148,90,184242,2,0,P|193:102|253:130,1,100,2|0,2:0|1:0,2:0:0:0:
423,351,184548,1,2,2:0:0:0:
511,243,184701,2,0,P|454:195|381:199,1,150,8|0,2:0|2:0,2:0:0:0:
285,241,185007,6,0,P|292:284|303:350,1,100,2|0,1:2|2:0,2:0:0:0:
512,98,185314,2,0,P|449:75|359:47,1,150,8|0,2:0|2:0,2:0:0:0:
364,70,185620,2,0,P|424:49|461:39,1,100,2|0,1:2|2:0,2:0:0:0:
425,261,185926,1,10,2:0:0:0:
425,261,186079,1,2,2:0:0:0:
155,136,186232,6,0,P|107:80|118:8,1,150,6|0,1:2|2:0,2:0:0:0:
216,0,186538,2,0,P|243:40|241:90,1,100,10|0,2:0|2:0,2:0:0:0:
112,294,186844,2,0,P|168:246|240:257,1,150,2|0,1:2|2:0,2:0:0:0:
248,355,187150,2,0,P|208:382|158:380,1,100,10|0,2:0|2:0,2:0:0:0:
0,205,187456,6,0,L|41:2,1,200,2|8,1:2|2:0,2:0:0:0:
39,8,188069,1,2,1:2:0:0:
127,151,188222,1,2,2:0:0:0:
320,94,188375,1,10,2:0:0:0:
258,0,188528,1,2,2:0:0:0:
303,243,188681,6,0,P|352:256|403:279,1,100,12|0,2:0|1:0,2:0:0:0:
258,0,188987,2,0,P|242:45|228:99,1,100,10|0,2:0|1:0,2:0:0:0:
405,371,189293,5,10,2:0:0:0:
464,226,189446,1,0,1:0:0:0:
240,326,189599,1,10,2:0:0:0:
180,184,189752,1,2,1:2:0:0:
409,79,189905,5,10,2:0:0:0:
278,194,190059,1,0,1:0:0:0:
159,81,190212,5,8,2:0:0:0:
371,199,190365,1,0,1:0:0:0:
275,22,190518,5,10,2:0:0:0:
115,288,190671,2,0,B|76:322|76:322|20:313,1,100,2|4,1:2|1:2,2:0:0:0:
22,309,191130,6,0,P|111:294|178:373,1,200,4|8,1:0|2:0,2:0:0:0:
177,369,191589,1,0,2:0:0:0:
105,149,191742,2,0,P|141:59|235:37,1,200,2|8,1:2|2:0,2:0:0:0:
307,254,192201,2,0,P|258:280|210:269,2,100,2|0|0,2:0|1:0|2:0,2:0:0:0:
438,55,192661,2,0,P|367:72|339:139,1,150,10|0,2:0|2:0,2:0:0:0:
409,204,192967,2,0,P|466:187|485:137,1,100,0|0,1:0|2:0,2:0:0:0:
186,24,193273,6,0,P|113:41|41:65,1,150,10|0,2:0|2:0,2:0:0:0:
1,0,193579,2,0,P|25:84|51:205,1,200,2|10,1:2|2:0,2:0:0:0:
195,384,194038,1,2,2:0:0:0:
195,384,194115,1,2,2:0:0:0:
195,384,194191,2,0,P|217:299|251:174,1,200,0|10,1:0|2:0,2:0:0:0:
512,134,194650,1,2,2:0:0:0:
512,134,194727,1,2,2:0:0:0:
512,134,194803,2,0,P|416:109|314:74,1,200,0|8,1:0|2:0,2:0:0:0:
381,13,195263,5,2,2:0:0:0:
246,190,195416,1,2,1:2:0:0:
156,106,195569,1,2,2:0:0:0:
261,3,195722,1,10,2:0:0:0:
373,192,195875,5,2,2:0:0:0:
373,192,195951,1,2,2:0:0:0:
373,192,196028,2,0,P|358:239|343:301,1,100,4|0,1:2|2:0,2:0:0:0:
487,383,196334,2,0,P|501:320|519:263,1,100,10|0,2:0|2:0,2:0:0:0:
261,184,196640,6,0,B|175:200|172:253|77:274,1,200,2|10,1:2|2:0,2:0:0:0:
42,0,197099,1,2,2:0:0:0:
42,0,197176,1,2,2:0:0:0:
42,0,197252,2,0,P|111:22|134:95,1,150,0|0,1:0|2:0,2:0:0:0:
68,149,197559,2,0,P|21:134|0:91,1,100,10|0,2:0|2:0,2:0:0:0:
321,26,197865,2,0,P|410:46|484:76,1,150,2|0,1:2|2:0,2:0:0:0:
478,48,198171,2,0,P|423:56|367:78,1,100,10|2,2:0|2:0,2:0:0:0:
221,346,198477,5,14,2:0:0:0:
221,346,198783,1,10,2:0:0:0:
313,290,198936,1,0,1:0:0:0:
142,225,199089,1,10,2:0:0:0:
351,144,199242,1,0,1:0:0:0:
145,84,199395,1,10,2:0:0:0:
313,0,199548,5,0,1:0:0:0:
38,196,199701,2,0,B|10:152|10:152|21:86,1,100,10|0,2:0|1:0,2:0:0:0:
82,27,200007,1,10,2:0:0:0:
279,209,200161,2,0,P|331:224|378:245,1,100,2|10,1:2|2:0,2:0:0:0:
512,61,200467,1,2,1:2:0:0:
512,61,200543,1,0,1:0:0:0:
512,61,200620,2,0,P|470:72|405:93,1,100,6|0,2:0|1:0,2:0:0:0:
391,345,200926,5,14,2:0:0:0:
391,345,201232,1,10,2:0:0:0:
469,257,201385,1,0,1:0:0:0:
295,93,201538,5,10,2:0:0:0:
208,184,201691,1,0,1:0:0:0:
255,351,201844,5,10,2:0:0:0:
375,210,201997,1,0,1:0:0:0:
201,33,202150,6,0,P|146:53|75:68,1,119.999996337891,10|0,2:0|1:0,2:0:0:0:
448,363,202456,2,0,P|461:300|491:243,1,119.999996337891,10|0,2:0|1:0,2:0:0:0:
48,310,202763,2,0,P|109:331|173:367,1,119.999996337891,10|0,2:0|1:0,2:0:0:0:
159,371,202992,1,0,1:0:0:0:
171,384,203069,2,0,P|214:343|215:280,1,119.999996337891,10|0,2:0|1:0,2:0:0:0:
102,78,203375,5,14,2:0:0:0:
102,78,203528,1,0,1:0:0:0:
36,162,203681,1,8,2:0:0:0:
118,222,203834,1,0,1:0:0:0:
242,131,203987,1,8,2:0:0:0:
323,227,204140,1,0,1:0:0:0:
439,121,204293,1,8,2:0:0:0:
456,335,204446,5,0,1:0:0:0:
456,335,204523,1,0,1:0:0:0:
456,335,204599,2,0,P|358:313|259:297,1,200,6|0,1:2|2:0,2:0:0:0:
268,305,205365,1,0,1:0:0:0:
268,305,205441,1,0,1:0:0:0:
268,305,205518,1,8,2:0:0:0:
152,70,205824,6,0,P|71:124|58:220,1,200,6|8,1:2|2:0,2:0:0:0:
355,384,206283,2,0,P|435:329|448:233,1,200,6|8,1:2|2:0,2:0:0:0:
331,0,206742,2,0,P|293:96|265:171,1,179.999994506836,6|0,1:2|2:0,2:0:0:0:
266,167,207048,1,8,2:0:0:0:
0,97,207201,2,0,P|61:78|118:59,1,119.999996337891,6|0,1:2|2:0,2:0:0:0:
331,297,207507,5,8,2:0:0:0:
181,209,207661,1,2,1:2:0:0:
266,56,207814,1,2,1:2:0:0:
420,135,207967,1,2,1:2:0:0:
188,350,208120,6,0,P|161:222|113:56,1,299.999990844727,6|0,1:2|2:0,2:0:0:0:
